#TITLE:量子の海のリントヴルム;
#SUBTITLE:;
#ARTIST:黒猫ダンジョン;
#TITLETRANSLIT:Maud and her water dragon;
#SUBTITLETRANSLIT:;
#ARTISTTRANSLIT:Kuroneko Dungeon;
#GENRE:;
#CREDIT:M.P.B.L.;
#MUSIC:Ryoushi no umi no Lindwurm.ogg;
#BANNER:Ryoushi no umi no Lindwurm.png;
#BACKGROUND:Ryoushi no umi no Lindwurm-bg.png;
#CDTITLE:cdtitle.png;
#SAMPLESTART:71.958;
#SAMPLELENGTH:13.714;
#SELECTABLE:YES;
#OFFSET:0.041;
#BPMS:0.000=280.000
,483.000=225.000
;
#STOPS:;
#BGCHANGES:0.500=Ryoushi no umi no Lindwurm.avi=1.000=1=0=0=StretchNoLoop==CrossFade==,
99999.000=-nosongbg-=1.000=0=0=0=StretchNoLoop====
;
#FGCHANGES:;

//--------------- dance-single - M.P.B.L.(黒) ----------------
#NOTES:
     dance-single:
     M.P.B.L.(黒):
     Beginner:
     6:
     0,0,0,0,0:
0000
0000
0000
0000
,
0000
0000
0000
0000
,
0000
0000
0000
0000
,
0000
0000
0000
0000
,
0000
0000
0000
0000
,
0000
0000
0000
0000
,
0000
1000
0000
0001
,
0000
0100
0000
0001
,
0000
1000
0000
0010
,
0000
1000
0000
0001
,
0000
0000
0000
0001
,
0000
0000
1000
0000
,
0100
0000
0010
0000
,
0001
0000
0010
0000
,
0100
0000
1000
0000
,
0001
0000
0000
0000
,
0001
0000
0000
0100
,
0000
0000
0010
1000
,
0000
0000
0001
0000
,
0000
0100
0010
0000
,
0000
1000
0000
1000
,
0000
0100
0000
0100
,
0000
0010
0000
0010
,
0000
0001
0000
0001
,
0000
1001
0000
1000
,
0000
1001
0000
0001
,
0000
1001
0000
1000
,
0000
1001
0000
0001
,
0000
1000
0000
0000
,
0010
0000
0000
0100
,
0000
0000
0001
0000
,
0000
1000
0000
0000
,
0010
0000
0000
0100
,
0000
0000
0001
0000
,
0000
0110
0000
0000
,
0000
1000
0000
0000
,
0000
0110
0000
0000
,
0000
0001
0000
0000
,
0000
1000
0000
0000
,
0000
0010
0000
0000
,
0000
0001
0000
0000
,
0000
0010
0000
0000
,
0000
1000
0000
0000
,
0000
0100
0000
0000
,
0000
0001
0000
0000
,
0000
0100
0000
0000
,
0000
1000
0000
0000
,
0000
0100
0000
0000
,
0000
0010
0000
0000
,
0000
0001
0000
0000
,
0000
0100
0000
0000
,
0000
0010
0000
0000
,
0000
1000
0000
0000
,
0000
0001
0000
0000
,
0000
1000
0000
0100
,
0000
1000
0000
0000
,
0000
0001
0000
0010
,
0000
0001
0000
0000
,
0000
1000
0000
0000
,
0000
1000
0000
0000
,
0000
0001
0000
0000
,
0000
0001
0000
0100
,
0000
0001
0000
0000
,
0000
1000
0000
0010
,
0000
1000
0000
0000
,
0000
0010
0000
0000
,
0000
0010
0000
0000
,
0000
0100
0000
0000
,
0000
0100
0000
0000
,
0002
0000
0003
0020
,
0000
0030
0200
0000
,
0300
2000
0000
3000
,
1001
0000
0000
0000
,
0000
0000
0000
0000
,
1000
0000
0000
0000
,
0000
0010
0000
0000
,
0000
0000
1000
0000
,
0000
0000
0000
0001
,
0000
0000
0000
0000
,
0001
0000
0000
0000
,
0000
0100
0000
0000
,
0000
0000
0001
0000
,
0000
0000
0000
1000
,
0000
0000
0000
0000
,
0001
0000
1000
0000
,
0001
0000
1000
0000
,
0010
0000
0100
0000
,
0010
0000
0100
0000
,
1000
0000
0000
0000
,
0001
0000
0000
0000
,
1000
0000
0000
0000
,
0001
0000
0000
0000
,
0100
0000
0001
0000
,
0100
0000
0001
0000
,
1000
0000
0010
0000
,
1000
0000
0010
0000
,
1000
0000
0000
0000
,
0100
0000
0000
0000
,
0010
0000
0000
0000
,
0001
0000
0000
0000
,
1000
0000
0000
1000
,
0000
0000
0000
0000
,
0001
0000
0000
0001
,
0000
0000
0000
0000
,
0100
0000
0000
0100
,
0000
0000
0000
0000
,
0010
0000
0000
0010
,
0000
0000
0000
0000
,
0000
0000
0000
1000
,
0000
0000
0100
0000
,
0000
0010
0000
0000
,
0001
0000
0000
1000
,
0000
0000
0010
0000
,
0000
0100
0000
0000
,
0001
0000
0000
1000
,
0000
0000
0100
0000
,
0000
1000
0000
0000
,
0100
0000
0000
0010
,
0000
0000
0001
0000
,
0000
0010
0000
0000
,
0001
0000
0000
0110
;

//--------------- dance-single - M.P.B.L.(黒) ----------------
#NOTES:
     dance-single:
     M.P.B.L.(黒):
     Easy:
     10:
     0,0,0,0,0:
0000
0000
0000
0000
,
0000
0000
0000
0000
,
0000
0000
0000
0000
,
0000
0000
0000
0000
,
0000
0000
0000
0000
,
0000
0000
0000
0000
,
0000
0100
0000
0001
,
0010
0001
0100
0001
,
0000
1000
0010
1000
,
0100
1000
0000
0001
,
0100
0010
1000
0010
,
0100
0001
1000
0100
,
0010
0100
1000
0000
,
0001
0010
0100
0010
,
0001
0000
1000
0100
,
1000
0100
0010
0001
,
0010
0100
1000
0010
,
0000
0100
0010
1000
,
0001
0000
0100
0000
,
0010
0100
0001
1000
,
0000
0001
0000
0010
,
0000
0100
0000
1000
,
0000
0100
0000
0001
,
0000
0010
0000
1000
,
0000
1100
0000
0011
,
0000
1100
0000
0011
,
0000
0101
0000
1010
,
0000
0101
0000
1010
,
0000
1000
0000
1000
,
0010
0000
0010
0100
,
0000
0100
0001
0000
,
0001
0010
0000
0010
,
0100
0000
0100
1000
,
0000
1000
0001
0000
,
0001
0000
0100
0010
0000
0100
0000
0010
,
0000
1000
0100
1000
,
0000
0000
0010
0100
0000
0010
0000
0100
,
0000
0001
0010
0001
,
0000
0000
1000
0000
0000
0100
0000
0000
,
0010
0000
0000
0100
0000
0000
1000
0000
,
0000
0010
0000
0000
0100
0000
0000
0001
,
0000
0000
0010
0000
0000
0100
0000
0000
,
0000
0000
0001
0000
0000
1000
0000
0000
,
0010
0000
0000
0100
0000
0000
0001
0000
,
0000
1000
0000
0000
0010
0000
0000
1000
,
0000
0000
0001
0000
0000
0100
0000
0000
,
0000
0010
0000
1000
,
0100
0000
0010
0001
,
0000
0100
0010
0000
,
1000
0000
0100
0000
0000
0110
0000
0000
,
0000
0010
0000
0001
,
0100
0000
0010
1000
,
0000
0100
0010
0000
,
0001
0000
0100
0000
0000
0110
0000
0000
,
0000
0010
1000
0010
,
0000
0100
0000
0001
0000
0100
0000
0000
,
0000
0001
0010
0001
,
0000
1000
0000
0100
0000
1000
0000
0000
,
0000
0000
0001
0000
0000
0100
0000
0000
,
1000
0000
0000
0100
0000
0000
0001
0000
,
0100
0010
0000
0010
,
0000
0100
1000
0100
,
0000
0010
0000
0001
0000
0010
0000
0000
,
0000
0001
0100
0001
,
0000
1000
0000
0010
0000
1000
0000
0000
,
0000
0000
0001
0000
0000
0010
0000
0000
,
1000
0000
0000
0010
0000
0000
0001
0000
,
0010
0100
0000
0100
,
0000
2000
0000
3000
,
0002
0000
0003
0020
0000
0030
0200
0000
,
0300
2000
0000
3000
0020
0000
0030
0200
,
0000
0300
0002
0000
0003
2000
0000
3000
,
0200
0300
0000
0000
,
0000
0000
0000
2002
0000
0000
3003
0000
,
1000
0001
1000
0010
,
1000
0000
0001
0100
,
0001
0000
1000
0000
0001
0000
0000
0001
,
0000
1000
0000
0010
,
0000
0010
0000
0000
0100
0000
0000
0000
,
0010
0100
0010
1000
,
0010
0000
0100
0010
,
0100
0000
0001
0000
0100
0000
0000
0100
,
0000
0001
0000
0010
,
0000
0010
0000
0000
1000
0000
0000
0000
,
0001
0010
0100
1000
,
0100
0010
0001
0000
,
1000
0001
0100
0001
,
0100
0001
1000
0000
,
0010
0000
0000
0110
0000
0000
0000
0000
,
1000
0000
0000
1100
0000
0000
0000
0000
,
0001
0000
0001
0000
,
0100
0000
0100
0000
,
1000
0010
0100
0001
,
0100
0010
1000
0000
,
0001
1000
0100
1000
,
0100
1000
0001
0000
,
0010
0000
0000
0110
0000
0000
0000
0000
,
0001
0000
0000
0101
0000
0000
0000
0000
,
1000
0000
1000
0000
,
0100
0000
0100
0000
,
1000
0000
0000
0010
0000
0000
0200
0000
,
0000
0000
0300
0000
,
0001
0000
0000
0010
0000
0000
0100
0000
,
0000
1010
0000
0000
0000
0000
0000
0000
,
0100
0000
0000
0001
0000
0000
0020
0000
,
0000
0000
0030
0000
,
1000
0000
0000
0100
0000
0000
0010
0000
,
0000
0101
0000
0000
0000
0000
0000
0000
,
0000
0000
0000
1000
,
0000
1000
0100
0000
,
0100
0010
0000
0010
,
0001
0000
0000
0001
,
0000
0001
0100
0000
,
0100
0010
0000
0010
,
1000
0000
0000
1000
,
0000
1000
0010
0000
,
0010
0100
0000
0100
,
0001
0000
0000
0001
,
0000
0001
0010
0000
,
0010
0100
0000
0100
,
1000
0100
0001
0200
,
0000
0320
0000
0230
,
0000
0020
0000
0000
,
0000
0000
0000
0000
,
0000
0330
0000
0000
;

//--------------- dance-single - M.P.B.L.(黒) ----------------
#NOTES:
     dance-single:
     M.P.B.L.(黒):
     Medium:
     13:
     0,0,0,0,0:
0000
0000
0000
0000
,
0000
0000
0000
0000
,
0000
0000
0000
0000
,
0000
0000
0000
0000
,
0000
0000
0000
0000
,
0000
0000
0000
0000
,
0000
0000
1000
0000
0000
0100
0000
0010
,
0000
0001
0000
0000
0100
0000
0001
0000
,
0100
0010
0000
1000
0000
0010
0000
0000
,
1000
0100
0001
0101
,
0000
0110
0000
0000
1001
0000
0001
0000
,
0100
0000
1000
0000
0100
0000
0000
0010
,
0000
0100
0000
0001
0000
0000
0001
0000
,
0100
0000
0001
1000
0000
0010
0000
1000
,
0000
0001
0010
1000
,
1010
0000
0000
0110
0000
0000
1001
0000
,
1000
0010
0001
0010
,
0000
0100
0000
0100
0000
0010
0000
0000
,
0100
0001
0100
0000
0010
0000
0000
1000
,
0000
1000
0000
0100
0000
0000
0001
0100
,
0001
1000
0100
0010
,
0000
0001
0100
0010
,
0000
0001
0010
0100
,
1000
0100
0010
0001
,
0000
1100
0000
1010
,
0000
0011
0000
0101
,
0000
0110
0000
1001
,
0000
1100
0000
0011
,
0000
0000
1000
0000
0000
0001
0000
0100
,
0001
0000
0000
0100
0000
0010
0100
0000
,
0000
0010
0000
1000
0010
0000
0000
1000
,
0000
0100
1000
0000
0000
0001
0000
0100
,
0001
0000
0000
1000
0100
0010
0001
0000
,
0000
1000
0010
0100
0001
0000
0000
0100
,
0010
0100
0010
0010
0000
0010
0000
0110
,
0000
0000
1000
0001
1000
0001
1000
0001
,
0000
0000
0100
0100
0000
0100
0000
0110
,
0000
0000
0001
0100
0001
0100
0001
0100
,
0000
0000
0001
0000
0000
0100
0000
0000
,
1000
0000
0000
0100
0000
0000
0001
0000
,
0000
0010
0000
0000
0100
0000
0000
1000
,
0000
0000
0010
0000
0000
0001
0000
0000
,
0010
0000
0000
1000
0000
0001
0000
0000
,
0100
0000
0000
0010
0000
0000
1000
0000
,
0000
0100
0000
0000
0001
0000
0000
0010
,
0000
0000
0100
0010
0100
0010
0100
0000
,
0000
0000
0001
0000
0100
0001
0000
1000
,
0010
0000
0100
0001
0000
1000
0010
0000
,
0100
0000
0001
0000
1000
0100
0000
0010
,
0001
0000
1000
0100
0000
0022
0000
0000
,
0033
0000
1000
0000
0100
1000
0000
0001
,
0010
0000
0100
1000
0000
0001
0010
0000
,
0100
0000
1000
0000
0001
0100
0000
0010
,
1000
0000
0001
0100
0000
2020
0000
0000
,
3030
0001
0010
0100
,
1000
0000
0010
0100
0010
0200
0000
0000
,
0300
0001
0010
0100
,
0010
0000
0001
0000
0100
0001
0000
0001
,
1000
0000
0000
0100
1000
0000
0010
1000
,
0000
0100
1000
0000
0010
0100
0000
0001
,
0000
0010
0000
0000
0100
0000
0100
0000
,
0100
0001
0100
1000
,
0100
0000
0010
1000
0010
2000
0000
0000
,
3000
0001
0010
1000
,
0010
0000
0001
0000
0100
0010
0000
1000
,
0100
0000
0000
0010
0001
0000
0100
0001
,
0000
0010
0001
0000
0100
0010
0000
1000
,
0000
0100
0000
0000
0010
0000
0010
0000
,
0010
0020
0000
0030
,
1100
0000
0000
0110
0000
0000
0011
0000
,
0000
0110
0000
0000
1100
0000
0000
1001
,
0000
0000
0011
0000
0000
1001
0000
0000
,
0101
0000
0000
0000
,
0000
0000
0000
1000
0000
1000
0000
0000
,
0001
0000
0000
0100
0000
0100
0000
0010
,
0000
0000
1000
0000
0000
0100
0000
0100
,
0000
0010
0000
0000
0001
0000
0010
0100
,
0010
0100
0010
0000
1000
0000
0010
0000
,
0100
0010
0100
0010
0100
0000
0001
0000
,
1000
0000
0000
0100
0000
0100
0000
0001
,
0000
0000
0001
0000
0000
0010
0000
0010
,
0000
1000
0000
0000
0001
0000
0010
0100
,
0010
0100
0010
0000
1000
0000
0010
0000
,
0100
0010
0100
0010
0100
0000
0001
0000
,
1000
0100
0010
0001
,
1000
0010
1000
0000
0001
0000
0100
0000
,
0001
0010
0100
1000
,
0001
0100
0001
0000
0100
0010
0100
0000
,
0001
0000
0000
1000
0000
0100
0000
0000
,
0001
0000
0000
0100
0000
0010
0000
0000
,
0001
0100
0010
1000
,
0100
0010
0100
1000
,
0001
0100
1000
0100
,
0001
0010
0001
0000
1000
0000
0100
0000
,
1000
0100
0001
0100
,
1000
0010
1000
0000
0100
0010
0100
0000
,
1000
0000
0000
0001
0000
0100
0000
0000
,
1000
0000
0000
0100
0000
0010
0000
0000
,
1000
0100
0010
0001
,
0100
0010
0100
0001
,
0110
0000
0000
1010
0000
0000
0102
0000
,
0000
0000
0013
0100
,
1100
0000
0000
0110
0000
0000
0011
0000
,
0000
0022
0000
0000
0033
0000
0000
0000
,
0110
0000
0000
1100
0000
0000
0012
0000
,
0000
0000
0103
0010
,
1010
0000
0000
0110
0000
0000
0101
0000
,
0000
0202
0000
0000
0303
0000
0000
0000
,
0200
0000
0300
1000
,
0100
1000
0010
0100
,
0010
0100
0001
0100
,
0001
0010
0000
0010
0000
0010
0001
0000
,
1000
0001
0100
0010
,
0100
0001
0010
0001
,
1000
0100
0000
0100
0000
0100
1000
0000
,
0100
0001
0100
0010
,
0100
0001
0100
1000
,
0100
0010
0000
0010
0000
0010
1000
0000
,
0010
0001
0010
0100
,
0010
0001
0010
1000
,
0010
0100
0010
1002
,
0000
0000
0020
0000
0000
0003
0200
0000
,
0000
0030
2000
0000
0000
0000
0000
0000
,
0000
0000
0000
0000
,
0000
3300
0000
0000
;

//--------------- dance-single - M.P.B.L.(黒) ----------------
#NOTES:
     dance-single:
     M.P.B.L.(黒):
     Hard:
     17:
     0,0,0,0,0:
0000
0000
0000
0000
,
0000
0000
0000
0000
,
0000
0000
0000
0000
,
0000
0000
0000
0000
,
0000
0000
0000
0000
,
0000
0000
0000
0000
,
0000
0000
1000
0000
0000
0010
0000
0100
,
0000
0001
0010
0000
0001
0000
1000
0000
,
0001
0100
0000
0010
0000
1000
0000
0100
,
0010
0001
0010
0001
0010
0000
2000
0000
,
0000
0100
0000
0000
0010
3000
0100
0001
,
0100
0001
0100
0000
1000
0000
0000
0100
,
0000
0010
0000
0001
0100
0000
0001
0000
,
1000
0000
0001
0010
0000
0100
0000
1000
,
0000
0010
0100
0001
0100
0001
0100
0000
,
0002
0000
0000
0010
0000
0000
0100
0003
,
0010
0001
0010
0001
0010
0000
0101
0000
,
0000
1100
0000
0000
0001
0100
0010
1000
,
0010
0100
0001
0000
0011
0000
0000
1010
,
0000
0000
0001
0010
0100
1000
0100
0010
,
0001
0000
1000
0010
1000
0010
0100
0000
,
0000
0000
0001
0100
0001
0100
0010
0000
,
0000
0000
1000
0100
1000
0100
0010
0001
,
0010
0001
1000
0100
0010
0001
0100
0000
,
0000
0011
0000
1010
,
0000
1100
0000
0101
,
0000
1001
0000
1010
,
0000
0101
0000
0110
,
0000
0000
1000
0000
1000
0010
0000
0010
,
0100
0000
0100
0001
0000
0001
0010
0000
,
0010
0001
0000
0001
1000
0000
1000
0100
,
0000
0100
0010
0000
0010
0001
0000
0001
,
0100
0000
0100
0010
0000
0010
1000
0000
,
1000
0100
0000
0100
0001
0000
0001
0100
,
0000
0100
0010
0010
0000
1000
0000
1001
,
0000
0000
1000
0100
1000
0100
1000
1010
,
0000
0000
0001
0001
0000
0010
0000
0110
,
0000
0000
0100
0001
0100
0001
0100
0011
,
0000
0000
2000
0000
3000
0020
0000
0030
,
0200
0000
0300
0001
0100
0000
0001
0000
,
1000
0020
0000
0030
0100
0000
0000
0001
,
0000
0010
0200
0000
0300
1000
0000
0000
,
0200
0000
0300
0010
0000
0001
0000
0010
,
0002
0000
0003
0100
0010
0000
1000
0000
,
0000
0200
0000
0300
0010
0000
0000
0001
,
0000
0000
0100
0010
0100
0010
0100
0000
,
0010
0000
1000
0100
0010
0100
1000
0000
,
0001
0010
0100
0010
0001
0000
1000
0010
,
0100
0000
0001
0010
0001
0010
0001
0000
,
0010
1000
0010
1000
0000
0220
0000
0000
,
0330
0000
0001
0100
0010
0100
0001
0000
,
1000
0010
0100
0010
1000
0000
0001
0010
,
0100
0000
0010
1000
0010
1000
0010
0000
,
0100
0001
0100
0001
0000
2002
0000
0000
,
3003
0000
1000
0100
0010
0001
0100
0010
,
1000
0100
1000
0001
0010
0200
0000
0000
,
0300
0000
1000
0010
0100
0001
0010
0100
,
1000
0000
0010
0100
0010
0000
1000
0001
,
1000
0000
0000
1000
0010
0000
0010
0100
,
0000
0100
0001
0000
0001
0010
0000
0100
,
0000
1000
0000
0000
0011
0000
0110
0000
,
1100
0000
0001
0010
0100
1000
0001
0010
,
0100
0010
0001
1000
0100
0010
0000
0000
,
0010
0000
0001
0100
0010
1000
0100
0010
,
0100
1000
0010
0100
0001
0010
0000
0001
,
0100
0001
0000
0100
0010
0000
0010
1000
,
0000
1000
0100
0000
0100
0010
0000
0001
,
0000
0010
0000
0000
0101
0000
1001
0000
,
1010
0000
1000
0100
0001
0100
1000
0000
,
0011
0000
0000
1100
0000
0000
0101
0000
,
0000
1010
0000
0000
0110
0000
0000
1001
,
0000
0000
0110
0000
0000
1100
0000
0000
,
0011
0000
0000
0000
,
0000
0000
0000
1000
0001
1000
0001
0000
,
1000
0010
1000
0010
1000
0000
0001
0010
,
0001
0010
0001
0000
0100
0010
0100
0000
,
0001
0100
0001
0000
1000
0100
0010
0001
,
0100
0001
0100
1000
0100
0000
0001
0100
,
0010
1000
0100
1000
0100
0001
0100
0000
,
1000
0100
1000
0100
1000
0000
0001
0100
,
0001
0100
0001
0000
0010
0100
0010
0000
,
0001
0010
0001
0000
1000
0010
0100
0001
,
0010
0001
0010
1000
0010
0000
0001
0010
,
0100
1000
0010
1000
0010
0001
0010
0000
,
1000
0100
0001
0010
,
0001
0100
0001
0100
0010
1000
0010
1000
,
0010
0001
0100
1000
,
0001
0010
0001
0010
0100
1000
0100
1000
,
0001
0010
0100
1000
0000
0010
0000
0100
,
0001
0100
0010
1000
0000
0100
0000
0010
,
0001
0100
0010
0000
1000
0100
0010
0000
,
1000
0001
1000
0001
0100
0010
0100
0000
,
0001
0100
1000
0010
,
1000
0100
1000
0100
0010
0001
0010
0001
,
0010
1000
0100
0001
,
1000
0010
1000
0010
0100
0001
0100
0001
,
1000
0010
0100
0001
0000
0010
0000
0100
,
1000
0100
0010
0001
0000
0100
0000
0010
,
1000
0100
0010
0000
0001
0100
0010
0000
,
0001
1000
0001
1000
0100
0010
0100
0000
,
1000
0100
0010
0100
1000
0010
1000
0100
,
0010
0100
1000
0002
0000
0000
0003
0000
,
1100
0000
0000
0110
0000
0000
0011
0000
,
0000
2200
0000
0000
3300
0000
0000
0000
,
0001
0100
0010
0100
0001
0010
0001
0100
,
0010
0100
0001
2000
0000
0000
3000
0000
,
0101
0000
0000
1001
0000
0000
1010
0000
,
0000
0202
0000
0000
0303
0000
0000
0000
,
0020
0000
0030
1000
,
0001
0010
0001
0000
1000
0000
0010
0100
,
0010
0000
1000
0000
0100
1000
0100
0000
,
0001
0010
0000
0100
0000
0010
0001
0000
,
1000
0100
1000
0000
0001
0000
0100
0010
,
0100
0000
0001
0000
0010
0001
0010
0000
,
1000
0100
0000
0010
0000
0100
1000
0000
,
0001
0100
0001
0000
1000
0000
0010
1000
,
0010
0000
1000
0000
0001
0010
0100
0000
,
0001
0100
0000
1000
0000
0100
0001
0000
,
1000
0100
1000
0000
0001
0000
0010
0001
,
0010
0000
0001
0000
1000
0010
0100
0000
,
0001
0010
0001
1000
0010
0000
0120
0000
,
0000
0030
2100
0000
0000
0000
0020
0000
,
0000
3030
0202
0000
0000
0000
0000
0000
,
0000
0000
0000
0000
,
0000
0303
0000
0000
;
