#TITLE:Routing;
#SUBTITLE:;
#ARTIST:かめりあ;
#TITLETRANSLIT:;
#SUBTITLETRANSLIT:;
#ARTISTTRANSLIT:;
#GENRE:;
#CREDIT:;
#MUSIC:Routing.ogg;
#BANNER:Routing.png;
#BACKGROUND:Routing-bg.png;
#CDTITLE:cdtitle.png;
#SAMPLESTART:72.850;
#SAMPLELENGTH:13.333;
#SELECTABLE:YES;
#OFFSET:0.483;
#BPMS:0.000=144.000;
#STOPS:;
#BGCHANGES:-0.050=Routing.avi=1.000=1=0=0=StretchNoLoop==CrossFade==;
#FGCHANGES:;

//--------------- dance-single - M.P.B.L. to you ----------------
#NOTES:
     dance-single:
     M.P.B.L. to you:
     Beginner:
     3:
     0,0,0,0,0:
0000
0000
0000
0000
,
0000
0000
0000
0000
,
0000
0000
0000
0000
,
0010
0000
0000
1000
,
0010
0000
0000
0100
,
0010
0000
0000
1000
,
0010
0000
0000
1000
,
0001
0000
0000
0100
,
0001
0000
0000
0000
,
0010
0000
0100
0000
,
0001
0000
0001
0000
,
0100
0000
0001
0000
,
0010
0000
0100
0000
,
0100
0010
0000
1000
,
0001
1000
0000
1000
,
0010
0000
0010
0000
,
0010
0000
0001
0000
,
0001
0000
0100
0000
,
0001
1000
0010
0000
,
0001
0000
0100
0000
,
0001
0000
0100
1000
,
0100
0000
0000
0000
,
0000
0100
0010
0000
,
0001
0000
0100
0000
,
0000
0000
0000
0000
,
0000
0000
0000
0000
,
0110
0000
0000
0000
,
0000
0000
0000
0000
,
1001
0000
0100
0000
,
0100
0010
0100
0000
,
0001
0000
0001
0000
,
0001
1000
0001
0000
,
0100
0000
0100
0000
,
0000
0000
0000
0000
,
0001
0010
0000
0000
,
0100
0000
0100
0000
,
0001
0010
0000
0000
,
1000
0000
1000
0000
,
0100
0010
0000
0000
,
0000
0000
0000
0000
,
0100
1000
0000
0000
,
0000
0000
0000
0000
,
0100
0000
0000
0000
,
0000
0000
0000
0010
,
0001
0000
0100
0000
,
0100
0000
0100
0000
,
0001
0000
0001
0000
,
0100
0000
0001
0000
,
0001
0000
0100
0000
,
0100
0000
0001
0000
,
0001
0000
0001
0000
,
0000
0000
0000
0000
,
0001
0000
0001
0000
,
0001
0000
0100
0000
,
1000
0000
0001
0000
,
0001
0000
0010
0000
,
0010
0000
0001
0000
,
0001
0000
0100
0000
,
0100
0000
0000
0000
,
0000
0000
0000
0000
,
0001
0000
0010
0000
,
0100
0000
0000
1000
,
0001
0000
0000
1000
,
0100
0000
0000
0010
,
0001
0000
0000
0000
,
0001
0000
0000
0010
,
0100
0000
0000
1000
,
0010
0000
0000
1000
,
1000
0000
0000
0000
;

//--------------- dance-single - M.P.B.L. to you ----------------
#NOTES:
     dance-single:
     M.P.B.L. to you:
     Easy:
     7:
     0,0,0,0,0:
0000
0000
0000
0000
,
0000
0000
0000
0000
,
0000
0000
0000
0000
,
1001
0000
0000
0000
0001
0000
0000
0000
0100
0000
0000
0000
0100
0000
0000
0001
,
0000
0000
0100
0001
,
0101
0000
0000
0000
1000
0000
0000
0000
0000
0000
0000
0000
1001
0000
0000
1001
,
0000
0000
0010
0000
0100
0010
0001
0000
,
1000
0000
0000
0000
0100
0000
0000
0000
1000
0000
0000
0000
1010
0000
0000
1010
,
0000
0000
0000
1001
,
1000
0000
0100
0000
0010
0001
0010
0000
,
0100
0000
0000
0000
1000
0000
0000
0000
1000
0000
0000
0000
0000
0010
0000
0001
,
0000
0000
0000
0000
2000
0000
0000
3000
0000
0000
0000
0000
0002
0000
0000
0003
,
0000
0100
0010
0000
0100
0000
1000
0000
,
0000
0000
0000
0000
0011
0000
0000
0000
0010
0000
0000
0000
1000
0000
0000
0100
,
0000
0000
0000
0000
0100
0000
0000
0000
0001
0000
0000
0000
0020
0000
0000
0030
,
0000
0000
0000
0000
2000
0000
0000
3000
0000
0000
0000
0000
1001
0000
0000
1001
,
0000
0000
0100
0000
1000
0010
0100
0000
,
0110
0000
0000
0000
1000
0000
0000
0000
0100
0000
0010
0000
0100
0000
0000
0001
,
0000
0000
0000
0000
0100
0000
0000
0000
1000
0000
0000
0001
0000
0000
0000
0010
,
0000
0000
0000
0000
0200
0000
0000
0300
0000
0000
0000
0000
0020
0000
0000
0030
,
0000
0000
0010
0000
0001
0010
0100
0000
,
0000
2000
3002
0003
,
0000
0000
0000
0000
0110
0000
0000
0000
0100
0000
0000
0000
0010
0000
0000
1000
,
0000
0000
0100
0000
1000
0000
0000
0020
,
0000
1000
0000
1000
,
0000
1000
0000
1030
,
0100
0000
1000
0000
0010
0000
1000
0010
,
0000
0000
0100
0000
0000
0000
0000
0000
0000
0000
1000
0000
0000
0001
0000
0000
,
1000
0000
0010
0000
0000
0000
0010
0100
,
0000
0000
1000
0000
0000
0000
0100
0000
1000
0000
0000
0001
0000
0000
0000
0000
,
0100
0000
0000
0000
1000
0000
0000
0001
0000
0000
0000
0000
1000
0000
0010
0000
,
0000
0100
0000
0000
0000
1000
0010
0000
,
0100
0010
0100
0001
,
0010
0000
0100
1000
0000
0000
0000
0000
,
1000
0000
0000
0000
0010
0000
0000
1000
0000
0000
0001
0000
0000
0100
0000
0200
,
0000
0000
0000
0300
,
0001
0000
0000
0000
0010
0000
0000
0100
0000
0000
1000
0000
0000
0010
0000
0010
,
0000
0020
0000
0000
0000
0030
0000
0000
,
1000
0000
0000
0000
0010
0000
0000
1000
0000
0000
0001
0000
0000
0010
0000
0020
,
0000
0000
0000
0030
,
0001
0000
0000
0000
1000
0000
0000
0002
0000
0000
1003
0000
0000
0001
0000
0001
,
0000
0002
0000
0000
0000
0003
0000
0000
,
0100
0000
0000
0000
,
1000
0100
0010
0000
1000
0000
0100
0000
,
1000
0000
0100
0000
0000
0010
0001
0000
,
0100
0000
0010
0000
0000
1000
0100
0000
,
0010
0000
0000
0000
0000
0000
1000
0000
0100
0000
0000
1000
0000
0001
0000
1000
,
0000
0001
0010
0000
0000
0100
0010
0000
,
1000
0000
1000
0000
0000
0010
0100
0000
,
0001
0000
0100
0000
0000
0010
0001
0000
,
0100
0000
0000
0000
1000
0000
0000
0000
0010
0000
0000
0001
0000
1000
0000
0001
,
0000
0000
1000
0001
,
1000
0100
1000
0000
0001
0000
0100
0000
,
1000
0100
0010
0000
0001
0000
0010
0000
,
0020
0030
1000
0010
,
0000
0100
0010
0000
0001
0000
0010
0000
,
1000
0100
0010
0000
0000
0100
0010
0000
,
0100
1000
0000
0010
,
0010
0000
0000
0000
0100
0000
0000
0000
0100
0000
0000
1000
0000
0000
0100
0000
,
0000
1000
0000
0000
0001
0000
0000
1000
0000
0000
0001
0000
0000
1000
0000
0002
,
0000
0000
0000
0003
,
0010
0000
0000
0000
0001
0000
0000
0000
0000
0000
0000
0000
0110
0000
0000
0110
,
0000
0000
0000
0001
,
1001
0000
0000
0000
0000
0000
0000
0000
0000
0000
0000
0000
1100
0000
0000
1100
,
0000
0000
1000
0001
,
1001
0000
0000
0000
0000
0000
0000
0000
0000
0000
0000
0000
0110
0000
0000
0110
,
0000
0000
0000
0101
,
1000
0000
0000
0000
0001
0000
1000
0000
0001
0000
0000
0000
1000
0000
0000
0100
;

//--------------- dance-single - M.P.B.L. to you ----------------
#NOTES:
     dance-single:
     M.P.B.L. to you:
     Medium:
     10:
     0,0,0,0,0:
0000
0000
0000
0000
,
0000
0000
0000
0000
,
0000
0000
0000
0000
,
1001
0000
0000
0000
0001
0000
0010
0000
0100
0000
1000
0000
0100
0000
0000
0010
,
0000
0000
0200
0301
,
0101
0000
0000
0000
1000
0000
0000
0000
0000
0000
0000
0000
1001
0000
0000
0110
,
0000
0000
0010
1000
0100
0010
0001
0000
,
1100
0000
0000
0000
0100
0000
0010
0000
0001
0000
0000
0000
1010
0000
0000
0101
,
0000
0000
0000
1000
0010
0100
0001
0000
,
1000
0010
0100
0000
0010
0001
0100
0000
,
0010
0000
0100
0000
1000
0000
0100
0000
1000
0000
0000
0001
0000
0010
0000
0001
,
0000
0000
0000
0000
1000
0000
0000
0010
0000
0000
0000
0000
0001
0000
0000
0100
,
0000
0000
0001
0000
0010
0000
0100
0000
0010
0000
0000
0000
1000
0000
0000
0010
,
0000
1000
0000
0000
0101
0000
0000
0000
0010
0000
0001
0000
1000
0000
0000
0100
,
0000
0000
0000
0000
0100
0000
0010
0000
0001
0000
0000
0000
0001
0000
0000
0100
,
0000
0000
0000
0000
1000
0000
0000
0010
0000
0000
0000
0000
1001
0000
0000
1001
,
0000
0000
1000
0100
1000
0010
0100
0000
,
0110
0000
0000
0000
1000
0000
0010
0000
0100
0000
0001
0000
0100
0000
0000
0001
,
0000
0000
0000
0000
0100
0000
0010
0000
1000
0000
0000
0001
0000
0000
0000
0010
,
0000
0000
1000
0000
0200
0000
0000
0300
0000
0000
0001
0000
0020
0000
0000
0030
,
0000
0000
0010
0100
0001
0010
0100
0000
,
0000
0000
0000
0000
2000
0000
0000
0000
0002
0000
0000
0000
3003
0000
0000
0001
,
0000
0000
0000
0000
0101
0000
0000
0000
0100
0000
0000
0000
0010
0000
0000
1000
,
0000
0000
0000
0000
0100
0000
0001
0000
1000
0000
0000
0100
0000
0000
0020
0000
,
0000
1000
1000
1000
,
1000
1000
1000
1030
,
0100
0000
0010
0000
1000
0000
0000
0100
0000
0000
0000
0000
1000
0000
0010
0000
,
0000
0000
0100
0000
0000
0000
0000
0000
0000
0000
2000
0000
0000
3200
0000
0000
,
1300
0000
0100
0000
0010
0000
0000
0100
0000
0000
0001
0000
0100
0000
0010
0000
,
0000
0000
1000
0000
0000
0000
0100
0000
1000
0000
0000
0001
0000
0000
0000
0000
,
0100
0000
0010
0000
1000
0000
0000
0001
0000
0000
0010
0000
1000
0000
0010
0000
,
0000
0100
0000
0000
0000
1000
0010
0000
,
0100
0000
1000
0000
0010
0000
0000
0000
0100
0000
0001
0000
0100
0000
0000
0010
,
0000
0000
0110
0110
0000
0000
0000
0000
,
2000
0000
0000
0000
3020
0000
0000
0230
0000
0000
0302
0000
0000
1003
0000
0100
,
0000
1000
0010
0000
0001
0010
0100
0000
,
0002
0000
0000
0000
0023
0000
0000
0230
0000
0000
2300
0000
0000
3100
0000
0010
,
0000
0000
1001
0000
0000
0000
0000
0000
0000
0000
0000
0000
0000
1000
0000
0000
,
2000
0000
0000
0000
3020
0000
0000
2030
0000
0000
3200
0000
0000
0310
0000
0001
,
0000
0010
0010
0010
,
0002
0000
0000
0000
2003
0000
0000
3002
0000
0000
0203
0000
0000
0310
0000
0100
,
0000
0000
0110
0000
0000
0000
0000
0000
0000
0000
1000
0000
0000
0010
0000
0000
,
0100
0000
0000
0000
,
1000
0100
0010
0001
1000
0000
0100
0000
,
0001
0000
0010
0000
0100
0000
0000
0001
0000
0000
0010
0000
0001
0000
0000
0000
,
0100
0000
0010
0000
1000
0000
0000
0010
0000
0000
1000
0000
0100
0000
0000
0000
,
0010
0000
0000
0000
0000
0000
1000
0000
0100
0000
0000
0010
0000
0100
0000
1000
,
0000
0001
0010
0100
1000
0100
0010
0000
,
1000
0000
0010
0000
1000
0000
0000
0100
0000
0000
0010
0000
0100
0000
0000
0000
,
0001
0000
1000
0000
0100
0000
0000
0010
0000
0000
0100
0000
0001
0000
0000
0000
,
0100
0000
0000
0000
0100
0000
0000
0000
0010
0000
0000
0001
0000
0100
0000
0001
,
0000
0000
0000
0000
1000
0100
0001
0000
,
1000
0100
1000
0000
0001
0010
0100
0000
,
1000
0100
0010
0000
0001
0010
0001
0000
,
0020
0000
0000
0000
1030
0000
0000
0000
1000
0000
0100
0000
1000
0000
0000
0010
,
0000
0100
0010
0000
0001
0100
0010
0000
,
1000
0100
0010
0000
0000
0100
0010
0001
,
0100
0010
1000
0000
0000
0000
0010
0010
,
0010
0000
0000
0000
0100
0000
0100
0000
0200
0000
0000
2300
0000
0000
3200
0000
,
0000
0320
0000
0000
0230
0000
0000
2300
0000
0000
3001
0000
0000
1000
0000
2000
,
0000
0000
0000
0000
,
3010
0000
0000
0000
0001
0000
0000
0000
0010
0000
0100
0000
0020
0000
0000
0030
,
0000
1000
0100
0010
0100
1000
0001
0000
,
1001
0000
0000
0000
0100
0000
0010
0000
0001
0000
0010
0000
0100
0000
0000
1000
,
0000
0000
1000
1000
,
1001
0000
0000
0000
1000
0000
0010
0000
0100
0000
0000
0000
0200
0000
0000
0300
,
0000
0000
0000
0000
0100
0000
0000
0000
0000
1010
0000
0000
0101
0000
0000
0000
,
1000
0000
0000
0000
0001
0000
1000
0000
0001
0000
0100
0000
0001
0000
0000
0100
;

//--------------- dance-single - M.P.B.L. to you ----------------
#NOTES:
     dance-single:
     M.P.B.L. to you:
     Hard:
     13:
     0,0,0,0,0:
0000
0000
0000
0000
,
0000
0000
0000
0000
,
0000
0000
0000
0000
,
1001
0000
0000
0000
0001
0000
0000
0010
0000
0000
1000
0000
1100
0000
0000
0110
,
0000
0000
0000
0000
0200
0000
0002
0303
,
1010
0000
0000
0000
2000
0000
0000
3100
0000
0000
0001
0000
0101
0000
0000
0011
,
0000
0000
0000
0000
0010
0000
1000
0100
0000
1100
0000
0000
0011
0000
0000
0000
,
1100
0000
0000
0000
0100
0000
0000
0010
0000
0001
1000
0000
1010
0000
0000
0101
,
0000
0000
0000
0000
0000
0000
1000
0000
0100
0001
0100
0000
0101
0000
0000
0000
,
1000
0010
0100
1000
0010
0001
0101
0000
,
0010
0000
0100
0000
1000
0000
0100
0000
0001
0000
0100
1000
0000
0100
0000
0010
,
0000
0000
0001
0000
2000
0000
0000
3010
0000
0000
0100
0000
0002
0000
0000
0103
,
0000
0000
0001
0000
0010
0000
0100
0000
2000
0000
0000
0000
3010
0000
0000
1010
,
0000
1010
0000
0000
1000
0000
0100
0000
1000
0000
0010
0000
1000
0000
0000
0100
,
0000
0000
0010
0000
0001
0000
1000
0000
0020
0000
0000
0000
0031
0000
0000
0101
,
0000
0000
0010
0000
0011
0000
0000
0110
0000
0000
0000
0000
1100
0000
0000
0110
,
0000
0010
1000
0100
0001
0010
0100
0000
,
0110
0000
0000
0000
1000
0000
0100
0000
0010
0000
0001
0000
0100
0000
0000
0010
,
0000
0000
0001
0000
0100
0000
0010
0000
1000
0000
0000
0001
0000
0100
0000
0010
,
0000
0000
1000
0000
0200
0000
0000
0310
0000
0000
0001
0000
0020
0000
0000
1030
,
0000
0000
0100
0000
0010
0000
0100
0000
0001
0000
1000
0000
0010
0000
0000
0100
,
0000
0000
0000
0000
0000
0000
0000
0000
0000
0000
0000
0000
1000
0000
0000
0000
0100
0000
0000
0000
0010
0000
0000
0000
0100
0000
0000
0000
0010
0000
0000
0000
0001
0000
0000
0000
0100
0000
0000
0000
0000
0000
0000
0000
0000
0001
0000
0000
,
0000
0000
0000
0000
0002
0000
0000
0000
0100
0000
0000
0000
0013
0000
0000
0101
,
0000
0000
0001
0000
0100
0000
0001
0000
1100
0000
0000
0110
0000
0000
0012
0000
,
0000
0010
0010
0100
,
0100
1000
1000
0013
,
0100
0000
0010
0000
1000
0001
0000
0100
0000
0000
0010
0000
1000
0100
0010
0000
,
0000
0000
0100
0000
0000
0000
0000
0000
0000
0000
2000
0000
0000
3200
0000
0000
,
0301
0000
1000
0100
0010
0001
0000
0010
0000
0000
0001
0000
0100
0000
0010
0000
,
0000
0000
0010
0000
0000
0000
0100
0000
1000
0000
0000
0100
0000
0000
0000
0000
,
0100
0000
0010
0000
1000
0100
0000
0001
0000
0000
0001
0000
1000
0100
0010
0000
,
0000
0100
0000
0000
0000
1000
0010
1000
,
0100
0000
0001
0100
0000
0000
0000
1000
0010
0000
0001
0010
0000
0000
0000
0100
,
0000
0000
0100
0001
0000
0000
0000
0000
,
1100
0000
0000
0000
1010
0000
0000
0101
0000
0000
0011
0000
0000
1001
0000
0110
,
0000
1000
0010
0100
0001
0010
1000
0000
,
0011
0000
0000
0000
0011
0000
0000
0110
0000
0000
1100
0000
0000
0110
0000
1001
,
0000
0000
2002
0000
0000
0000
0000
0000
3003
0000
0001
0000
0000
0010
0000
0000
,
1100
0000
0000
0000
1010
0000
0000
1100
0000
0000
0101
0000
0000
0011
0000
0101
,
0000
0010
0010
0010
,
0101
0000
0000
0000
1010
0000
0000
0101
0000
0000
1100
0000
0000
0011
0000
1100
,
0000
0000
1100
0000
0000
0000
0000
0000
0000
0000
1000
0000
0000
0010
0000
0000
,
0100
0000
0000
0000
,
1000
0001
0100
0010
1000
0010
0100
0000
,
0001
0000
0100
0000
1000
0000
0100
0001
0000
0100
0010
0000
0001
0000
0010
0000
,
0100
0000
0010
0000
1000
0000
0100
0010
0000
0001
1000
0000
0100
0000
1000
0000
,
0010
0000
0000
0000
0000
0000
1000
0000
0100
0000
0000
0010
0000
0100
0000
0001
,
0000
1001
0001
1000
0010
0100
0001
0100
,
1000
0000
0100
0000
0001
0000
0100
1000
0000
0100
0010
0000
0100
0000
1000
0000
,
0001
0000
0010
0000
0100
0000
0001
0100
0000
0001
0010
0000
1000
0000
0010
0000
,
0100
0000
0000
0000
0100
0000
0001
0000
0010
0100
0000
0001
0000
0100
0000
1000
,
0000
0100
0010
0001
1000
0010
0001
0000
,
1000
0100
1000
0010
0001
0010
1000
0010
,
1000
0100
0001
0100
0001
0010
0001
1000
,
0020
0000
0000
0000
0130
0000
0000
0000
1000
0000
0100
0000
1000
0000
0000
1010
,
0000
0100
0010
1000
0001
1000
0010
0001
,
1000
0000
0100
0000
0010
0000
0000
0100
0000
0000
0001
0000
0010
0000
1000
0000
,
0001
0000
0010
0000
0100
0000
0000
0010
0000
0000
0000
0000
0010
0000
1000
0000
,
1010
0000
0000
0000
1000
0000
0010
0000
0011
0000
0000
1100
0000
0000
0110
0000
,
0000
0010
0000
0000
0100
0000
0000
1000
0000
0000
0001
0000
0000
0100
0000
2000
,
0000
0000
0000
0000
,
3010
0000
0000
0000
0001
0000
0000
0010
0000
0000
0100
0000
0020
0000
0000
0130
,
0000
0000
1000
0100
0000
0001
0000
0010
0000
0200
0000
0000
0301
0000
0000
0000
,
1001
0000
0000
0000
0100
0010
0000
0001
0000
0000
0010
0000
0200
0000
0000
1300
,
0000
0000
0000
0000
1000
0100
1000
0001
,
1001
0000
0000
0000
0001
0000
0010
0000
0100
0000
0010
0000
0200
0000
0000
0301
,
0000
0000
1000
0000
0010
0000
1000
0000
0000
1010
0000
0000
0101
0000
0000
0000
,
1100
0000
1000
0000
0001
0000
1000
0000
0010
0000
0100
0000
0001
0000
0000
0101
;

//--------------- dance-single - M.P.B.L. to you ----------------
#NOTES:
     dance-single:
     M.P.B.L. to you:
     Challenge:
     15:
     0,0,0,0,0:
0000
0000
0000
0000
,
0000
0000
0000
0000
,
0000
0000
0000
0000
,
1001
0000
0000
0000
0001
0000
0000
0010
0000
0100
1000
0000
1100
0000
0000
0110
,
0000
0000
0000
0000
0200
0000
0002
0303
,
0110
0000
0000
0000
2000
0000
0000
3100
0000
0000
0001
0000
0101
0000
0000
0011
,
0000
0000
0000
0000
0010
0001
1000
0100
0000
1010
0000
0000
0011
0000
0000
0000
,
1100
0000
0000
0000
0100
0000
0000
0010
0000
0001
1000
0000
1010
0000
0000
0101
,
0000
0000
0000
0000
0000
0000
1000
0010
0100
0001
0100
0000
0101
0000
0000
0000
,
1000
0000
0010
0000
0100
0000
1000
0000
0010
0000
0001
0000
0101
0000
0000
0011
,
0000
0010
0100
0000
1000
0000
0100
0000
0001
0000
0100
1000
0000
0100
0000
0010
,
0000
0100
0001
0000
1100
0000
0000
1010
0000
0000
0100
0000
0011
0000
0000
0101
,
0000
0000
0001
0000
0010
0000
0100
0000
2000
0000
0000
0000
3010
0000
0000
1010
,
0000
1010
0000
0000
1000
0000
0100
0000
1000
0000
0010
0000
1000
0001
0000
0100
,
0000
0100
0010
0000
0001
0000
1000
0000
1010
0000
0000
0000
1001
0000
0000
0101
,
0000
0001
0010
0000
0011
0000
0000
0110
0000
0000
0000
0000
1100
0000
0000
0110
,
0000
0010
1000
0100
0001
0010
0100
0000
,
0110
0000
0000
0000
1000
0000
0100
0000
0010
0000
0001
0000
0100
0000
0000
0010
,
0000
0000
0001
0000
0100
0000
0010
0000
1000
0000
0001
0010
0000
0001
0000
0010
,
0000
0000
1000
0000
0200
0000
0000
0310
0000
0000
0001
0000
0020
0000
0000
1030
,
0000
0000
0100
0000
0010
0000
0100
0000
0001
0000
1000
0000
0010
0000
0000
0110
,
0000
0000
0000
0000
0000
0000
0010
0000
0000
0100
0000
0000
1000
0000
0000
0000
0100
0000
0000
0000
0001
0000
0000
0000
1000
0000
0000
0000
0010
0000
0000
0000
0001
0000
0000
0000
0100
0000
0000
0000
0000
0000
0000
0000
0000
0101
0000
0000
,
0000
0000
0000
0000
0011
0000
0000
0000
0110
0000
0000
0000
1010
0000
0000
0101
,
0000
0000
0001
0000
0100
0000
0001
0000
1100
0000
0000
0110
0000
0000
0012
0000
,
0000
0010
0100
0010
,
1000
0010
0100
0013
,
0110
0000
0010
0100
1000
0001
0000
0100
0000
0000
0010
0000
1000
0100
0001
0000
,
0000
0000
0100
0000
0000
0000
0000
0000
0000
0000
1010
0000
0000
0110
0000
0000
,
0101
0000
0001
0010
0100
1000
0000
0010
0000
0000
0001
0000
0100
0010
0100
0000
,
0000
0000
0010
0000
0000
0000
0100
0000
1000
0000
0000
0100
0000
0000
0000
0000
,
0100
0000
0010
0001
1000
0100
0000
0001
0000
0000
0001
0000
1000
0100
0010
0000
,
0000
0000
0100
0000
0000
0000
0000
0000
0000
0000
1000
0100
0010
0001
1000
0010
,
0100
0000
0010
0001
0000
0000
0000
0001
0010
0000
1000
0100
0000
0000
0000
0010
,
0000
0000
0100
0001
0000
0000
0000
0000
,
1100
0000
0000
0000
1010
0000
0000
0101
0000
0000
0011
0000
0000
1001
0000
0110
,
0000
1000
0010
0100
0001
0010
1000
0010
,
0011
0000
0000
0000
0011
0000
0000
0110
0000
0000
1100
0000
0000
0110
0000
1001
,
0000
0000
2002
0000
0000
0000
0000
0000
3003
0000
0001
0000
0000
0010
0000
0000
,
1100
0000
0000
0000
1010
0000
0000
1100
0000
0000
0101
0000
0000
0011
0000
0101
,
0000
0010
0010
0010
,
0101
0000
0000
0000
1010
0000
0000
0101
0000
0000
1100
0000
0000
0011
0000
1100
,
0000
0000
1100
0000
0000
0000
0000
0000
0000
0000
1000
0000
0000
0010
0000
0000
,
0100
0000
0000
0100
0000
0000
0100
0000
0000
0100
0000
0000
0100
0000
0000
0000
,
1000
0001
0100
0010
1000
0010
0100
0000
,
0001
0000
0100
0000
1000
0000
0100
0001
0000
1000
0100
0010
0001
0100
0010
0001
,
0010
0000
0100
0000
1000
0000
0100
0010
0000
0001
1000
0010
0100
0010
1000
0001
,
0010
0000
0000
0000
0000
0000
1000
0100
1000
0100
0000
0010
0000
0100
0000
0001
,
0000
1001
1001
1000
0010
0100
0001
0100
,
1000
0000
0100
0000
0001
0000
0100
1000
0000
0100
0010
0100
0010
0001
1000
0001
,
1000
0000
0010
0000
0100
0000
0001
0100
0000
0001
0010
0100
1000
0100
0010
0001
,
0010
0000
0000
0000
0101
0000
0001
0100
0010
1000
0000
0001
0000
0100
0000
1000
,
0000
0100
0010
0001
1000
0010
0001
0000
,
1000
0100
1000
0010
0001
0010
1000
0010
,
1000
0100
0001
0100
0001
0010
0001
1000
,
0010
0000
0000
0000
0100
0000
0000
0000
0010
0000
0000
0000
0100
0000
0000
0000
0000
0000
0000
0000
0000
0000
0000
0000
1000
0000
0000
0000
0000
0000
0100
0000
0000
0000
0000
0000
1000
0000
0000
0010
0000
0000
0000
0000
0000
1010
0000
0000
,
0000
0100
0010
1000
0001
1000
0010
0001
,
1000
0000
0100
0000
0010
0000
0000
0100
0000
0000
0001
0000
0010
0000
1000
0000
,
0001
0000
0010
0000
0100
0000
0000
0010
0000
0000
0000
0000
0010
0000
1000
0000
,
1010
0000
0000
0000
1000
0000
0010
0000
0101
0000
0000
1010
0000
0000
0110
0000
,
0000
0010
0000
0000
0100
0000
0000
1000
0000
0000
0001
0000
0000
0100
0000
2000
,
0000
0000
0000
0000
,
3010
0000
0000
0000
0001
0000
0000
0010
0000
0000
0100
0000
0011
0000
0000
0110
,
0000
0000
1000
0100
0000
0100
0000
0010
0000
1100
0000
0000
0110
0000
0000
0000
,
1001
0000
0000
1000
0100
0010
0000
0001
0000
0000
0010
0000
0110
0000
0000
1100
,
0000
0000
0000
0000
1000
0100
1000
0001
,
1001
0000
0000
0000
0001
0000
0010
0000
0100
0000
0010
0000
0110
0000
0000
0101
,
0000
0000
1000
0000
0010
0000
1000
0000
0000
1010
0000
0000
0101
0000
0000
0000
,
1100
0000
1000
0000
0001
0000
1000
0000
0010
0000
0100
0000
0001
0000
0000
0101
;
