#TITLE:Pane dhiria;
#SUBTITLE:;
#ARTIST:新城P;
#TITLETRANSLIT:;
#SUBTITLETRANSLIT:;
#ARTISTTRANSLIT:ShinjouP;
#GENRE:;
#CREDIT:M.P.B.L.;
#MUSIC:Pane dhiria.ogg;
#BANNER:Pane dhiria.png;
#BACKGROUND:Pane dhiria-bg.png;
#CDTITLE:cdtitle.png;
#SAMPLESTART:25.792;
#SAMPLELENGTH:14.222;
#SELECTABLE:YES;
#OFFSET:0.873;
#BPMS:0.000=135.000;
#STOPS:;
#BGCHANGES:1.450=Pane dhiria.avi=1.000=1=0=0=StretchNoLoop==CrossFade==,
99999.000=-nosongbg-=1.000=0=0=0=StretchNoLoop====
;
#FGCHANGES:;

//--------------- dance-single - M.P.B.L. ----------------
#NOTES:
     dance-single:
     M.P.B.L.:
     Beginner:
     2:
     0,0,0,0,0:
0000
0000
0000
0000
,
0000
0000
0000
0000
,
0000
0000
0000
0000
,
0000
0000
0000
0000
,
0000
0000
0000
0000
,
0000
0000
0000
0000
,
0000
0000
0000
0000
,
1000
0000
0001
0000
,
1000
0000
0001
0000
,
0100
0000
0010
0000
,
0100
0000
0010
0000
,
1000
0000
1000
0000
,
0100
0000
0100
0000
,
0010
0000
0010
0000
,
0001
0000
0001
0000
,
1000
0000
0000
0000
,
0010
0000
0000
0000
,
0100
0000
0000
0000
,
0001
0000
0001
0000
,
1000
0000
0000
0000
,
0100
0000
0000
0000
,
1000
0000
0000
0000
,
0001
0000
0001
0000
,
1000
0000
1000
0000
,
0010
0000
0100
0000
,
0001
0000
0001
0000
,
0100
0000
0100
0000
,
0001
0000
1000
0000
,
0001
0000
1000
0000
,
0010
0000
0100
0000
,
0020
0000
0030
0000
,
1000
0000
0100
0000
,
1000
0000
0100
0000
,
0010
0000
0001
0000
,
0010
0000
0001
0000
,
1000
0000
0001
0000
,
1000
0000
0001
0000
,
0100
0000
0010
0000
,
0100
0000
0010
0000
,
1001
0000
0000
0000
,
0000
0000
0000
0000
,
0000
0000
0000
0000
,
0000
0000
0000
0000
,
0100
0000
0100
0000
,
0100
0000
0100
0000
,
0010
0000
0010
0000
,
0010
0000
0010
0000
,
1000
0000
0001
0000
,
1000
0000
0001
0000
,
1000
0000
0010
0000
,
0100
0000
0001
0000
,
1000
0000
0010
0000
,
1000
0000
0010
0000
,
0100
0000
0001
0000
,
0200
0000
0300
0000
;

//--------------- dance-single - M.P.B.L. ----------------
#NOTES:
     dance-single:
     M.P.B.L.:
     Easy:
     6:
     0,0,0,0,0:
0000
0000
0000
0000
,
0000
0000
0000
0000
,
0000
0000
0000
0000
,
0000
0000
0000
0000
,
0000
0000
0000
0000
,
0000
0000
0000
0000
,
0000
0000
0000
0000
,
0100
0010
0100
0000
,
1000
0001
1000
0000
,
0100
0000
0000
0010
0000
0000
0100
0000
0000
0010
0000
0000
0100
0000
0000
0000
,
0001
0000
0000
0100
0000
0000
0001
0000
0000
0100
0000
0000
0001
0000
0000
0000
,
1000
0100
1000
0000
,
0001
0100
0001
0000
,
1000
0000
0000
0100
0000
0000
1000
0000
0000
0100
0000
0000
1000
0000
0000
0000
,
0001
0000
0000
0010
0000
0000
0001
0000
0000
0010
0000
0000
0001
0000
0000
0000
,
1000
0000
1000
0000
0001
0100
0001
0000
,
0100
0100
0010
0010
,
0001
0000
0001
0000
1000
0100
1000
0000
,
0010
0100
0010
0100
0020
0000
0030
0000
,
1000
0000
1000
0000
1000
0100
0010
0000
,
0001
0001
0010
0010
,
0100
0000
0100
0000
0100
0001
0010
0000
,
0010
0100
1000
0100
0020
0000
0030
0000
,
0001
0010
0100
1000
,
0001
0100
0010
0100
,
0002
0000
0000
0003
2000
0000
0000
3000
,
0010
0000
0010
0000
0200
0000
0000
0300
,
0020
0000
0000
0030
0001
0000
0001
0000
,
0200
0000
0000
0300
2000
0000
0000
3000
,
0020
0000
0000
0030
0200
0000
0000
0300
,
0220
0000
0000
0330
,
0001
1000
0001
0000
1000
0001
1000
0000
,
0001
0100
0001
0000
0100
0001
0100
0000
,
0010
1000
0010
0000
1000
0010
1000
0000
,
0010
0100
0010
0100
0010
0100
0010
0000
,
1000
0100
0001
0100
,
1000
0010
0001
0010
,
1000
1000
0001
0001
,
1000
0100
0010
0001
1000
0100
0010
0001
,
1000
0000
0001
0000
,
0100
0000
0010
0000
,
1000
0000
0001
0000
,
0100
0000
0010
0000
,
1000
1000
1000
0000
0010
0100
0010
0000
,
0100
0100
0100
0000
0001
0000
0001
0000
,
0010
0010
0010
0000
1000
0100
1000
0000
,
0001
0001
0001
0000
0002
0000
0003
0000
,
1000
0010
0100
0001
,
1000
0100
0010
0100
,
2000
0000
0000
3000
0002
0000
0000
0003
,
0010
0000
0010
0000
0200
0000
0000
0300
,
0020
0000
0000
0030
1000
0000
1000
0000
,
0200
0000
0000
0300
0002
0000
0000
0003
,
0020
0000
0000
0030
0200
0000
0000
0300
,
2002
0000
0000
0000
0000
0000
0000
3003
;

//--------------- dance-single - M.P.B.L. ----------------
#NOTES:
     dance-single:
     M.P.B.L.:
     Medium:
     9:
     0,0,0,0,0:
0000
0000
0000
0000
,
0000
0000
0000
0000
,
0000
0000
0000
0000
,
0000
0000
0000
0000
,
0000
0000
0000
0000
,
0000
0000
0000
0000
,
0000
0000
0000
0000
,
1000
0000
0001
0000
1000
0010
1000
0100
,
1000
0000
0001
0000
0001
0010
0001
0100
,
0001
0000
0000
0010
0000
0000
0100
0000
0000
0010
0000
0000
0001
0000
0000
0000
,
1000
0000
0000
0100
0000
0000
0010
0000
0000
0100
0000
0000
1000
0000
0000
0000
,
0001
0000
1000
0000
0001
0010
0001
0100
,
0001
0000
1000
0000
1000
0010
1000
0100
,
1000
0000
0000
0010
0000
0000
0100
0000
0000
0010
0000
0000
1000
0000
0000
0000
,
0001
0000
0000
0100
0000
0000
0010
0000
0000
0100
0000
0000
0001
0000
0000
0000
,
1000
0000
0000
1000
0000
0000
0100
0000
0010
0000
0000
0100
0000
0000
0010
0000
,
0001
0000
0000
0001
0000
0000
0010
0000
0100
0000
0000
0000
0110
0000
0000
0000
,
1000
0000
0000
0010
0000
0000
0100
0000
0001
0000
0000
0001
0000
0000
0001
0000
,
1000
0010
1000
0010
2000
0000
3000
0000
,
0001
0000
0000
0001
0000
0000
1000
0000
0010
0000
0000
0100
0000
0000
0001
0000
,
1000
0000
0000
1000
0000
0000
0001
0000
0100
0000
0000
0000
1010
0000
0000
0000
,
0001
0000
0000
0010
0000
0000
0100
0000
1000
0000
0000
1000
0000
0000
1000
0000
,
0001
0100
0001
0100
0002
0000
0003
0000
,
1000
0100
1000
0000
1000
0010
1000
0000
,
1000
0100
0010
0001
1000
0100
0001
0000
,
0002
0000
0003
0100
0020
0000
0030
1000
,
0100
0000
0000
0010
0000
0000
0100
0000
0020
0000
0000
0000
0000
0000
0030
0000
,
0002
0000
0000
0000
0003
0000
1000
0000
0010
0000
0000
1000
0000
0000
0100
0000
,
2000
0000
3000
0001
2000
0000
3000
0001
,
0200
0000
0000
0300
0020
0000
0000
0030
,
2002
0000
0000
3003
,
0100
0010
0100
0001
1000
0001
1000
0000
,
0001
0000
0010
0000
0001
0000
0010
0000
0100
0000
0000
1000
0000
0000
0100
0000
,
1000
1000
1000
0000
0001
0001
0001
0000
,
0100
0010
0100
0001
0100
0010
0100
0000
,
0001
0010
0100
0000
1000
0010
0100
0000
,
1000
0100
0010
0000
0001
0100
0010
0000
,
1000
0000
0000
0100
0000
0000
0001
0000
0000
0010
0000
0000
0110
0000
0000
0000
,
0100
0000
0000
1000
0000
0000
0010
0000
0000
0001
0000
0000
1000
0000
1001
0000
,
0002
0000
0023
0000
,
0230
0000
2300
0000
,
3020
0000
0230
0000
,
0302
0000
2000
3003
,
1000
0100
1000
0001
1000
0100
1000
0000
,
0001
0010
0001
1000
0002
0000
0103
0000
,
1000
0100
0010
0001
1000
0100
0010
0001
,
0100
0000
0000
0100
0000
0000
0100
0000
0020
0000
0000
0000
0000
0000
0030
0000
,
0001
0100
0001
0000
0001
0010
0001
0000
,
0001
0100
0010
1000
0001
0100
1000
0000
,
2000
0000
3000
0100
0020
0000
0030
0001
,
0100
0000
0000
0010
0000
0000
0100
0000
0020
0000
0000
0000
0000
0000
0030
0000
,
2000
0000
0000
0000
3000
0000
0001
0000
0010
0000
0000
0001
0000
0000
0100
0000
,
0002
0000
0003
1000
0002
0000
0003
1000
,
2000
0000
0000
3000
0002
0000
0000
0003
,
0220
0000
0000
0000
0000
0000
0000
0330
;

//--------------- dance-single - M.P.B.L. ----------------
#NOTES:
     dance-single:
     M.P.B.L.:
     Hard:
     14:
     0,0,0,0,0:
0000
0000
0000
0000
,
0000
0000
0000
0000
,
0000
0000
0000
0000
,
0000
0000
0000
0000
,
0000
0000
0000
0000
,
0000
0000
0000
0000
,
0000
0000
0000
0000
,
1000
0000
0001
0100
0001
0000
1000
0100
0010
0001
0100
0010
0000
0000
1000
0000
,
0001
0000
0100
0010
0100
0000
0001
0010
0001
0000
1000
0100
1000
0000
0010
0100
,
0001
0000
0001
0010
0000
0010
0100
0000
1000
0000
1000
0001
0000
0001
0100
0000
,
0010
0000
0010
1000
0010
0000
0010
0001
0010
0000
0010
0100
0010
0000
0100
0000
,
0001
0000
1000
0100
1000
0000
0001
0100
0010
1000
0100
0010
0000
0000
0001
0000
,
1000
0000
0100
0010
0100
0000
1000
0010
1000
0000
0001
0100
0001
0000
0010
0100
,
1000
0000
1000
0010
0000
0010
0100
0000
0001
0000
0001
1000
0000
1000
0010
0000
,
1000
0000
1000
0100
1000
0000
1000
0001
1000
0000
1000
0010
0000
0010
1000
0000
,
0001
0000
0100
0010
0000
0100
0010
0100
0001
0000
0000
1000
0000
0000
0100
0000
,
1000
0000
0100
0010
0000
0100
0010
0001
0020
0000
0000
0000
1030
0000
0000
0000
,
1000
0000
0100
1000
0000
0100
0001
0100
0001
0000
0000
0010
0000
0000
0100
0000
,
1000
0000
0001
1000
0000
0010
0100
0000
0200
0000
0000
0000
0300
0000
0000
0000
,
1000
0000
0010
1000
0000
0001
0100
0001
0100
0000
0000
0010
0000
0000
0100
0000
,
0001
0000
1000
0010
0000
1000
0100
0010
0002
0000
0000
0000
0103
0000
0000
0000
,
0010
0000
1000
0010
0000
1000
0100
1000
0010
0000
0000
0100
0000
0000
0001
0000
,
0100
0000
0010
0100
0000
0010
0100
0010
0200
0000
0000
0000
0000
0000
0300
0000
,
1000
0010
1000
0010
0000
0000
0100
0000
0001
0010
0001
0010
0000
0000
0100
0000
,
1000
0100
0001
0000
1000
0100
0001
0000
1000
0100
0010
0001
0010
0100
1000
0000
,
0020
0000
0000
0000
0030
0000
0100
0000
0020
0000
0000
0000
0030
0000
0100
0010
,
0200
0000
0000
0302
0000
0000
2003
0000
3020
0000
0000
0000
0000
0000
0030
0000
,
2000
0000
0000
0000
0000
0000
3010
0100
0001
0000
0000
0010
0000
0000
0100
0000
,
2000
0000
0000
0000
0000
0000
3100
0010
0002
0000
0000
0000
0003
0000
1000
0100
,
0020
0000
0000
0000
0200
0000
0000
0330
,
2002
0000
0000
3003
,
1000
0100
1000
0100
1000
0000
0100
0000
0010
0001
0010
0001
0010
0000
0100
0000
,
1000
0010
1000
0010
1000
0000
0010
0000
0100
0010
0100
0010
0000
1000
0001
0000
,
1000
0100
1000
0000
0010
1000
0010
0000
1000
0100
1000
0000
0010
1000
0010
0000
,
0100
0001
0100
0000
0001
0010
0001
0000
0100
0001
0100
0000
0001
0010
0001
0000
,
1000
0000
0100
0000
0010
0000
0001
0000
1000
0001
1000
0001
1000
0000
0110
0000
,
0001
0000
0010
0000
0100
0000
1000
0000
0010
0100
0010
0100
0010
0000
1001
0000
,
1000
0000
1000
0010
0000
0010
0100
0000
0100
0001
0000
0001
0010
0000
0010
0100
,
1000
0000
0010
0000
0100
0000
0001
0000
1000
0010
1000
0001
0000
0100
0010
0000
,
2000
0000
0000
0100
0000
0000
0100
0000
3002
0000
0000
0100
0000
0000
0100
0000
,
0203
0000
0000
0010
0000
0000
0010
0000
0320
0000
0000
0000
1030
0000
0000
0000
,
0002
0000
0000
0010
0000
0000
0010
0000
2003
0000
0000
0010
0000
0000
0010
0000
,
3020
0000
0000
0100
0030
0000
0200
0000
0020
0000
0000
0000
0330
0000
0000
0000
,
1000
0000
0100
0000
1000
0000
0100
0000
0010
0001
0010
0001
0010
0001
0010
0000
,
0001
0000
1000
0000
0001
0000
1000
0000
0010
0100
0010
0100
0010
0000
0000
0000
,
0001
0000
0010
0000
0001
0000
0010
0000
1000
0010
1000
0010
1000
0010
1000
0000
,
0100
0000
0000
1000
0000
0000
0100
0000
0002
0000
0000
0000
0000
0000
0003
0000
,
1000
0010
0000
0100
0000
0000
0001
0000
1000
0100
0000
0010
0000
0000
0001
0000
,
1000
0100
1000
0100
0000
0010
0100
0000
0001
0010
0001
0010
0000
0000
0100
0000
,
2000
0000
0000
0000
0000
0000
3100
0000
0200
0000
0000
0000
0000
0000
0310
0001
,
0020
0000
0000
0032
0000
0000
0203
0000
2300
0000
0000
0000
0000
0000
3000
0000
,
0020
0000
0000
0000
0000
0000
1030
0100
0010
0000
0000
0001
0000
0000
0010
0000
,
0200
0000
0000
0301
0002
0000
0003
1000
,
0200
0000
0000
0000
0002
0000
0000
0303
,
2020
0000
0000
0000
0000
0000
0000
3030
;
