#TITLE:リリーゼと炎龍レーヴァテイン;
#SUBTITLE:;
#ARTIST:黒猫ダンジョン;
#TITLETRANSLIT:Lilieze and her fire dragon;
#SUBTITLETRANSLIT:;
#ARTISTTRANSLIT:Kuroneko Dungeon;
#GENRE:;
#CREDIT:M.P.B.L.;
#MUSIC:Lilieze to enryuu Laevateinn.ogg;
#BANNER:Lilieze to enryuu Laevateinn.png;
#BACKGROUND:Lilieze to enryuu Laevateinn-bg.png;
#CDTITLE:cdtitle.png;
#SAMPLESTART:91.162;
#SAMPLELENGTH:12.000;
#SELECTABLE:YES;
#OFFSET:0.638;
#BPMS:0.000=200.000;
#STOPS:;
#BGCHANGES:0.950=Lilieze to enryuu Laevateinn.avi=1.000=1=0=0=StretchNoLoop==CrossFade==,
99999.000=-nosongbg-=1.000=0=0=0=StretchNoLoop====
;
#FGCHANGES:;

//--------------- dance-single - M.P.B.L.(黒) ----------------
#NOTES:
     dance-single:
     M.P.B.L.(黒):
     Beginner:
     5:
     0,0,0,0,0:
0000
0000
0000
0000
,
0000
0000
0000
0000
,
0000
0000
0000
0000
,
0000
0000
0000
0000
,
0000
0000
0000
0000
,
0100
0000
0000
0000
,
0010
0000
0000
0000
,
1000
0000
0000
0000
,
0001
0000
0000
0000
,
0110
0000
0010
0000
,
0100
0000
0000
0000
,
1001
0000
0001
0000
,
1000
0000
0000
0000
,
0110
0000
0100
0000
,
0010
0000
0000
0000
,
1001
0000
1000
0000
,
0001
0000
0000
0000
,
1000
0000
0100
0000
,
0010
0000
0000
0000
,
0001
0000
0100
0000
,
0010
0000
0000
0000
,
1000
0000
0001
0000
,
1000
0000
0000
0000
,
0010
0000
1000
0000
,
0010
0000
0000
0000
,
0100
0000
0000
0000
,
0100
0000
0000
0000
,
0100
0000
0000
0000
,
0100
0000
0000
0000
,
0000
0000
0001
0000
,
1000
0000
0010
0000
,
0000
0000
1000
0000
,
0001
0000
0100
0000
,
0000
0000
1000
0000
,
0100
0000
1000
0000
,
0000
0000
0001
0000
,
0010
0000
0001
0000
,
0000
0000
1000
0000
,
0100
0000
0010
0000
,
0001
0000
1000
0000
,
0100
0000
0010
0000
,
0001
0000
1000
0000
,
0010
0000
0100
0000
,
0001
0000
1000
0000
,
0010
0000
0100
0000
,
0001
0000
1000
0000
,
0000
1000
0000
0000
,
1000
0000
0001
0000
,
0000
0001
0000
0000
,
0001
0000
0100
0000
,
0000
0100
0000
0000
,
0100
0000
0010
0000
,
0000
0010
0000
0000
,
0010
0000
1000
0000
,
0000
0000
0001
0000
,
0000
0000
0100
0000
,
0000
0000
0010
0000
,
0000
0000
1000
0000
,
0100
0000
1000
0000
,
0000
0000
0001
0000
,
0100
0000
0001
0000
,
0000
0000
1000
0000
,
1000
0000
0000
0000
,
0110
0000
0010
0000
,
0000
0000
1001
0000
,
1000
0000
1001
0000
,
0001
0000
1001
0000
,
1000
0000
0000
0000
,
0000
0000
0100
0000
,
0001
0000
0100
0000
,
0001
0000
0100
0000
,
0000
0020
0000
0000
,
0030
0000
1000
0000
,
0100
0000
1000
0000
,
0100
0000
1000
0000
,
0100
0000
0010
0000
,
0001
0000
1000
0000
,
0001
0000
1000
0000
,
0001
0000
0100
0000
,
0000
0020
0000
0000
,
0030
0000
1000
0000
,
0010
0000
0100
0000
,
0001
0000
1000
0000
,
0000
1000
0000
0000
,
1000
0000
0001
0000
,
0000
0001
0000
0000
,
0001
0000
1000
0000
,
0000
0010
0000
0000
,
0100
0000
0000
1001
;

//--------------- dance-single - M.P.B.L.(黒) ----------------
#NOTES:
     dance-single:
     M.P.B.L.(黒):
     Easy:
     9:
     0,0,0,0,0:
0000
0000
0000
0000
,
0000
0000
0000
0000
,
0000
0000
0000
0000
,
0000
0000
0000
0000
,
0000
0000
0000
0000
,
1000
0000
0000
1000
0000
0010
0000
0000
,
0010
0000
0100
0000
0000
0100
0000
0001
,
0000
0000
0001
0000
0010
0000
0000
0010
,
0000
0100
0000
0000
0100
0000
0110
0000
,
1000
0100
0010
0000
,
0001
0010
0100
0000
,
0010
1000
0100
0000
,
0100
0001
0010
0000
,
1000
0010
1000
0010
,
0100
0001
0100
0001
,
0010
0001
0010
0001
,
1000
0100
1000
0000
,
0011
0000
0011
0000
,
1100
0000
1100
0000
,
1010
0000
1010
0000
,
0101
0000
0101
0000
,
0110
0000
0110
0000
,
1001
0000
1001
0000
,
1100
0000
0110
0000
,
0011
0000
0110
0000
,
1000
0100
0010
0001
,
1000
0010
0100
0001
,
1000
0001
1000
0001
,
0100
0010
0100
0010
,
0000
0000
0100
0100
,
0000
0001
0000
0000
0100
0000
0000
0010
,
0000
0010
1000
1000
,
0000
0100
0000
0000
0010
0000
0000
0001
,
0000
0001
0100
0100
,
0000
1000
0000
0000
0100
0000
0000
0001
,
0000
0001
0010
0010
,
0000
1000
0000
0000
0010
0000
0000
0001
,
0000
0001
1000
0010
,
1000
0000
0001
0010
,
0001
0000
1000
0100
,
0010
0100
1000
0100
,
0010
0000
0001
0100
,
0001
0000
1000
0100
,
1000
0000
0001
0100
,
0001
0010
0001
0100
,
0010
0000
0000
0000
1001
0000
0000
0110
,
0000
0000
1001
0000
0000
0110
0000
0000
,
1001
0000
0000
0000
1100
0000
0000
0011
,
0000
0000
1100
0000
0000
0011
0000
0000
,
1100
0000
0000
0000
0110
0000
0000
1001
,
0000
0000
0110
0000
0000
1001
0000
0000
,
0110
0000
0000
0000
0101
0000
0000
1010
,
0000
0000
0101
0000
0000
1010
0000
0000
,
0101
0000
1000
0100
,
0010
0000
0001
0100
,
0010
0000
0001
0010
,
0100
0000
1000
0010
,
0100
0000
0001
0100
,
0001
1000
0001
0100
,
0001
1000
0010
1000
,
0001
1000
0010
1000
,
0001
0000
0100
0100
,
0010
0000
0000
0000
,
1000
0000
0001
0000
1000
0000
0001
0000
0000
0000
0000
0000
,
0000
0000
1000
1000
,
0100
0000
0010
0010
,
0001
0000
0100
0100
,
1000
0000
0001
0000
,
0100
0000
0000
0000
0001
0000
0000
0020
,
0000
0000
0000
0030
0001
0000
0100
0000
,
0010
0000
1000
0000
0200
0000
0300
0020
,
0000
0030
0002
0000
0000
0000
0000
0000
,
0003
0000
0000
0000
0200
0000
0300
0020
,
0000
0030
1000
0100
,
0010
0000
0100
0000
2000
0000
3000
0002
,
0000
0003
0100
0001
0200
0000
0300
0020
,
0000
0030
0000
0000
1000
0000
0000
0200
,
0000
0300
1000
0010
,
0100
0000
0001
0000
0020
0000
0030
0200
,
0000
0300
2000
0000
0000
0000
0000
0000
,
3000
0000
0000
0000
0010
0000
0000
0200
,
0000
0300
0001
0010
,
0100
0000
0010
0000
0001
0000
0000
1001
,
0000
0000
0100
0000
0000
0110
0000
0000
,
1100
0000
0000
0000
0001
0000
0000
1001
,
0000
0000
0100
0000
0000
0110
0000
0000
,
0011
0000
0000
0000
1000
0000
0000
0100
,
0000
0000
0001
0000
0000
0010
0000
0000
,
1000
0000
0000
0100
0000
0000
0010
0010
;

//--------------- dance-single - M.P.B.L.(黒) ----------------
#NOTES:
     dance-single:
     M.P.B.L.(黒):
     Medium:
     14:
     0,0,0,0,0:
0000
0000
0000
0000
,
0000
0000
0000
0000
,
0000
0000
0000
0000
,
0000
0000
0000
0000
,
0000
0000
0000
0000
,
1000
0010
1000
0010
0000
0001
0100
0001
,
0100
0000
1000
0100
1000
0100
0000
0001
,
0010
0001
0010
0000
0001
1000
0001
1000
,
0000
0010
0100
0010
0100
0000
1001
0000
,
1010
0000
0000
1000
0000
0010
0100
0000
0000
0001
0000
1000
,
0100
0000
0000
0010
0000
0001
0100
0001
0100
0001
0100
0001
,
0010
0000
0000
0100
0000
1000
0010
0000
0000
0100
0000
0001
,
0010
0000
0000
0100
0000
1000
0010
1000
0010
1000
0010
1000
,
0100
0000
0000
0001
0000
0100
1000
0000
0000
0010
0000
0001
,
0010
0000
0000
1000
0000
0100
0010
0100
0010
0100
0010
0100
,
0001
1000
0100
0010
,
0001
0000
0000
1100
0000
0000
0001
0000
0100
1000
0000
0010
,
0001
0000
0000
0010
0000
0000
0100
0000
0000
1000
0010
1000
,
0010
0000
0000
0100
0000
0000
0010
0000
0001
0010
0000
0100
,
1000
0000
0000
0010
0000
0000
0100
0000
0000
0001
0010
0001
,
0010
0000
0000
0100
0000
0000
0010
0000
1000
0100
0000
0010
,
0001
0000
0000
1000
0000
0000
0010
0000
0000
0100
0001
0100
,
0001
0000
0000
1000
0000
0000
0010
0000
0100
0001
0000
0100
,
0010
0100
0001
1000
,
0001
0010
0100
1000
0000
0000
1000
0100
0010
0001
0000
0000
,
1000
0010
0100
0000
0001
0010
0100
0000
,
1000
0100
0010
0000
0001
0100
0010
0000
,
1000
0010
1000
0000
0100
0001
0100
0000
,
1000
0100
1000
0000
0010
0001
0010
0001
,
0000
0000
1010
1001
,
0000
0010
0000
0000
0100
0000
0000
0002
,
0000
0103
1100
0110
,
0000
0001
0000
0000
0100
0000
0000
0020
,
0000
1030
0101
1001
,
0000
0100
0000
0000
0010
0000
0000
2000
,
0000
3010
0011
0110
,
0000
1000
0000
0000
0010
0000
0000
0200
,
0000
0000
0301
0000
1000
0010
0100
0000
,
1000
0010
1000
0000
0001
0010
0100
0000
,
0001
0010
0001
0010
0100
0000
1000
0100
,
0001
0000
0001
0100
1000
0000
0100
0010
,
0001
0010
0100
0000
1000
0100
0010
0000
,
1000
0100
1000
0000
0001
0100
0010
0000
,
0001
0100
0001
0100
0010
0000
1000
0010
,
0001
0000
0001
0010
1000
0000
0010
0100
,
1000
0100
0010
0000
0001
0000
0001
0100
,
0000
0100
0010
0000
0010
1000
0000
1000
,
0100
0010
0100
0010
0100
0000
0010
0001
,
0000
0001
0100
0000
0100
0010
0000
0010
,
1010
0000
0101
0000
0001
0000
0001
0010
,
0000
0010
0100
0000
0100
1000
0000
1000
,
0001
0100
0001
0100
0001
0000
0100
0010
,
0000
0010
1000
0000
1000
0100
0000
0100
,
1100
0000
0011
0000
1000
0010
1000
0000
,
0100
0010
0100
0000
0001
0100
1000
0100
,
0001
0100
0001
0000
0100
0010
1000
0000
,
0001
1000
0010
0000
1000
0001
0100
0000
,
1000
0100
0010
0100
0001
0010
0001
0000
,
0100
0010
0100
0000
1000
0100
0001
0100
,
1000
0100
1000
0000
0100
0010
0001
0000
,
1000
0001
0010
0000
0001
1000
0100
0000
,
0010
0001
0101
0011
,
0101
0000
0000
0000
0000
0000
0010
0000
1000
0000
0010
0000
,
1000
0000
0100
0000
0001
0000
0110
0000
0000
0000
0000
0000
,
0001
0000
0100
0000
0001
0000
1010
0000
0000
1100
0000
0000
,
1010
0000
0110
1001
,
0110
0000
0011
0110
,
1100
0000
0000
0000
0000
0000
1000
0010
1000
0010
0100
0010
,
0100
0000
0100
0000
0010
0000
1000
0100
,
0000
0000
0010
0000
0002
0000
0100
0003
,
0020
0000
1000
0030
1100
0000
0000
0101
,
0000
0022
0000
0000
,
0033
0000
0000
1000
0010
0000
0100
0010
,
0000
0100
0001
0000
1100
0000
0101
0000
,
0110
0000
1001
0000
2000
0000
0100
3020
,
0000
0000
0130
0001
0200
0000
0000
0020
,
0000
0000
0330
0100
0001
0000
0100
0010
,
0000
1000
0100
0000
0002
0000
1000
0003
,
0020
0000
0001
0030
0110
0000
0000
0011
,
0000
2200
0000
0000
,
3300
0000
0000
0100
0010
0000
0001
0100
,
0000
0010
1000
0000
0011
0000
0110
0000
,
1100
0000
1001
0000
0010
0010
0000
0100
,
0100
0000
0001
0001
0000
1000
1000
0000
,
0100
0100
0000
0000
0010
0010
0000
0100
,
0100
0000
0001
0001
0000
1000
1000
0000
,
0100
0100
0000
0000
0010
0000
0010
1000
,
0000
1000
0100
0000
0100
0001
0000
0001
,
0010
0000
0010
0100
0000
0100
0001
0001
;

//--------------- dance-single - M.P.B.L.(黒) ----------------
#NOTES:
     dance-single:
     M.P.B.L.(黒):
     Hard:
     17:
     0,0,0,0,0:
0000
0000
0000
0000
,
0000
0000
0000
0000
,
0000
0000
0000
0000
,
0000
0000
0000
0000
,
0000
0000
0000
0000
,
0100
1000
0100
1000
0100
0001
0100
0001
,
0100
0001
0100
0010
0100
0010
0100
0001
,
1000
0001
1000
0001
0010
0001
0010
0001
,
0010
1000
0010
1000
0010
1000
0010
0001
,
0010
0000
0000
0100
0010
0100
0010
0000
0000
1000
0000
0000
,
0010
0000
0000
0100
0010
0001
1000
0100
0010
0001
0010
0100
,
1000
0000
0000
0010
1000
0010
1000
0000
0000
0010
0000
0000
,
0100
0000
0000
0001
0010
0100
1000
0010
0100
0001
0100
0010
,
1000
0000
0000
0001
0100
0001
0100
0000
0000
0010
0000
0000
,
1000
0000
0000
1000
0100
0010
0001
0010
0100
1000
0100
0010
,
0001
0000
0000
1000
0001
1000
0001
0000
0000
0100
0000
0000
,
0010
0000
0000
1000
0100
0001
0010
0000
0000
0010
0001
0100
,
1000
0000
1000
0100
0000
0100
0010
0000
0010
0001
0000
0001
,
0100
0000
0100
0010
0000
0010
1000
0100
0010
0001
0010
0100
,
1000
0000
1000
0010
0000
0010
0100
0000
0100
0001
0000
0001
,
0010
0000
0010
0100
0000
0100
1000
0010
0100
0001
0010
0100
,
1000
0000
1000
0010
0000
0010
0001
0000
0001
0100
0000
0100
,
1000
0000
1000
0010
0000
0010
0001
0010
0001
0010
0001
0010
,
0001
0000
0001
0010
0000
0010
1000
0000
1000
0010
0000
0010
,
0001
0000
0000
0000
0000
0000
0000
0000
0001
0000
0000
0000
0100
0000
0000
0000
0000
0000
0000
0000
0100
0000
0000
0000
1000
0000
0000
0100
0000
0000
1000
0000
0000
0100
0000
0000
1000
0000
0000
0100
0000
0000
1000
0000
0000
0100
0000
0000
,
1000
0100
0010
0001
1000
0100
0010
0001
,
1000
0010
0100
0001
1000
0010
0100
0001
,
1000
0100
0001
0010
1000
0100
0001
0010
,
1000
0100
0001
0100
1000
0010
0001
0010
,
0000
0000
1100
1001
,
0001
0100
0000
0001
1000
0000
0100
2000
,
0000
3000
1000
0000
0101
0000
0110
0000
,
1000
0100
0000
0001
0100
0000
1000
0020
,
0000
0030
0010
0000
1100
0000
0011
0000
,
1000
0010
0000
0100
0001
0000
0010
2000
,
0000
3000
1000
0000
0101
0000
1010
0000
,
0100
0010
0000
1000
0001
0000
0100
0002
,
0000
0003
0001
0000
1000
0001
0010
0001
,
0100
0001
1000
0001
1000
0100
1000
0010
,
1000
0100
0001
0100
0010
0100
1000
0100
,
0010
0001
0010
0000
0001
0000
0100
0000
1000
0000
0100
0000
1000
0000
0100
0000
,
0010
0001
0010
0100
1000
0001
0100
0001
,
0010
0001
1000
0001
1000
0010
1000
0100
,
1000
0010
0001
0010
0100
0010
1000
0010
,
0100
0001
0100
0000
0001
0000
0010
0000
1000
0000
0010
0000
1000
0000
0010
0000
,
0100
0001
0100
0010
1000
0100
0001
1000
,
0010
0001
1000
0010
0100
1000
0100
0010
,
0100
0001
0010
0100
1000
0010
0001
1000
,
0100
0001
1000
0100
0010
1000
0010
0100
,
0010
0001
0100
0010
0001
0100
1000
0001
,
0010
1000
0001
0010
0100
0001
0100
0010
,
0100
1000
0010
0100
0001
0010
1000
0001
,
0100
1000
0001
0100
0010
0001
0010
0100
,
0010
0000
1000
0000
0100
0000
0010
0000
0001
0000
0000
0000
1000
0000
0010
0100
,
0010
0000
1000
0100
1000
0000
0001
0010
0001
0000
1000
0000
0100
0000
0010
0000
,
0001
0000
0010
0000
1000
0000
0010
0000
0001
0000
0000
0000
0010
0000
0100
1000
,
0100
0000
1000
0010
1000
0000
0001
0100
0001
0000
0010
0000
0100
0000
1000
0000
,
0100
0000
0001
0000
0100
0000
1000
0000
0100
0010
0100
0010
0100
0000
0010
0000
,
0001
0100
0001
0100
0001
0000
0100
0000
1000
0100
1000
0100
1000
0000
0100
0000
,
0010
0100
0010
0100
0010
0000
1000
0000
0010
1000
0010
1000
0010
0000
0100
0000
,
0001
0100
0001
0100
0001
0000
1000
0000
0001
0010
0100
1000
0000
0000
0001
0000
,
1000
0100
0010
0001
0000
0000
1000
0000
1010
0000
0000
0000
1001
0000
0000
0000
,
0011
0000
0000
1000
0010
1000
0010
0000
0100
0001
0000
0000
,
0011
0000
0110
0000
1100
0000
1001
0000
0000
1000
0010
0100
,
0001
0010
0100
1000
0000
0000
0101
0000
0000
0011
0000
0000
,
1100
0000
0001
1000
0000
0000
1010
0000
0000
0110
0000
0000
,
0101
0000
1000
0001
0000
0000
0110
0000
0000
1001
0000
0000
,
1000
0100
0010
0100
1000
0001
0100
1000
0100
0001
1000
0100
,
0010
0000
0100
0000
1000
0000
0010
0000
0100
0000
0001
0000
0010
0000
0000
0001
0000
0000
0010
0000
0000
1000
0000
0000
,
0000
0001
0100
0000
0210
0300
1200
0300
,
0210
0300
0201
0300
2010
0000
0000
3020
,
0000
0200
0000
0000
,
0330
0000
0000
0000
0000
0000
0001
0010
0100
0000
1000
0000
0010
0000
1000
0000
,
0000
1000
0010
0000
0021
0030
0120
0030
,
1020
0000
0030
0000
0120
0000
0030
0000
1001
0000
1000
0010
1000
0000
0010
0000
,
0100
0010
0100
0000
0001
0000
0020
0000
0200
0000
0000
0000
0030
0000
2000
0000
,
0000
0000
3300
0000
1000
0010
0100
0001
0010
0000
1000
0000
0010
0000
0001
0000
,
0000
1000
0100
0000
0012
0003
0102
0003
,
2010
3000
2100
3000
0012
0000
0000
0203
,
0000
2000
0000
0000
,
3300
0000
0000
0000
0000
0000
1000
0010
0100
0000
0001
0000
0010
0000
0001
0000
,
0000
0001
0010
0000
1020
0030
0120
0030
,
0021
0030
0120
0030
1100
1100
0000
0110
,
0110
0000
0101
0101
0000
1010
1010
0000
,
1001
1001
0000
0000
1100
1100
0000
0110
,
0110
0000
0101
0101
0000
1010
1010
0000
,
1001
1001
0000
0000
0001
0100
0001
1000
,
0010
1000
0010
0001
0010
1000
0010
1000
,
0100
1000
0100
0001
0100
0001
0110
0110
;
