#TITLE:GOODBOUNCE;
#SUBTITLE:;
#ARTIST:EBIMAYO;
#TITLETRANSLIT:;
#SUBTITLETRANSLIT:;
#ARTISTTRANSLIT:;
#GENRE:;
#CREDIT:M.P.B.L.;
#MUSIC:GOODBOUNCE.ogg;
#BANNER:GOODBOUNCE.png;
#BACKGROUND:GOODBOUNCE-bg.png;
#CDTITLE:cdtitle.png;
#SAMPLESTART:106.697;
#SAMPLELENGTH:10.667;
#SELECTABLE:YES;
#OFFSET:0.303;
#BPMS:0.000=180.000;
#STOPS:189.000=1.000;
#BGCHANGES:0.400=GOODBOUNCE.avi=1.000=1=0=0=StretchNoLoop==CrossFade==,
99999.000=-nosongbg-=1.000=0=0=0=StretchNoLoop====;
#FGCHANGES:;

//--------------- dance-single - ----------------
#NOTES:
     dance-single:
     :
     Beginner:
     6:
     0,0,0,0,0:
0000
0000
0000
0000
,
0000
0000
0000
0000
,
0000
0000
0000
0000
,
0000
0000
0000
0000
,
0000
0000
0000
0000
,
0000
0000
0000
0000
,
0000
0000
0000
0000
,
0000
0000
0000
0000
,
0000
0100
0000
0100
,
0000
0010
0000
0010
,
0000
0100
0000
0100
,
0000
0010
0000
0010
,
0000
1000
0000
1000
,
0000
0001
0000
0001
,
0000
1000
0000
1000
,
0000
0001
0000
0001
,
0000
1000
0100
0010
,
0000
1000
0100
0010
,
0000
0001
0010
0100
,
0000
0001
0010
0100
,
0000
1000
0010
1000
,
0000
0001
0100
0001
,
0000
1000
0001
1000
,
0001
0000
2000
0000
0000
0000
0000
3000
,
0000
0010
0100
0010
,
0000
0010
0100
0010
,
0000
1000
0001
1000
,
0000
1000
0001
1000
,
0000
0001
0010
0100
,
0000
1000
0100
0010
,
0000
0100
0001
0100
,
0000
0010
1000
0010
,
0000
0100
0000
0100
,
0000
0010
0000
0010
,
0000
1000
0001
1000
,
0000
0001
1000
0001
,
0000
0100
0000
0100
,
0000
0001
0000
0001
,
0000
1000
0000
1000
,
0000
0010
0000
0010
,
0000
0100
0000
0000
,
0000
0100
0000
0000
,
0000
0100
0000
0000
,
0000
0100
0000
0000
,
0000
0001
1000
0001
,
0000
0100
0010
0100
,
0000
0001
1000
0001
,
0000
0000
1000
0000
,
1000
0000
0001
0000
,
0001
0000
1000
0000
,
1000
0000
0001
0000
,
0001
0000
0100
0000
,
0100
0000
0010
0000
,
0010
0000
0100
0000
,
0100
0000
0010
0000
,
0010
0000
1000
0000
,
0100
0000
0010
0000
,
0001
0000
1000
0000
,
0100
0000
0010
0000
,
0001
0000
0001
0000
,
0010
0000
0100
0000
,
1000
0000
0001
0000
,
0010
0000
0100
0000
,
1000
0000
0001
0100
,
0001
0000
1000
0010
,
1000
0000
0001
0100
,
0001
0000
1000
0010
,
1000
0000
0001
0010
,
0001
0000
1000
0100
,
1000
0000
0001
0010
,
0001
0000
1000
0000
,
1001
0000
1000
0100
,
0010
0001
0010
0100
,
1000
0000
0001
0010
,
0100
1000
0100
0010
,
0001
0000
1000
0100
,
1000
0000
0010
0100
,
0010
0000
0010
0001
,
0010
0000
0100
0000
,
0100
0000
0010
0100
,
0010
0000
0100
0010
,
0100
0000
0001
1000
,
0001
0000
1000
0001
,
1000
0000
0001
0010
,
0100
0000
1000
0100
,
0010
0000
0100
1000
,
0100
0000
0010
0001
,
0010
0000
0100
0000
,
0100
0000
0010
0000
,
0010
0000
0001
1000
,
0001
0000
1000
0001
,
1000
0000
0100
0010
,
0100
0000
1000
0100
,
1000
0000
0001
0010
,
0001
0000
0010
0000
,
0010
0000
0110
0000
;

//--------------- dance-single - ----------------
#NOTES:
     dance-single:
     :
     Easy:
     9:
     0,0,0,0,0:
0000
0000
0000
0000
,
0000
0000
0000
0000
,
0000
0000
0000
0000
,
0000
0000
0000
0000
,
0000
0000
0000
0000
,
0000
0000
0000
0000
,
0000
0000
0000
0000
,
0000
0000
0000
0000
,
0000
1000
0100
0010
,
0001
1000
1000
0100
,
0000
0001
0010
0100
,
1000
0001
0001
0100
,
0000
1000
0010
0100
,
0010
1000
0010
0010
,
0000
0001
0100
0010
,
0100
0010
0001
1000
,
1010
1000
0010
0100
,
0000
0001
0010
0100
,
0000
1000
0010
1000
,
0000
0001
0100
0001
,
0000
1000
0100
1000
,
0100
0010
0001
0010
,
0001
0000
1000
0100
1000
0000
0010
0100
,
0010
0200
0000
0000
,
0300
1000
0000
1000
,
0000
0001
0100
0001
,
0000
0010
0000
0010
,
0000
1000
0100
1000
,
0100
0010
0000
0010
,
0000
0001
0010
0001
,
0010
0100
0000
0100
,
0000
0000
1000
0001
1000
0000
0010
0100
,
0010
1000
0000
0001
,
0000
1000
0010
1000
,
0000
0001
0000
1000
,
0000
0001
0100
0001
,
0000
1000
0100
0010
,
0001
1000
0010
0100
,
0001
1000
1000
0001
,
0001
0000
1000
0100
1000
0000
0001
0010
,
0001
0100
0000
0000
,
0000
0000
0100
0000
0000
0000
0000
0020
,
0000
0130
0000
0000
,
0000
0000
0100
0000
0000
0000
0000
0020
,
0000
0130
0100
0010
,
0010
1000
1000
0001
,
0001
0000
1000
0001
1000
0001
1000
0001
,
1000
0001
1000
0000
1000
0000
0010
0000
,
1000
0010
0100
0001
,
0100
0001
1000
0010
,
1000
0010
0100
0010
,
0100
0010
1000
0010
,
1000
0010
0100
0001
,
0100
0001
1000
0010
,
1000
0010
1000
0001
,
1000
0110
0001
0010
,
0001
0010
0100
0000
1000
0000
0100
0000
,
1000
0100
0010
0000
0001
0000
0010
0000
,
0001
0010
0100
0010
0001
0000
0100
0000
,
0010
0000
1000
0100
,
1000
0100
0010
0000
0001
0000
0010
0000
,
0001
0010
0100
0000
1000
0100
1000
0000
,
0001
0010
0001
0000
1000
0000
0001
0000
,
1000
0001
1000
0100
,
0010
0001
0010
0000
0001
0000
0010
0000
,
0100
1000
0100
0000
1000
0000
0100
0000
,
0010
0001
0010
0000
0001
0010
0001
0000
,
1000
0001
1000
0000
0001
0000
0100
0000
,
0010
1000
0010
0000
1000
0000
0010
0000
,
0100
0001
0100
0000
0001
0000
0100
0000
,
0010
1000
0010
0000
1000
0010
1000
0000
,
0010
0010
0100
0100
0010
0000
0100
0000
,
0001
1000
0001
0000
0100
0000
0010
0000
,
1000
0001
1000
0000
0001
0000
0100
0000
,
0001
0010
0001
0000
1000
0000
0010
0000
,
1000
0100
1000
0100
1000
0000
1000
0000
,
0100
0100
0010
0010
,
0001
0001
1000
0100
,
0010
0000
0001
0000
0100
0010
0100
0010
,
0100
0010
0100
0000
0001
0000
0000
0000
,
0001
0000
1000
0100
,
1000
0000
0010
0000
,
0010
0000
0001
0100
,
0001
0100
0010
0000
,
0010
0000
1000
0010
,
1000
0010
0100
0000
,
0100
0000
0000
0000
0001
1000
0001
0000
,
0010
0100
0010
0000
0001
0000
0001
0000
,
1000
0000
0001
0010
,
0001
0010
0100
0100
,
0001
0000
1000
0100
,
1000
0100
0010
0100
,
0010
0100
0001
1000
,
0001
0000
1000
0000
0001
1000
0001
0000
,
1000
0001
1000
0000
0001
0100
0001
0000
,
0001
0100
0001
0000
1100
0000
0000
0000
;

//--------------- dance-single - ----------------
#NOTES:
     dance-single:
     :
     Medium:
     12:
     0,0,0,0,0:
0000
0000
0000
0000
,
0000
0000
0000
0000
,
0000
0000
0000
0000
,
0000
0000
0000
0000
,
0000
0000
0000
0000
,
0000
0000
0000
0000
,
0000
0000
0000
0000
,
0000
0100
0100
0100
,
0000
0000
1000
0000
0100
0000
0010
0001
,
0010
0000
0100
0000
0001
0000
1000
0010
,
1000
0100
0010
0000
0100
0000
0001
0100
,
0001
0000
1000
0000
0010
0000
1000
0100
,
1000
0010
0100
0000
0010
0000
0100
0001
,
0100
0000
0010
0000
0001
0000
1000
0100
,
1000
0010
0100
0000
0010
0000
0001
0010
,
0001
0000
1000
0001
1000
0001
1000
0000
,
0011
0000
1000
0000
0010
0000
0100
0001
,
0100
0001
0010
0000
0100
0000
1000
0010
,
1000
0100
1000
0000
0001
0000
0100
0010
,
0100
0010
1000
0000
0010
0000
1000
0001
,
1000
0010
1000
0000
0100
0000
0010
0000
,
0001
1000
0010
0100
,
0001
0000
1000
0100
0010
0001
0010
0100
,
1000
2002
0000
0000
,
3003
0000
0000
0000
0100
0000
0000
0010
0000
0000
0100
0000
0000
0000
0001
0000
,
0100
0001
0010
0000
0100
0000
1000
0000
,
0000
0000
0000
0000
0010
0000
0000
0100
0000
0000
0010
0000
0000
0000
0001
0000
,
0010
0001
0100
0000
0010
0000
1000
0000
,
0010
0000
1000
0100
1000
0000
1000
0001
,
1000
0000
0001
0100
0001
0100
0001
0000
,
0110
0000
0100
0010
0100
0000
0100
1000
,
0100
0000
0000
0000
1000
0000
0000
0001
0000
0000
1000
0000
0010
0000
0000
0100
,
0000
0000
0010
0000
0100
0000
0000
0010
0000
0000
0100
0000
0000
0000
1000
0000
,
0100
1000
0010
0000
0100
0000
0001
0000
,
0000
0000
0000
0000
0010
0000
0000
0100
0000
0000
0010
0000
0000
0000
1000
0000
,
0010
1000
0100
0000
0010
0000
0001
0000
,
0010
0000
0001
0100
0001
0000
0001
1000
,
0001
0000
1000
0100
1000
0000
1000
0010
,
1000
0000
0100
0010
0100
0010
1000
0001
,
1000
0000
0001
0000
0100
0000
0000
0100
0000
0000
0100
0000
0010
0000
0000
0010
,
0000
0010
0100
0000
0000
0000
0000
0000
,
0000
0000
0001
0000
0000
0000
0000
2000
,
0000
3010
0000
0000
,
0000
0000
0100
0000
0000
0000
0000
0002
,
0000
1003
0100
1000
,
0100
0001
0100
0001
,
0100
0000
1000
0001
1000
0001
1000
0100
,
1000
0100
0001
0000
1000
0000
0010
0000
,
1000
0100
1000
0000
0001
0000
0100
0000
,
0001
0010
0001
0000
1000
0000
0001
0000
,
1000
0001
1000
0000
0010
0100
0010
0100
,
0010
0100
0001
0000
1000
0000
0100
0000
,
1000
0010
1000
0000
0001
0000
0010
0000
,
0001
0100
0001
0000
0100
0000
0010
0000
,
1000
0001
1000
0000
0100
0010
1000
0001
,
0100
0110
1000
0010
,
1000
0100
0001
0000
1000
0000
0100
0000
,
1000
0100
0001
0100
0001
0000
0010
0000
,
0001
0010
1000
0000
0001
0100
0001
0100
,
0001
0100
1000
0000
1000
0000
0100
0000
,
0010
0100
1000
0010
,
0100
0000
0001
0000
0100
0001
0100
0001
,
1000
0010
1000
0010
2100
0000
0100
0000
,
3100
0000
0010
0000
1000
0100
1000
0000
,
1000
0001
1000
0000
0001
0010
0100
1000
,
0100
0010
0001
0000
0001
0010
0001
0000
,
0001
1000
0001
0000
1000
0010
0100
0001
,
0100
0010
1000
0010
0100
0001
0100
0000
,
0010
1000
0010
0000
1000
0100
0001
0100
,
1000
0100
0001
0000
0100
1000
0100
0000
,
0010
0001
0010
0000
0001
0010
1000
0010
,
0001
0001
1000
1000
0001
0100
0010
0000
,
1000
0100
0010
0000
1000
0001
0100
0000
,
0010
1000
0001
0000
1000
0001
1000
0001
,
1000
0010
1000
0000
0001
0100
0001
0100
,
0001
0010
0001
1000
0001
0010
0100
0000
,
0010
0100
1000
0000
1000
0100
0010
0000
,
0100
0010
0001
0000
1000
0100
0001
0000
,
0001
0100
1000
0100
0010
0100
0010
0100
,
0010
0000
0000
0000
1001
0000
0000
0000
0010
0000
0000
0100
0000
0000
0010
0000
,
0000
1000
0010
1000
0100
0000
0010
0000
,
0001
0000
0000
0000
0000
0000
0000
0000
0100
0000
0000
0010
0000
0000
0100
0000
,
0000
1000
0100
1000
0010
0000
0100
0000
,
0001
0000
0100
0000
0001
0010
0001
0000
,
1000
0001
1000
0000
1000
0010
1000
0010
,
1000
0000
0110
0000
0010
0100
0010
0000
,
0001
0000
0010
0000
0001
0000
0000
0000
0001
0000
0000
1000
0000
0000
0010
0000
,
1000
0000
0000
0001
0000
0000
0100
0000
0010
0000
0000
0100
0000
0000
0010
0000
,
0000
0001
0010
0001
0100
0000
0010
0000
,
1000
0000
0000
0000
0000
0000
0000
0000
0100
0000
0000
0010
0000
0000
0100
0000
,
0000
0001
0100
0001
0010
0000
0100
0000
,
1000
0000
0100
0000
1000
0010
1000
0010
,
1000
0001
1000
0001
0100
0001
0100
0001
,
0010
0001
0010
0001
1000
0100
0010
0001
,
1000
0000
0100
0000
0010
0000
0001
0000
0010
0000
0000
0010
0000
0000
0010
0000
,
0010
0000
0000
0010
0000
0000
0010
0000
0110
0000
0000
0000
0000
0000
0000
0000
;

//--------------- dance-single - ----------------
#NOTES:
     dance-single:
     :
     Hard:
     15:
     0,0,0,0,0:
0000
0000
0000
0000
,
0000
0000
0000
0000
,
0000
0000
0000
0000
,
0000
0000
0000
0000
,
0000
0000
0000
0000
,
0000
0000
0000
0000
,
0000
0000
0000
0000
,
0000
1001
1001
1001
,
0000
0000
0000
0000
1000
0000
0000
0100
0000
0000
0010
0000
0001
0000
0000
0100
,
0000
0000
0010
0000
1000
0000
0000
0100
0000
0000
0010
0000
0001
0100
0000
0001
,
0100
0000
0010
0000
1000
0000
0000
0010
0000
0000
0100
0000
0001
0000
0000
0010
,
0000
0000
0100
0000
1000
0000
0000
0010
0000
0000
0100
0000
0001
0010
0000
0001
,
0010
0000
0100
0000
1000
0000
0000
0100
0000
0000
1000
0000
0001
0000
0000
0010
,
0000
0000
0001
0000
1000
0000
0000
0001
0000
0000
1000
0000
0010
0100
0000
0010
,
0100
0000
0010
0000
1000
0000
0000
0010
0000
0000
1000
0000
0001
0000
0000
0100
,
0000
0000
0001
0000
1000
0000
0000
0001
0000
0000
1000
0000
0100
0010
0100
0010
,
0100
0000
0000
0000
0001
0000
0000
0100
0001
0000
1000
0000
0100
0000
0010
0000
,
0001
0000
0000
0000
1000
0000
0000
0010
0100
0000
0001
0000
0010
0000
0100
0000
,
1000
0000
0001
0000
0100
0000
0000
0010
1000
0000
0001
0000
0100
0000
0010
0000
,
1000
0000
0000
0000
0100
0000
0000
0010
0100
0000
1000
0000
0010
0000
0100
0000
,
0001
0100
0010
0100
0010
0100
0001
0010
,
0001
0010
1000
0010
1000
0010
0001
0100
,
0001
0100
0001
0010
0100
1000
0001
1000
,
0100
0010
0220
0000
0000
0000
0000
0000
,
0330
0000
0000
0000
1000
0000
0000
0010
0000
0000
1000
0000
0000
0000
0001
0000
,
0010
0000
0100
0000
1000
0000
0001
0000
0100
0001
0000
0100
0000
0000
0010
0000
,
0000
0000
0000
0000
1000
0000
0000
0100
0000
0000
1000
0000
0000
0000
0001
0000
,
0100
0000
0010
0000
1000
0000
0001
0000
0010
0001
0000
1000
0000
0100
0010
0000
,
0001
0000
0100
0000
0010
0000
0000
0000
0010
0000
0000
1000
0000
0001
1000
0001
,
0000
0000
1000
0000
0010
0100
0010
0100
0000
0000
0010
0000
1010
0000
0000
0000
,
0101
0000
0000
0000
1000
0000
0000
0000
1000
0000
0000
0001
0000
1000
0010
1000
,
0000
0000
0001
0000
1000
0000
0000
0100
0000
0000
0001
0000
0100
0000
0000
0010
,
0000
0000
0001
0000
1000
0000
0000
0000
0010
0000
0000
0100
0010
0000
1000
0000
,
0001
0000
1000
0000
0001
0000
0010
0000
0100
1000
0000
0100
0000
0000
1000
0000
,
0000
0000
0000
0000
0001
0000
0000
0000
0010
0000
0000
0100
0010
0000
0001
0000
,
1000
0000
0001
0000
1000
0000
0010
0000
0100
0001
0000
0100
0000
0000
0010
0000
,
1000
0000
0010
0000
1000
0000
0000
0000
1000
0000
0000
0001
0000
0010
0001
0010
,
0000
0000
0100
0000
1000
0000
0000
0100
0000
0000
0010
0000
0001
0000
0000
0000
,
1001
0000
0000
0000
0100
0000
0000
0000
0100
0000
0000
0001
0000
0100
0001
0100
,
0000
0000
0010
0000
1000
0000
0000
0010
0000
0000
0001
0000
0010
0000
0000
0100
,
0000
0001
1000
0000
1000
0000
1000
0000
,
1000
0000
0010
0000
0010
0000
0010
0200
,
0000
0310
0100
0000
0100
0000
0100
0000
,
0100
0000
0001
0000
0001
0000
0001
1000
,
0001
1000
1001
0000
1000
0000
0110
0000
,
0010
1001
0001
0110
,
0100
0000
0000
0000
1000
0000
0010
0000
0100
0000
0001
0000
1000
0001
1000
0001
,
1000
0001
1000
0001
1000
0000
0000
0000
0001
0000
0010
0000
0001
0010
0000
0100
,
1000
0000
0010
0000
1000
0000
0000
0000
0001
0000
0100
0000
0001
0100
0000
0010
,
1000
0000
0100
0000
1000
0000
0010
0000
1000
0000
0100
0000
1000
0100
0000
0010
,
0001
0000
0100
0000
0001
0000
0000
0000
1000
0000
0010
0000
1000
0010
0000
0100
,
0001
0000
1000
0010
0000
0100
0001
0000
1000
0000
0001
0000
1000
0001
0000
1000
,
0100
0000
0010
0000
0001
0000
0000
0000
1000
0000
0001
0000
1000
0001
0000
1000
,
0010
0000
0100
0000
0001
0000
0100
0000
0001
0000
1000
0000
0001
1000
0000
0001
,
0100
0000
0010
0000
1000
0000
0000
0000
0001
0100
0001
0000
0100
0001
0100
0000
,
0010
0000
0100
0000
0110
0000
0000
0000
1000
0000
0100
0000
1000
0010
0000
1000
,
0100
0000
0010
0000
0001
0000
0000
0000
1000
0000
0010
0000
1000
0100
0000
1000
,
0010
0000
0100
0000
0001
0000
1000
0000
0001
0000
0010
0000
0001
0100
0000
0001
,
0010
0000
0100
0000
1000
0000
0000
0000
0001
0000
0100
0000
0001
0010
0000
0100
,
1000
0000
0001
0010
0000
0100
1000
0000
1000
0000
0000
0000
0100
0000
0000
0000
,
0010
0001
0100
1000
,
0010
0000
0001
0010
0001
0100
0001
0100
,
0001
0000
1000
0000
0001
0000
1000
0000
0001
0010
0001
0010
0001
0000
0000
0000
,
1000
0010
1000
0010
2000
0000
3000
0000
0100
0000
1000
0000
0010
0100
0000
0010
,
0100
0000
0001
0000
0010
0000
0000
0000
0100
0000
1000
0000
0010
0100
0000
0010
,
0100
0000
0001
0000
0010
0000
0001
0000
1000
0000
0001
0000
0100
0010
0000
0100
,
0010
0000
0001
0000
1000
0000
0001
0000
1000
0000
0010
0100
0000
0001
0010
0000
,
0011
0000
0000
0000
1100
0000
0000
0000
0001
0000
0010
0000
0001
1000
0000
0001
,
1000
0000
0010
0000
1000
0000
0000
0000
0001
0000
0010
0000
0001
1000
0000
0001
,
1000
0000
0010
0000
1000
0000
0100
0000
1000
0000
0100
0000
0010
0001
0000
0010
,
0001
0000
1000
0000
0010
0000
1000
0000
0001
0000
0010
0001
0000
0010
0001
0000
,
0100
0100
0100
0100
0001
0010
0100
0010
,
0001
1000
0001
0000
1000
0100
0010
0100
,
1000
0001
1000
0010
1000
0100
0001
0100
,
1000
0000
0100
0000
0010
0000
0000
0000
0001
0000
0100
0010
0000
0100
0010
0000
,
1000
0001
1000
0010
1000
0100
1000
0100
,
1000
0100
1000
0100
0010
0100
0010
0100
,
0010
0100
0010
0100
1000
0100
0010
0001
,
0010
1000
0010
0001
0100
1000
0100
0001
,
0100
0000
0100
0000
0010
0000
0000
0000
1000
0000
0000
0100
0000
0000
1000
0000
,
0000
0000
0001
0000
0100
0000
0010
0000
1000
0000
0001
0000
0010
0001
0000
0010
,
0000
0000
0100
0000
0000
0000
0000
0000
1000
0000
0000
0010
0000
0000
1000
0000
,
0000
0000
0001
0000
0010
0000
0100
0000
1000
0000
0001
0000
0100
0001
0000
1000
,
0000
0010
0100
0000
0001
0000
0010
0000
0100
0000
0000
0000
0100
0000
0000
1000
,
0000
0001
1000
0001
0000
0000
1000
0000
0100
0010
0100
0010
0000
0000
0100
0000
,
1100
0000
0000
0000
0011
0000
0000
0000
1000
0000
0000
0000
1000
0000
0000
0001
,
0000
1000
0100
1000
0000
0000
0001
0000
1000
0000
0000
0010
0000
0000
0001
0000
,
0010
0000
0000
0100
0000
0000
0001
0000
1000
0000
0000
0100
0000
0000
0010
0000
,
0100
0000
1000
0000
0001
0000
1000
0000
0001
0000
0100
0000
0010
1000
0000
0010
,
0000
0000
1000
0000
0001
0000
1000
0000
0001
0000
0000
0010
0000
0000
0100
0000
,
0010
0000
0001
0000
1000
0000
0001
0000
1000
0000
0100
0000
0010
0001
0000
0010
,
0000
0100
1000
0100
1000
0010
1000
0010
,
0001
0010
0001
0010
0100
0010
0100
0010
,
1000
0000
0100
0000
1000
0000
0100
0000
0010
0100
0010
0000
1000
0001
1000
0000
,
0010
0100
0010
0000
1000
0001
1000
0000
0110
0000
0000
0011
0000
0000
0110
0000
,
1001
0000
0000
1010
0000
0000
1001
0000
0101
0000
0000
0000
0000
0000
0000
0000
;

//--------------- dance-single - ----------------
#NOTES:
     dance-single:
     :
     Challenge:
     17:
     0,0,0,0,0:
0000
0000
0000
0000
,
0000
0000
0000
0000
,
0000
0000
0000
0000
,
0000
0000
0000
0000
,
0000
0000
0000
0000
,
0000
0000
0000
0000
,
0000
0000
0000
0000
,
0000
1001
1001
1001
,
0000
0000
0000
0000
1000
0000
0000
0010
1000
0000
0010
0000
0100
0000
0000
0010
,
0100
0000
0010
0000
0001
0000
0000
0100
0001
0000
0100
0000
1000
0100
0000
1000
,
0100
0000
0100
0000
0001
0000
0000
0100
0001
0000
0100
0000
0010
0000
0000
0100
,
0010
0000
0100
0000
1000
0000
0000
0010
1000
0000
0010
0000
0001
0010
0000
0001
,
0010
0000
0010
0000
1000
0000
0000
0100
1000
0000
0100
0000
0010
0000
0000
0100
,
0010
0000
0100
0000
0001
0000
0000
0010
0001
0000
0010
0000
1000
0010
0000
1000
,
0010
0000
0010
0000
0001
0000
0000
0010
0001
0000
0010
0000
0100
0000
0000
0010
,
0100
0000
0010
0000
1000
0000
0100
0000
0010
0000
0001
0000
1000
0001
1000
0001
,
1000
0000
0000
0000
0001
0000
0000
0010
0100
0000
1000
0000
0001
0000
0100
0000
,
0010
0000
1000
0000
0001
0000
0000
0010
0100
0000
1000
0000
0010
0100
0010
0100
,
0010
0000
0000
0000
1000
0000
0000
0100
0010
0000
0001
0000
1000
0000
0001
0000
,
1000
0000
0001
0000
1000
0000
0000
0100
0010
0000
0001
0000
0100
0010
0100
0010
,
0100
0000
0001
0010
0001
0000
1000
0100
,
1000
0000
0001
0100
0010
0000
1000
0001
,
0100
0000
0100
0000
0010
1000
0010
1000
0010
0000
0000
0000
0100
0001
0100
0001
,
0100
0220
0000
0030
,
0310
0000
0000
0000
1000
0000
0000
0100
0000
0000
1000
0000
0000
0000
0010
0100
,
0010
0000
0100
0000
0001
0000
0010
0000
0100
1000
0000
1000
0000
0000
0010
0000
,
0000
0000
0000
0000
0001
0000
0000
0100
0000
0000
0001
0000
0000
0000
0010
0100
,
0010
0000
0100
0000
1000
0000
0010
0000
0100
0001
0000
0001
0000
0010
0001
0000
,
0100
0000
0010
0000
1000
0000
0000
0000
1000
0000
0000
1000
0000
0001
1000
0001
,
0000
0000
0100
0000
0001
0010
0001
0010
0000
0000
0100
0000
0010
0000
0000
0000
,
0110
0000
0000
0000
1100
0000
0000
0000
1000
0000
0100
1000
0000
0010
1000
0010
,
0000
0000
0100
0000
0001
0000
0000
0100
0000
0000
1000
0000
0001
0000
0000
0010
,
0000
0000
1000
0000
0100
0000
0000
0010
0000
0000
0001
0000
1000
0000
0100
0000
,
0001
0000
0100
0000
1000
0000
0100
0000
1000
0010
0000
0010
0000
0000
1000
0000
,
0000
0000
0000
0000
0001
0000
0000
0010
0000
0000
0100
0000
0001
0000
0100
0000
,
1000
0000
0100
0000
0010
0000
0001
0000
0010
0100
0000
0100
0000
0100
0010
0000
,
1000
0000
0100
0000
1000
0000
0010
0000
1000
0000
0100
1000
0000
0001
1000
0001
,
0000
0000
0100
0000
0001
0000
0010
0001
0000
0000
0100
0000
0010
0000
0000
0000
,
1010
0000
0000
0000
0100
0000
0001
0000
0100
0000
0010
0100
0000
0001
0010
0100
,
0000
0000
1000
0000
0001
0000
0000
0010
0000
0000
0100
0000
0001
0000
0000
1000
,
0000
0100
1100
0000
0100
0000
1000
0000
,
0100
0000
0101
0000
0001
0000
0100
0220
,
0300
1030
0001
0000
1000
0000
0001
0000
,
1000
0000
1001
0000
0001
0000
1000
0010
,
1000
0010
1100
0000
1010
0000
0011
0000
,
0101
1100
0101
0011
,
1010
0000
0000
0000
1000
0000
0100
0000
0010
0000
0001
0000
1000
0010
0100
0001
,
1000
0010
0100
0001
0000
0000
0000
0000
1000
0000
1000
0000
0010
1000
0000
0001
,
0100
0000
0001
0000
1000
0100
0010
0000
0001
0000
0001
0000
0100
0001
0000
1000
,
0010
0000
1000
0000
0001
0010
0100
0000
1000
0000
1000
0000
0010
1000
0000
0001
,
0100
0000
0001
0000
1000
0100
0010
0000
0001
0000
0001
0000
1000
0001
0000
0100
,
0010
0000
1000
0001
0000
0010
0100
0000
1000
0000
1000
0000
0001
0010
0000
0100
,
1000
0000
0001
0000
0100
0001
0100
0000
0001
0000
0001
0000
1000
0100
0000
0010
,
0001
0000
1000
0000
0010
1000
0010
0000
1000
0000
1000
0000
0001
0010
0000
0100
,
1000
0000
0001
0000
0100
0001
0100
0000
0010
0100
0010
0000
0100
0010
0100
0000
,
0001
0000
1000
0000
1001
0000
0000
0000
1000
0000
1000
0000
0100
1000
0000
0001
,
0010
0000
0001
0000
1000
0010
0100
0000
0001
0000
0001
0000
0010
0001
0000
1000
,
0100
0000
1000
0000
0001
0100
0010
0000
1000
0000
1000
0000
0100
1000
0000
0001
,
0010
0000
0001
0000
1000
0010
0100
0000
0001
0000
0001
0000
1000
0001
0000
0010
,
0100
0000
1000
0001
0000
0100
0010
0000
1000
0000
1000
0000
0001
0100
0000
0010
,
1000
0000
0001
0000
0010
0001
0010
0000
0001
0000
0001
0000
1000
0010
0000
0100
,
0001
0000
1000
0000
0100
1000
0100
0000
1000
0000
1000
0000
0001
0100
0000
0010
,
1000
0000
0001
0000
0010
0001
0010
0000
0001
0000
1000
0000
0001
1000
0000
0010
,
0100
0000
0010
0000
0220
0000
0330
0000
1000
0000
0100
0000
1000
0100
0000
1000
,
0001
0000
1000
0000
0001
0010
0001
0000
1000
0000
0010
0000
1000
0010
0000
1000
,
0001
0000
1000
0000
0001
0100
0001
0000
1000
0000
0100
0000
1000
0100
0000
1000
,
0001
0000
1000
0000
0001
0010
0001
0000
1000
0000
0100
0010
0000
0001
0010
0000
,
0100
0000
0100
0000
0010
0000
0010
0000
1000
0000
0001
0000
1000
0001
0000
1000
,
0010
0000
1000
0000
0001
0100
0010
0000
1000
0000
0001
0000
1000
0001
0000
0100
,
0010
0000
0100
0000
0001
1000
0010
0000
1000
0000
0001
0000
1000
0001
0000
1000
,
0010
0000
1000
0000
0001
0100
0010
0000
1000
0000
0010
0100
0000
0001
0010
0000
,
0110
0000
1001
0000
0110
0000
1001
0000
0100
0000
0100
0000
1000
0100
0000
0010
,
0001
0000
0010
0000
0100
1000
0100
0000
0010
0000
0010
0000
0001
0010
0000
0100
,
1000
0000
0100
0000
0010
0001
0010
0000
0100
0000
0100
0000
1000
0100
0000
0010
,
0001
0000
0010
0000
0100
1000
0100
0000
0010
0000
0001
0100
0000
0010
1000
0000
,
0010
0000
0010
0000
0100
0000
0010
0000
1000
0000
1000
0000
0001
1000
0000
0001
,
0100
0000
0001
0000
0010
0001
0010
0000
0001
0000
0001
0000
1000
0001
0000
1000
,
0010
0000
1000
0000
0100
1000
0100
0000
1000
0000
0100
0000
0010
0000
0001
0000
,
1000
0000
0010
0000
0100
0000
0001
0000
1000
0000
0010
0100
0000
0001
0010
0000
,
0001
0000
1000
0000
0220
0000
0330
0000
1000
0000
0000
0010
0000
0000
1000
0000
,
0000
0000
0001
0000
0010
0000
1000
0000
0010
0000
0001
0000
0010
0200
0000
0000
,
0300
0000
0010
0000
0000
0000
0000
0000
0001
0000
0000
0010
0000
0000
0001
0000
,
0000
0000
1000
0000
0010
0000
0001
0000
0010
0000
1000
0000
0010
0100
0000
0010
,
0000
0100
0010
0000
1000
0000
0001
0000
0100
0000
0000
0000
1100
0000
0000
0100
,
0000
0001
0100
0010
0000
0000
1000
0000
1000
0100
0010
0001
0000
0000
0100
0000
,
0010
0000
0000
0000
1001
0000
0000
0000
0010
0000
0000
0000
1010
0000
0000
0100
,
0000
0001
0100
0001
0000
0000
1000
0000
0001
0000
0000
0100
0000
0000
1000
0000
,
0001
0000
0000
0010
0000
0000
1000
0000
0001
0000
0000
0100
0000
0000
0001
0000
,
0000
0000
1000
0000
0100
0000
0001
0000
0100
0000
1000
0000
0100
0020
0000
0000
,
0030
0000
0100
0000
0000
0000
0000
0000
1000
0000
0000
0100
0000
0000
1000
0000
,
0000
0000
0001
0000
0100
0000
1000
0000
0100
0000
0001
0000
0100
0010
0000
0100
,
0000
0010
0100
0000
0001
0000
1000
0000
0010
0000
0000
0000
0011
0000
0000
0010
,
0000
1000
0010
0100
0000
0000
0001
0000
0001
0010
0100
1000
0000
0000
0010
0000
,
0100
0000
0000
0000
1001
0000
0000
0000
0100
0000
0000
0000
0101
0000
0000
0010
,
0000
1000
0010
1000
0000
0000
0001
0000
0011
0000
0000
1001
0000
0000
1010
0000
,
0110
0000
0000
0011
0000
0000
1100
0000
0101
0000
0000
0000
0000
0000
0000
0000
;
