#TITLE:Dynamite;
#SUBTITLE:;
#ARTIST:USAO;
#TITLETRANSLIT:;
#SUBTITLETRANSLIT:;
#ARTISTTRANSLIT:;
#GENRE:;
#CREDIT:M.P.B.L.;
#MUSIC:Dynamite.ogg;
#BANNER:Dynamite.png;
#BACKGROUND:Dynamite-bg.png;
#CDTITLE:cdtitle.png;
#SAMPLESTART:21.363;
#SAMPLELENGTH:14.400;
#SELECTABLE:YES;
#OFFSET:-2.163;
#BPMS:0.000=200.000
,30.000=100.000
,31.000=200.000
,61.000=100.000
,70.000=200.000
,164.000=100.000
,181.000=200.000
,211.000=100.000
,212.000=200.000
,300.000=100.000
,304.000=200.000
;
#STOPS:;
#BGCHANGES:;
#FGCHANGES:;

//--------------- dance-single - ----------------
#NOTES:
     dance-single:
     :
     Beginner:
     3:
     0,0,0,0,0:
0000
0000
0000
0000
,
0000
0000
0000
0000
,
0000
0000
0000
0000
,
0000
0000
0000
0000
,
0000
0000
0000
0000
,
0000
0000
0000
0000
,
0000
0000
0000
0000
,
0000
0000
0000
0100
,
0000
0000
0000
0000
,
0000
0000
0000
0010
,
0000
0000
0000
0000
,
0000
0000
0000
1000
,
0000
0000
0000
0000
,
0000
0000
0000
0001
,
0000
0000
0000
0000
,
0000
0000
1000
0000
,
1000
0000
0001
0000
,
0001
0000
0001
0000
,
0000
0000
0001
0000
,
0000
0000
1000
0000
,
0000
0000
1000
0000
,
0000
0000
0010
0000
,
0000
0000
0010
0000
,
0000
0000
0100
0000
,
0000
0000
0100
0000
,
0000
0000
0001
0000
,
0000
0000
0010
0000
,
0000
0000
0100
0000
,
0000
0000
1000
0000
,
0000
0000
0100
0000
,
0000
0000
0010
0000
,
0000
0000
0001
0000
,
0000
0000
1000
0000
,
0000
0000
0001
0000
,
0000
0000
1000
0000
,
0000
0000
0010
0000
,
0000
0000
0100
0000
,
0000
0000
0001
0000
,
0000
0000
1000
0000
,
0000
0000
0010
0000
,
0000
0000
0100
0000
,
0000
0000
0000
0000
,
0000
0000
0000
0000
,
0000
0000
0000
0000
,
0000
0000
0000
0000
,
0000
1000
0000
1000
,
0000
1000
0000
0000
,
0000
0001
0000
0001
,
0000
0001
0000
0000
,
0000
1000
0000
1000
,
0000
0010
0000
0010
,
0000
0100
0000
0100
,
0000
0001
0000
0000
,
1001
0000
0000
0000
,
0010
0000
0000
0000
,
0100
0000
0000
0000
,
0010
0000
0000
0000
,
0110
0000
0000
0000
,
1000
0000
0000
0000
,
0001
0000
0000
0000
,
1000
0000
0000
0000
,
0001
0000
0000
0000
,
0010
0000
0000
0000
,
0100
0000
0000
0000
,
1000
0000
0000
0000
,
0001
0000
0000
0000
,
0100
0000
0000
0000
,
0010
0000
0000
0000
,
1000
0000
0000
0000
,
1000
0000
0010
0000
,
1000
0000
0000
0000
,
0001
0000
0100
0000
,
0001
0000
0000
0000
,
1000
0000
0100
0000
,
1000
0000
0000
0000
,
0010
0000
0010
0000
,
0010
0000
0100
0000
,
0010
0000
0000
0000
,
1000
0000
0001
0000
,
1000
0000
0000
0000
,
0001
0000
0010
0000
,
0100
0000
0000
0000
,
1000
0000
0100
0000
,
0010
0000
0000
0000
,
1000
0000
0000
0000
,
1000
0000
0000
0000
,
0001
0000
0000
0000
,
0001
0000
0000
0000
,
0100
0000
0010
0000
,
0100
0000
0000
0000
,
0010
0000
0100
0000
,
0020
0000
0000
0030
0000
0000
0000
0000
;

//--------------- dance-single - ----------------
#NOTES:
     dance-single:
     :
     Easy:
     7:
     0,0,0,0,0:
0000
0000
0000
0000
,
0000
0000
0000
0000
,
0000
0000
0000
0000
,
0000
0000
0000
0000
,
0000
0000
0000
0000
,
0000
0000
0000
0000
,
0000
0000
0000
0000
,
0000
0000
0000
0001
,
0100
0001
0100
0010
,
1000
0100
0010
0000
,
1000
0010
1000
0001
,
1000
0100
0010
1000
,
0001
1000
0001
0100
,
0001
0010
0100
0002
,
2003
3002
0003
0200
,
0320
0230
0300
0100
,
1000
0000
0010
0000
0001
1000
0001
1000
,
0010
0100
0000
0000
0101
0000
0000
0000
,
0020
0000
2030
0000
,
3002
0103
0010
0000
,
2000
0000
3200
0000
,
0320
0031
0100
0000
,
0200
0000
0302
0000
,
0023
0130
1000
0100
,
0010
0000
0100
0010
,
0001
0000
0101
0000
,
2000
0000
3020
0000
,
0230
0310
0001
0000
,
0002
0000
0023
0000
,
0230
1300
0001
0000
,
0020
0000
0230
0000
,
2300
3010
1000
0001
,
1000
0000
0010
0100
,
0010
0000
1001
0000
,
0100
0100
0001
0001
,
0100
0000
0110
0000
,
0001
0001
1000
1000
,
0010
0000
1001
0000
,
1000
1000
0100
0100
,
0010
0010
0001
1000
,
0010
0000
1000
0001
,
0200
0300
0000
0000
,
0000
0000
0000
0000
,
0000
0000
0000
0000
,
0000
0000
0000
0000
,
0000
0001
0100
0001
,
0100
0010
0100
0001
,
1000
0000
1000
0010
,
1000
0001
1000
0100
,
1000
0001
1000
0001
,
0000
1000
0010
1000
,
0000
0001
0010
0001
,
0100
0001
0010
0001
,
0110
0000
2000
3002
,
2003
3020
2030
3001
,
1001
0000
0020
0230
,
0320
2030
3020
0031
,
0011
0000
2000
3200
,
0320
0032
0023
0130
,
1000
1000
0010
0000
,
0001
0001
0100
0000
,
1010
0000
0200
0302
,
0203
0302
2003
3100
,
0110
0000
0020
2030
,
3020
2030
3200
1300
,
1001
0000
2000
3002
,
0203
0320
2030
3001
,
0100
0100
0010
0000
,
0001
0001
1000
0000
,
1000
0010
1000
0001
,
0100
0010
1000
0000
,
0001
0100
0010
1000
,
0010
1000
0001
0000
,
0100
0010
1000
0001
,
0100
0010
1000
0000
,
0001
0010
1000
0100
,
1000
0001
1000
0000
,
0001
0010
0100
1000
,
0000
0010
0100
0010
,
0001
0010
0100
1000
,
0001
0100
0001
0000
,
1000
0100
0010
0001
,
0000
0010
1000
0010
,
1000
0100
0002
0003
,
1000
1000
2000
0100
,
0000
0001
0000
3010
,
0010
0010
0020
0100
,
0000
1000
0000
0130
,
0100
0100
0200
0010
,
0000
0001
0000
0310
,
0100
0000
0010
0000
0100
0010
0100
0010
,
1000
0001
1000
0001
0000
0000
0000
0000
;

//--------------- dance-single - ----------------
#NOTES:
     dance-single:
     :
     Medium:
     10:
     0,0,0,0,0:
0000
0000
0000
0000
,
0000
0000
0000
0000
,
0000
0000
0000
0000
,
0000
0000
0000
0000
,
0000
0000
0000
0000
,
0000
0000
0000
0000
,
0000
0000
1000
0001
1000
0000
0010
0100
,
0010
0000
1000
0000
0100
0010
0002
0000
,
0203
0000
0301
0000
1000
0010
1000
0000
,
0001
0010
0100
0000
,
1000
0100
1000
0000
0010
0100
0010
0000
,
0001
0010
0100
2000
,
3020
0000
0130
0000
0001
0010
0001
0000
,
1000
0100
0010
0002
,
2003
0000
3020
0230
0320
0230
0300
0000
,
2000
3020
0000
0030
0100
0000
0010
0100
,
1000
0100
0010
0001
0000
0100
0010
0100
,
0001
1000
0000
0000
0101
0000
0000
0000
,
0020
0000
1030
0001
1000
0000
0001
0010
,
0001
0010
0110
0000
,
2000
0000
3100
0010
0100
0000
0001
0010
,
0002
0003
1010
0000
,
0200
0000
0301
0100
0000
0000
0010
1000
,
0020
0130
0001
0100
,
0010
0000
0100
0010
0000
0000
1000
0100
,
0000
0000
0011
0000
,
2000
0000
3010
0100
0010
0000
0100
0010
,
0200
0300
1001
0000
,
0002
0000
0013
1000
0010
0000
0100
0001
,
0200
0300
1100
0000
,
0020
0000
0130
0001
0100
0000
1000
0010
,
2000
3100
1000
1000
,
0010
0000
0100
0001
0000
0000
0100
0010
,
0000
0000
1010
0000
,
0100
0000
0100
0001
0100
0000
0001
0010
,
0001
0100
0101
0000
,
0001
0000
0001
1000
0001
0000
1000
0100
,
1000
0010
1010
0000
,
0100
0000
0100
0001
0100
0000
0001
1000
,
0001
1000
1000
0010
,
0100
0000
0001
0010
0000
0000
0100
1000
,
0000
0000
0000
0000
1000
0000
0000
1000
0000
0000
0000
0000
0001
0000
0000
0001
,
0000
0000
0000
0000
0100
0000
0000
0100
0000
0000
0000
0000
0010
0000
0000
0010
,
0000
0000
0000
0000
1000
0000
0000
0100
0000
0000
0000
0000
0001
0000
0000
0010
,
0000
0000
0000
0000
0100
0000
0000
1000
0000
0000
0000
0000
0010
0000
0000
0001
,
0000
0000
0001
0100
0001
0100
0001
0000
,
0100
0100
0010
0010
,
0100
0000
0000
0000
1000
0010
1000
0000
,
0001
0001
0100
0100
,
0001
0000
1000
0100
1000
0100
1000
0000
,
0000
0000
0010
0001
0010
0001
0010
0000
,
0000
0000
1000
0010
1000
0010
1000
0000
,
0000
0010
0010
0100
,
0110
0010
2000
3200
,
0320
2030
3002
0003
,
1001
0000
0002
0203
,
0320
2030
3200
0300
,
0101
1010
0200
0320
,
2030
3020
0032
0003
,
0100
0000
1000
0000
0010
0000
0100
0010
,
0000
0000
1000
0010
0000
0000
0000
0000
,
1010
1000
0200
0302
,
0203
0320
2030
3000
,
0110
0001
0020
2030
,
3002
0203
0320
0030
,
0101
0010
2000
3200
,
0320
0032
2003
3000
,
0100
0000
0010
0000
0001
0000
1000
0100
,
0000
0000
0001
0100
0000
0000
0000
0000
,
1000
0000
0010
0000
1000
0000
0001
0010
,
0100
0000
0010
0000
0001
0000
0010
0100
,
1000
0000
0100
0000
0010
0000
0001
0100
,
0010
0000
1000
0000
0001
0000
1000
0001
,
0100
0000
0010
0000
1000
0000
0001
1000
,
0010
0000
0100
0000
0001
0000
0100
0010
,
1000
0000
0010
0000
1000
0100
0001
0000
,
2000
3020
1030
0100
,
0100
0001
0010
0100
,
0000
0000
1000
0001
1000
0000
0001
0100
,
0001
0010
0100
1000
,
0002
0203
1300
0010
,
0010
1000
0001
0100
,
0000
0000
0010
0001
0010
0000
0100
1000
,
0100
0100
0000
0000
,
1000
0001
1000
0001
2000
0000
3200
0000
,
2300
3020
2030
3000
,
0101
0010
0020
2030
,
3020
0230
0320
0031
,
0010
0100
0010
0100
0020
0000
0230
0000
,
2300
3200
0320
0031
,
1100
0000
0010
0100
0010
0000
1000
0001
,
1000
0010
1000
0010
0000
0000
0000
0000
;

//--------------- dance-single - M.M.M.M.M.P.P.P.B.B.L. ----------------
#NOTES:
     dance-single:
     M.M.M.M.M.P.P.P.B.B.L.:
     Hard:
     13:
     0,0,0,0,0:
0000
0000
0000
0000
,
0000
0000
0000
0000
,
0000
0000
0000
0000
,
0000
0000
0000
0000
,
0100
0000
0001
1000
0001
0100
0000
0010
,
0000
0100
0000
0001
0010
0100
1000
0000
,
0010
0000
1000
0010
1000
0000
0001
0010
,
0001
0000
0100
0000
0200
0310
0001
0100
,
0001
0100
0001
0000
1000
0010
1000
0000
,
0100
0020
0031
0100
,
0010
1000
0010
0000
0100
0010
0100
0000
,
0001
0000
0020
0000
0130
0000
1000
0100
,
1000
0100
1000
0000
0001
1000
0001
0000
,
0100
0020
1030
0100
,
1000
0010
1000
0000
0001
0010
0001
0000
,
0100
0000
0000
0000
0020
0000
0030
0000
1100
0000
0000
0000
0002
0000
1003
0001
,
1000
0010
1000
0001
1000
0010
1000
0000
0110
0000
0000
0002
0000
0013
0001
0100
,
0001
0010
0001
0100
0000
0010
1000
0010
0200
0000
0000
0000
0301
0000
0000
0000
,
0020
0000
1030
0010
1000
0001
1000
0010
,
1000
0010
0200
0000
0310
0000
0001
0000
,
0200
0000
0301
1000
0200
0000
1300
0001
,
0010
0100
1000
0000
0020
0000
0130
0000
,
2000
0000
3001
0100
0001
0010
0001
0100
,
0001
0020
0230
0320
0230
0000
2300
0000
,
3002
0023
0230
2300
0000
0000
3020
0230
,
0000
0300
0010
1001
,
0200
0000
0301
1000
0010
1000
0001
0100
,
0001
1000
0010
0000
0100
0000
1001
0000
,
0020
0000
1030
0010
0200
0000
0301
0100
,
0010
0100
1000
0000
0001
0000
0110
0000
,
2000
0000
3100
0010
0100
1000
0100
0010
,
0100
2000
3200
0320
0032
0000
0203
0000
,
2300
3200
0302
0203
0000
0000
0320
2030
,
0000
0000
0000
0000
3200
0300
0000
0000
0110
0000
0000
0000
0000
0000
0000
0000
,
0020
0000
0130
0010
0100
0001
0100
0010
,
0100
0001
0200
0300
0101
0000
0000
0000
,
0020
0000
0031
0010
0200
0000
0310
0001
,
0100
0010
2000
3000
0110
0000
0000
0000
,
2000
0000
3100
0001
0100
1000
0100
0001
,
0100
2000
3200
0302
0203
0000
0320
0000
,
0032
0023
0230
2300
0000
0000
3020
0032
,
0000
0000
0003
0000
0100
0000
0000
0100
0000
0000
0000
0000
0010
0000
0000
0010
,
0000
0010
0000
0000
1000
0000
0000
1000
0000
0000
0000
0000
0001
0000
0000
0001
,
0000
0001
0000
0001
1000
0000
0000
0110
0000
0000
0000
0000
0001
0000
0000
1100
,
0000
1010
0000
0000
0100
0000
0000
0011
0000
0000
0000
0000
1010
0000
0000
0110
,
0000
0000
1000
0010
1000
0100
1000
0000
,
0001
0100
0010
0000
1000
0000
0200
0000
,
0310
0000
0001
0000
0001
0100
0010
0000
,
1000
0001
0010
0000
1000
0000
0200
0000
,
0301
0000
0100
0010
0001
0010
0100
0000
,
1000
0100
1000
0001
0100
0001
0010
0000
,
1000
0010
0100
0001
0100
0010
0100
0000
,
0001
1000
0010
0000
0100
0000
0100
0000
,
1100
0000
1001
0000
0200
0000
0301
0010
,
0100
0010
0001
0010
0100
0010
0001
0000
,
1001
0000
0101
0000
0020
0000
0130
0001
,
0020
0000
0130
1000
0010
0100
0001
0000
,
0120
0100
0130
0000
2000
0000
3010
0100
,
0010
1000
0010
0100
0010
2000
3200
0320
,
0032
0000
2003
0000
3002
0023
0230
2300
,
0000
0000
3020
0230
0000
0000
0301
0000
,
1100
0000
0110
0000
0002
0000
1003
0010
,
1000
0100
1000
0010
1000
0100
1000
0000
,
0011
0000
1010
0000
0002
0000
0103
0010
,
2000
0000
3010
0100
0001
0010
0100
0000
,
1000
0010
1000
0000
0200
0000
0310
0001
,
0100
0001
0010
0001
0100
0020
0032
0203
,
0320
0000
2030
0000
3200
2300
3200
0320
,
0000
0000
0032
0023
0000
0000
0030
0000
,
1000
0001
1000
0200
0000
1300
0010
1000
,
0001
0100
0001
0020
0000
0130
1000
0010
,
0100
0010
0100
0002
0000
1003
0010
1000
,
0100
0010
0001
0020
0000
0130
1000
0100
,
1000
0010
1000
0020
0000
0130
0001
0100
,
0001
0010
0100
0020
0000
0130
1000
0010
,
1000
0000
0000
0000
0000
0000
0000
0000
0000
1000
0000
0000
0010
0000
0000
0000
0000
0000
0100
0000
0000
0000
0000
0000
0001
0000
0000
0000
0010
0000
0000
0000
0000
0100
0000
0000
1000
0000
0000
0000
0000
0000
0010
0000
0000
0000
0000
0000
,
1000
0100
1000
0200
0010
0300
0100
0001
,
0200
1300
0020
0031
,
0010
0100
0001
0020
0001
0030
1000
0010
,
2000
3001
0200
0310
,
0001
0100
0001
0200
0001
0300
1000
0010
,
2000
3010
0200
0310
,
0100
0010
0001
0200
0001
0300
1000
0100
,
1000
0000
0010
0110
0000
1001
0000
0000
,
1000
0010
1000
0010
1000
0000
0100
0010
,
0100
0001
2000
3010
,
0100
0000
0001
0010
0001
0000
0001
0100
,
0001
1000
0020
0130
,
0010
0001
0010
0001
0010
0000
1000
0100
,
1000
0010
0200
1300
,
0100
0000
0010
0100
0010
0000
1000
0001
,
1000
0000
0100
0000
0001
0000
0100
0000
0000
0010
0000
0000
0000
0000
0000
0000
;

//--------------- dance-single - M.M.M.M.M.P.P.P.B.B.L. ----------------
#NOTES:
     dance-single:
     M.M.M.M.M.P.P.P.B.B.L.:
     Challenge:
     15:
     0,0,0,0,0:
1001
0000
0010
0100
0001
0000
1000
0010
,
0100
0001
1000
0100
0010
0100
0020
0030
,
1010
0000
0100
0100
0100
0000
0001
0010
,
0001
1000
0020
1030
,
0100
0000
0001
1000
0001
0100
0000
0010
,
0000
0100
0000
1000
0100
0010
0001
0000
,
0100
0000
0010
0010
0010
0000
1000
0100
,
1000
0000
0001
0000
0200
0310
1000
1000
,
1000
1000
1000
0000
0001
0100
0001
0000
,
0100
0020
0031
0100
,
0100
0100
0100
0000
0001
0010
0001
0000
,
1000
0000
0200
0000
0310
0000
0001
0001
,
0001
0001
0001
0000
1000
0100
1000
0000
,
0001
0200
1300
0000
,
0010
0010
0010
0000
0001
0100
1000
0000
,
0100
0000
0000
0000
0002
0000
0003
0000
1100
0000
0010
0100
0010
0001
1000
0100
,
0020
0000
0130
0000
1000
0001
0100
0000
1010
0000
0100
0001
0010
0001
1000
0100
,
0010
0001
0010
0001
0010
0001
0010
0000
0000
0000
0100
0000
0001
0000
0100
0000
2000
0000
0000
0000
0000
0000
0000
0000
3010
0000
0000
0000
0000
0000
0000
0000
,
0002
0000
1003
0010
1000
0010
0001
0010
,
1000
0100
2000
0000
3100
0000
0010
0000
,
0200
0000
1300
0010
0200
0000
0310
0100
,
1000
0100
0010
0001
0020
0000
1030
0000
,
0200
0000
0301
0100
0010
1000
0010
0100
,
0010
2000
3020
0230
0302
0000
0203
0000
,
2300
3200
0302
0023
0000
0000
0230
2300
,
0000
3000
0001
0110
,
0020
0000
1030
0010
0100
0001
0100
0010
,
1000
0100
0001
0000
1000
0000
0101
0000
,
0020
0000
1030
0001
0200
0000
0301
1000
,
0010
0100
0001
0010
0002
0000
0103
0000
,
0020
0000
1030
0100
1000
0010
0100
0001
,
0010
0002
0023
0230
2300
0000
3200
0000
,
0302
0203
2300
3020
0000
0000
0032
0203
,
0000
0000
0000
0000
0320
0030
0000
0000
1010
0000
0000
0000
0100
0000
0010
0000
,
0002
0000
1003
0100
0010
0100
0010
0100
,
1000
0001
0010
0000
1100
0000
0010
0000
,
0002
0000
1003
0010
0002
0000
1003
0010
,
0001
0010
1000
0000
0101
0000
0100
0010
,
2000
0000
3001
0010
0100
0010
0100
1000
,
0001
0020
0230
0302
0203
0000
0320
0000
,
2030
3200
0320
0032
0000
0203
0320
2030
,
0000
0000
0000
0000
3001
0010
0001
0100
0000
1000
0100
1000
0001
0010
0001
1000
,
0000
0100
0010
0001
1000
0010
0100
1000
0000
0001
0100
0001
1000
0010
1000
0010
,
0000
0100
0010
0100
0001
0010
0100
1000
0000
0100
1000
0010
0100
0001
0010
0100
,
0000
1000
0100
0001
0100
0001
0100
1000
0000
0001
0100
1000
0100
1000
0100
0002
,
0000
0003
1001
1000
1000
1000
1000
0000
,
0001
0100
0001
0000
1000
0000
0020
0000
,
0031
0000
0110
0000
0001
0001
0001
0000
,
0100
0010
1000
0000
0001
0000
0020
0000
,
0130
0000
1000
1000
1000
1000
1000
0000
,
0100
0010
0001
0001
0001
0001
0001
0000
,
0010
1000
0010
0010
0010
0010
0010
0000
,
0001
0000
0010
0000
0001
0000
0000
0000
1000
0000
0000
0000
0000
0100
0000
0000
,
0011
0000
1100
0000
0002
0000
1003
0010
,
1000
0100
1000
0010
1000
0100
0001
0000
,
0110
0000
1010
0000
0200
0000
0301
0100
,
0002
0000
1003
0010
1000
0100
0001
0000
,
0101
0100
1100
0000
0020
0000
1030
0001
,
0100
0001
0010
0001
1000
0020
0230
2300
,
3002
0010
0203
1000
0320
2030
3020
0230
,
0010
0000
0302
2003
0010
0000
3100
0000
,
0110
0000
0011
0000
2000
0000
3010
0100
,
0001
0100
0010
0001
0010
0100
1000
0000
,
0011
0000
1010
0000
0200
0000
0301
1000
,
0200
0000
0301
1000
0001
0010
0100
0000
,
1000
0000
0100
0000
1000
0000
0000
0000
0001
0000
0000
0000
0100
0000
0010
1000
,
0010
0000
0000
0000
0100
0000
0000
0000
0001
0000
1000
0100
0010
0000
0100
0000
,
1000
0000
0100
0000
0001
0000
0010
0001
0010
0000
0100
0000
1000
0010
1000
0000
,
0010
0100
0010
1000
0010
1000
0001
0010
0001
0000
0000
0000
0000
0000
0000
0000
,
1000
0100
0001
0200
0000
0310
0100
1000
,
0001
0100
0010
2000
0000
3100
0010
0001
,
0100
0010
0100
0002
0000
1003
0010
0100
,
0010
0100
1000
0002
0000
0103
1000
0001
,
1000
0010
0001
0020
0000
0130
0010
1000
,
0001
0010
0100
2000
0000
3010
0100
0001
,
1000
0100
0010
0002
0000
0103
0010
0100
0001
0010
0100
2000
0000
3010
0100
0010
,
0001
0001
0001
0001
0001
0000
1000
0010
,
1000
0100
0002
0013
,
1010
0000
0100
0100
0100
0000
0001
0010
,
0001
1000
0200
0301
,
0010
0010
0010
0010
0010
0000
1000
0010
,
0100
0001
0200
0310
,
1001
0000
0100
0100
0100
0000
0010
1000
,
0010
0000
0002
0100
0000
0100
0003
0000
,
1000
1000
1000
1000
2000
0000
3010
0100
,
0010
1000
0010
0100
0020
0000
0031
0000
,
1010
0000
0100
0100
0200
0000
0301
0100
,
0020
1030
0020
0130
0002
0000
1003
0000
,
0010
0010
0010
0010
0020
0000
1030
0001
,
1000
0010
1000
0001
0200
0000
0310
0000
,
1100
0000
1000
1000
2000
3000
0100
0010
,
0100
0000
0001
0000
0001
0000
0001
0000
0000
0200
0000
0300
0000
0000
0000
0000
;
