#TITLE:ぶれないアイで;
#SUBTITLE:Winter version;
#ARTIST:Mitchie M feat. 初音ミク;
#TITLETRANSLIT:Burenai ai de;
#SUBTITLETRANSLIT:;
#ARTISTTRANSLIT:Mitchie M feat. Hatsune Miku;
#GENRE:;
#CREDIT:M.P.B.L.;
#MUSIC:Burenai ai de Winter ver.ogg;
#BANNER:Burenai ai de Winter ver.png;
#BACKGROUND:Burenai ai de Winter ver-bg.png;
#CDTITLE:cdtitle.png;
#SAMPLESTART:52.533;
#SAMPLELENGTH:20.870;
#SELECTABLE:YES;
#OFFSET:0.728;
#BPMS:0.000=138.000
,188.000=69.000
,188.250=34.500
,188.375=17.250
,188.625=34.500
,188.875=69.000
,189.375=138.000
,190.375=276.000
,192.375=552.000
;
#STOPS:;
#DISPLAYBPM:138.000;
#BGCHANGES:0.728=Burenai ai de Winter ver.avi=1.000=1=0=0=StretchNoLoop==CrossFade==;
#FGCHANGES:;

//--------------- dance-single - M.P.B.L.-A.I. 2.0 ----------------
#NOTES:
     dance-single:
     M.P.B.L.-A.I. 2.0:
     Challenge:
     13:
     0,0,0,0,0:
0000
0000
0000
0000
,
0000
0000
0000
0000
,
0000
0000
0000
0000
,
0000
0000
0000
0000
,
0000
0000
0000
0000
,
0000
0000
0000
0000
,
0001
0100
0010
0000
MMMM
1000
0001
0010
,
0000
MMMM
0000
1000
0100
0010
0100
1000
,
0001
0010
0100
0000
MMMM
1000
0010
0200
,
0000
0310
0002
0000
0003
0000
0000
0000
,
0001
0100
1000
0000
MMMM
1000
0100
0001
,
0000
MMMM
0000
0001
0010
0100
0001
0010
,
0001
1000
0100
0000
MMMM
0001
0100
0020
,
0000
0000
0130
0000
2000
0000
0000
0000
3000
0000
0000
0000
0010
0100
0010
0100
,
0010
0000
0000
0000
0101
0000
0000
0000
0001
0000
0100
0000
0000
0010
0000
0000
,
1000
1100
0010
0110
,
0001
0000
0000
0000
0011
0000
0000
0000
1000
0000
0010
0000
0000
0100
0000
0000
,
1001
0000
0000
0000
0001
0000
0010
0000
0100
0000
1000
0000
0001
0100
0001
0000
,
0100
0010
0100
0000
0010
1000
0000
0100
1000
0100
1000
0000
0001
0100
0000
0001
,
0010
0001
0010
0000
0001
1000
0000
0001
1000
0001
1000
0000
0010
1000
0000
0000
,
0001
0100
0001
0000
MMMM
0100
0010
2010
,
0000
0000
0000
0000
0000
0000
0000
3000
0000
0000
0000
0000
0101
0000
0000
0000
,
1000
0000
0001
0000
0100
0000
2000
0000
0000
0000
0000
3000
0000
0000
0001
0000
,
0100
0000
0010
0000
1000
0000
0200
0000
0000
0000
0000
0300
0000
0000
0000
0000
,
1000
0100
1000
0010
0000
0100
0001
1000
,
0000
0100
0000
0010
0012
0013
2100
3100
,
1000
0100
0010
0200
0000
0300
0000
0001
,
0010
0100
1000
0020
0000
0030
0000
0000
,
2000
0010
3200
0001
,
0320
0000
1000
0000
0032
0000
0100
0003
,
0110
0000
0000
0000
0000
0000
0001
0010
0100
1000
0100
0010
0001
0000
0000
2000
0000
0000
3002
0000
0000
0103
0000
0000
,
1010
MMMM
1001
MMMM
0000
0010
0100
1000
,
0000
0001
0010
0100
0000
2000
3020
0130
,
0101
MMMM
1001
MMMM
0000
1000
0010
0100
,
0000
0001
0100
0010
0000
2000
3200
0310
,
0011
MMMM
1100
MMMM
0000
0001
0100
1000
,
0000
1000
0010
0001
0000
0002
0203
1300
,
1010
0000
MMMM
0000
0101
0000
MMMM
0000
2002
0000
0000
0000
3003
0000
1000
0010
,
0200
0000
0000
0302
0000
0000
0103
0000
1000
0100
1000
0100
0010
0001
0010
0001
,
2000
0000
0001
0000
3001
0100
0010
1000
,
0011
0000
0000
0110
0000
0000
1100
0000
0000
0000
0100
0000
1000
0000
0001
0000
,
0020
0000
1000
0000
1030
0010
1000
0001
,
0101
0000
0000
0110
0000
0000
1010
0000
0000
0000
0002
0000
0203
0000
2300
0000
,
3200
0300
0002
0003
0000
0010
1000
0010
,
0000
0100
0001
0100
0000
2000
3200
0302
,
0203
0300
0020
0030
0110
1100
0022
0033
,
0000
0000
1000
0000
0001
0000
1000
0000
0010
0000
0000
0000
0001
0000
0010
0100
,
0000
0000
0000
0000
,
0000
0000
0000
0000
,
0000
0000
0000
2002
0000
0000
0000
0000
0000
0000
0000
0000
0000
0000
0000
0000
0000
0000
0000
3003
0000
0000
0000
0000
0000
0000
0000
0000
0000
0000
0000
0000
;
