#TITLE:Beat Juggling Mix;
#SUBTITLE:;
#ARTIST:Hommarju;
#TITLETRANSLIT:;
#SUBTITLETRANSLIT:;
#ARTISTTRANSLIT:;
#GENRE:;
#CREDIT:M.P.B.L.;
#MUSIC:Beat Juggling Mix.ogg;
#BANNER:Beat Juggling Mix-banner.png;
#BACKGROUND:Beat Juggling Mix-bg.png;
#CDTITLE:mpbl.png;
#SAMPLESTART:68.324;
#SAMPLELENGTH:14.043;
#SELECTABLE:YES;
#OFFSET:0.736;
#BPMS:0.000=105.000
,2.000=100.000
,4.000=105.000
,51.000=66.000
,52.000=94.000
,87.000=198.000
,88.000=192.000
,89.000=186.000
,90.000=170.000
,91.000=188.000
,273.000=176.000
,274.000=170.000
,275.000=164.000
,276.000=156.000
,277.000=142.000
,278.000=130.000
,279.000=120.000
;
#STOPS:;
#BGCHANGES:;
#FGCHANGES:;

//--------------- dance-single - ----------------
#NOTES:
     dance-single:
     :
     Beginner:
     4:
     0,0,0,0,0:
0000
0000
0000
0000
,
0000
0000
0000
0000
,
0000
0000
0000
0000
,
0000
0000
0000
0000
,
1000
0000
1000
0000
,
0001
0001
0001
0000
,
0100
0000
0010
0000
,
1000
0100
1000
0000
,
0001
0000
0001
0000
,
1000
1000
1000
1000
,
0001
0000
0100
0000
,
0010
0000
1000
0000
,
0010
0000
0000
0000
,
0000
0000
0000
0000
,
0000
0000
0000
1000
,
0100
1000
0000
0001
,
0100
0001
0000
1000
,
0001
1000
0000
0001
,
0010
0100
1000
0001
,
0001
1000
0000
0100
,
0100
0010
0000
1000
,
0000
0001
0000
0000
1000
0000
0000
0000
,
0000
0000
0000
0000
,
0000
0000
0000
0100
,
0000
0000
0000
0010
,
0000
0000
0000
0100
,
0000
0000
0000
0010
,
0000
0000
0000
1000
,
0000
0000
0000
0001
,
0000
0000
0000
1000
,
0000
0000
0000
0001
,
0000
0000
0000
1000
,
0000
1000
0000
0001
,
0000
0001
0000
0100
,
0010
0100
0010
0000
,
0000
0000
0000
1000
,
0000
1000
0000
0001
,
0000
0000
0000
0100
,
0000
0001
0000
0100
,
0000
0000
0000
0001
,
0000
0001
0000
1000
,
0000
0000
0000
0010
,
0000
0100
0000
0010
,
0000
0000
0000
1000
,
1000
0001
0001
1000
,
0000
0000
0000
0100
,
0000
0010
0000
0100
,
0000
0000
0000
1000
,
0000
0010
0000
0100
,
0000
0001
0000
1000
,
0001
1000
0001
2000
,
0000
3000
0000
0010
,
0000
0010
0000
1000
,
0100
1000
0000
0001
,
0000
0001
0000
0100
,
0010
0100
0000
0001
,
0000
0001
0000
1000
,
0100
1000
0000
0010
,
0000
0010
0000
1000
,
0000
0100
0000
0010
,
0010
0010
0010
0010
,
0000
1000
0000
0010
,
0000
0100
0000
0001
,
0010
0001
0000
1000
,
0000
1000
0000
0001
,
0000
0001
0000
0100
,
0010
0100
0010
0100
,
0000
0000
0010
0200
,
0000
0000
0000
0000
,
0000
0000
0000
0300
;

//--------------- dance-single - C.S.N.G. ----------------
#NOTES:
     dance-single:
     C.S.N.G.:
     Easy:
     7:
     0,0,0,0,0:
0000
0000
0000
0000
,
0000
0000
0000
0000
,
0100
0000
0100
0000
,
0100
0000
0010
0000
0100
0100
0000
0000
,
0001
0010
0100
1000
,
0010
0100
0100
0000
0001
0010
0010
0000
,
0001
1000
0100
0010
,
0001
0000
0100
0100
0010
0000
1000
0000
,
0010
1000
0001
0100
,
0000
0001
1000
0001
0001
1000
1000
0000
,
0010
0000
0100
0000
,
0010
1001
0100
1001
,
0020
0000
0000
0000
,
0030
0000
0000
0000
,
0000
0000
0000
0000
0000
0000
1000
0100
,
1000
0000
0010
0100
0010
0000
0100
0001
,
0100
0000
0010
1000
0010
1000
0010
0100
,
0010
0000
0001
0010
0001
0000
1000
0000
,
0001
0000
1000
1000
0001
0001
1000
0000
,
0100
0000
0001
0100
0001
0000
1000
0000
,
0100
0000
0000
0000
0010
0000
0001
0000
0010
0000
0000
0000
0200
0000
0000
0300
,
0000
0000
0020
0000
0000
0030
0000
0000
0110
0000
0000
0000
0200
0000
0000
0000
,
0000
0000
0000
0000
,
0000
0000
0000
0310
,
0000
0100
0000
0000
0000
0001
0000
1000
,
0000
0001
0000
0100
,
0000
0010
0000
0000
0000
1000
0000
0001
,
0000
1000
0000
0001
,
0000
0010
0000
0000
0000
0100
0000
1000
,
0000
0100
0000
1000
,
0000
0100
0000
0000
0000
0010
0000
0001
,
0000
0010
0000
0100
,
0100
0100
0000
0010
,
0010
0010
0000
1000
,
0100
0010
0001
2002
,
0000
3003
0000
1000
,
0100
0010
0000
0001
,
0010
0100
0000
0001
,
1000
0001
0000
1000
,
0001
1000
0000
0001
,
0100
0010
0000
1000
,
0010
0100
0000
0001
,
0001
1000
0000
1000
,
1000
0001
0000
0100
,
0010
0100
0010
0100
,
0000
0001
0000
1000
,
0100
0010
0000
1000
,
0100
0010
0000
0001
,
0001
0001
0000
1000
,
1000
1000
0000
0010
,
0010
0100
0100
0020
,
0000
0030
0000
1000
,
1000
0100
0000
0001
,
0001
0010
0000
0001
,
0100
0001
0000
1000
,
0100
1000
0000
0001
,
0001
1000
0000
0010
,
0010
1000
0000
0010
,
0100
0000
1000
0000
0000
0000
0001
1000
,
0001
1000
0001
0000
0000
0000
1001
0000
,
1001
1001
1001
1001
,
0000
0100
0000
0001
,
0010
0100
0000
1000
,
0100
0001
0000
1000
,
1000
0100
0100
0010
,
0010
0000
0001
0000
0001
0000
0100
0010
,
0100
0010
0100
0010
0100
0010
0100
0000
,
0000
0000
0001
0010
,
0000
0010
0000
0100
,
0000
0100
0000
1000
;

//--------------- dance-single - C.S.N.G. ----------------
#NOTES:
     dance-single:
     C.S.N.G.:
     Medium:
     11:
     0,0,0,0,0:
0000
0000
0000
0000
,
0000
0000
0000
0000
,
0110
0000
0110
0000
,
0110
0000
0000
0000
0110
0000
0000
0000
0100
0010
0100
0000
0000
0000
0000
0000
,
0001
0010
0001
0000
1000
0100
1000
0000
,
0001
0100
0010
0100
0001
1000
0100
0000
,
1000
0010
1000
0000
0001
0100
0001
0000
,
1000
0100
0010
0100
1000
0010
0100
0000
,
0001
1000
0001
0000
1000
0001
1000
0000
,
0010
0100
0001
0010
0100
0010
0001
0000
,
1010
0000
0101
0000
,
1100
0011
1001
0110
,
0010
0000
0000
0000
0010
0000
0000
0200
0000
0000
0000
0000
0000
0000
0000
0000
,
0300
0000
0000
0010
,
0010
0000
0010
0000
0010
0000
1001
0100
,
0010
0000
0000
1000
0000
0001
1000
0000
0001
1000
0000
0001
1000
0000
0001
1000
0000
0000
0110
0000
0000
0001
0000
0000
,
0010
0000
0000
0100
0000
1000
0001
0000
1000
0001
0000
1000
0001
0000
0000
0001
0000
0000
1001
0000
0000
1000
0000
0000
,
0010
0000
0000
0100
0000
0001
0010
0000
0001
0010
0000
0001
0010
0000
0001
1000
0000
0000
0110
0000
0000
0000
0000
0000
,
1001
0000
0000
0000
0000
0000
0011
0000
0000
1100
0000
0000
0011
0000
0000
1000
0000
0000
0001
0000
0000
1000
0000
0010
,
1000
0000
0000
0001
0000
0100
0001
0000
0000
1000
0000
0010
1000
0000
0000
0001
0000
0000
0100
0000
0000
0001
0000
0010
,
0001
0000
0000
0000
0000
0000
1000
0000
0000
0000
0100
0000
1000
0000
0000
0000
0000
0000
0001
0000
0000
0000
0010
0000
0001
0000
0000
0000
0000
0000
1000
0000
0000
0000
0000
0000
0010
0000
0000
0000
0000
0000
0000
0000
0000
0100
0000
0000
,
0000
0000
0010
0000
0000
0100
0000
0000
0010
0000
0100
0000
0020
0000
0000
0000
,
0000
0000
0000
0200
,
0000
0000
0000
0330
,
1000
0001
0000
1000
0000
0001
0000
1000
,
0100
0010
0001
0000
0000
0000
0000
0000
,
1000
0100
0000
1000
0000
0100
0000
1000
,
0100
0010
0001
0000
0000
0000
0000
0000
,
0010
1000
0000
0010
0000
1000
0000
0001
,
0010
0100
1000
0000
0000
0000
0000
0000
,
0001
1000
0000
0001
0000
1000
0000
0001
,
0010
0100
1000
0000
0000
0000
0010
0000
,
0010
0000
0100
0000
0100
0000
0001
1000
,
0001
1000
0001
1000
0001
1000
0220
0000
,
0000
0000
0000
0330
,
0000
0100
0100
1000
,
0100
0020
0030
0020
,
0030
0000
0100
0000
0001
0000
0100
0010
,
0100
0000
0001
0010
0100
0000
1000
0010
,
0100
0010
0010
0001
,
0010
0200
0300
0200
,
0300
0000
1000
0000
0100
0000
0010
0001
,
0100
0000
0010
1000
0010
0000
0100
0010
,
0100
0000
0001
0010
0100
0000
1001
0000
,
1001
1001
1001
0020
,
0030
0000
0100
0000
0010
0000
1000
0100
,
0010
0000
0001
0010
0100
0000
1000
0010
,
0100
0000
0001
1000
0100
0000
0010
0000
,
0010
0100
0100
0001
,
0001
0000
1000
0000
1000
0000
0001
0010
,
0100
1000
0100
0010
0001
0100
0020
0000
,
0000
0130
0100
0001
,
0010
0000
0100
1000
0001
0000
0100
0000
,
0010
0000
1000
0100
1000
0000
0010
0000
,
1000
0000
0010
0000
0001
0010
0100
0000
,
0010
0100
1000
0000
0010
0000
1000
0000
,
0100
0000
0010
0001
1000
0000
0010
0000
,
0100
0000
0001
0010
0001
0000
0100
0000
,
0001
0000
0100
0000
1000
0000
1000
0001
,
1000
0001
1000
0001
1000
0000
0110
0000
,
1001
0110
1001
0110
,
0010
0000
1000
0010
1000
0000
0001
0100
,
0001
0000
1000
0100
0010
0000
0100
0010
,
0100
0000
0001
0010
0100
0000
1000
0000
,
1000
0000
0001
0000
0001
0000
0100
0010
,
0100
0010
0100
0010
0100
0010
2002
0000
,
0000
0000
0000
3003
,
0000
0000
0010
0100
,
0002
0103
2000
3100
,
0020
0000
0130
0000
0001
1000
0001
0000
;

//--------------- dance-single - C.S.N.G. ----------------
#NOTES:
     dance-single:
     C.S.N.G.:
     Hard:
     14:
     0,0,0,0,0:
0000
0000
0000
0000
,
0000
0000
0000
0000
,
1001
0000
0110
0000
,
1100
0000
0000
0000
0011
0000
0000
0000
1000
0001
1001
0000
0000
0000
0000
0000
,
1000
0100
0001
0100
1000
0100
0001
0100
,
1000
0000
0001
0100
0001
0000
1000
0010
1000
0100
0010
0100
1000
0000
1000
0000
,
1000
0010
0001
0010
1000
0010
0001
0010
,
1000
0100
1000
0000
0001
0010
0100
0001
0000
0100
1000
0100
0010
0000
0001
1000
,
0001
0010
0100
0010
0001
0010
0100
0010
,
0001
0010
0001
0000
1000
0100
1000
0000
0010
0100
0010
0100
0001
0000
1000
0000
,
0110
0000
0000
0000
0000
0000
0100
0010
1001
0000
0000
0000
0000
0000
0010
0001
,
1100
0000
0001
0100
1010
0000
0100
1000
0011
0000
1000
0010
0101
0000
1000
0000
,
0010
0000
0000
0000
0010
0000
0000
0200
0000
0000
0000
0000
0000
0000
0000
0000
,
0300
0000
0000
0100
,
0100
0000
0000
0000
0000
0000
0100
0000
0000
0000
0000
0010
0100
0000
0001
1000
0000
0000
1001
0000
0000
1000
0100
1000
,
0100
0000
0000
1000
0000
0001
0100
0000
0010
1000
0000
0001
0010
0000
0100
1000
0000
0000
1001
0000
0000
0001
0100
0001
,
0100
0000
0000
0001
0000
1000
0100
0000
0010
0001
0000
0100
0010
0000
0100
0010
0000
0000
1001
0000
0000
1000
0010
1000
,
0010
0000
0000
1000
0000
0001
0010
0000
0100
1000
0000
0001
0100
0000
0010
1000
0000
0000
0110
0000
0000
1000
0001
1000
,
0001
0000
0000
0100
0000
0000
0011
0000
0000
0101
0000
0000
1100
0000
0000
1010
0000
0000
0100
0000
0000
0001
0010
0100
,
1000
0000
0000
0001
0000
0001
0100
0000
0100
0010
0000
0010
1000
0000
1000
0100
0000
1000
0100
0000
0000
1000
0010
0100
,
0001
0000
0000
0000
0000
0000
0001
0000
0000
0000
1000
0000
0100
0000
0000
0000
0100
0000
0010
0000
0000
0000
0010
0000
0001
0000
0000
0000
1000
0000
0001
0000
0000
0000
1000
0000
0001
0000
0000
0000
0000
0000
1000
0000
0000
0100
0000
0000
,
0000
0010
0001
0000
1000
0010
0000
0001
0100
0000
0010
0100
0020
0000
0000
0000
,
0000
0000
0000
0200
,
0000
0000
0000
0330
,
1000
0001
0000
0001
0000
0100
0000
0010
,
0100
0001
0010
0100
0000
0000
0000
0000
,
1000
0010
0000
0010
0000
0100
0000
0010
,
0100
0001
0010
0100
0000
0000
0000
0000
,
0010
0001
0000
0001
0000
1000
0000
0010
,
1000
0100
0010
0001
0000
0000
0000
0000
,
0010
1000
0000
1000
0000
0010
0000
0100
,
0001
1000
0100
0010
0000
0000
1001
0000
,
0110
0000
1001
0000
0110
0000
1000
0100
,
0010
0000
0001
0000
1000
0000
0100
0000
0010
0000
0001
0000
1000
0001
1000
0001
,
1000
0001
1000
0001
1000
0001
1000
0001
1000
0001
1000
0001
2000
0000
0000
0000
,
0000
3000
0110
0000
0110
0000
0001
0100
,
0001
0000
0200
0010
0300
0000
0020
0100
,
0030
1000
0001
1000
0001
0000
1000
0010
,
0100
0000
0001
1000
0001
0000
1000
0010
,
0100
1000
0100
0001
0100
0000
0010
1000
,
0010
0000
0200
0010
0300
0000
0020
0100
,
0030
0001
1000
0001
1000
0000
0001
0010
,
0100
0000
1000
0010
1000
0000
0001
0100
,
1000
0100
0001
0010
0100
0000
0110
0000
,
1100
0000
0101
0000
1001
0000
0200
0010
,
0300
0001
1000
0001
1000
0000
0010
0100
,
1000
0000
0100
0001
0100
0000
0010
1000
,
0100
0001
0100
1000
0010
0000
1000
0000
,
1000
0001
0001
0100
,
0100
0000
0010
0000
0010
0000
1000
0100
,
0010
0100
0001
0100
1000
0010
0200
0000
,
0000
0000
0310
0000
0100
0000
0001
0010
,
0001
0000
1000
0100
0010
0000
0001
0100
,
0001
0000
0100
1000
0100
0000
0010
0100
,
0001
0000
1000
0001
0010
0000
0100
1000
,
0010
1000
0100
0010
0001
0000
1000
0100
,
1000
0000
0001
0010
0100
0000
1000
0010
,
1000
0000
0010
0001
0010
0000
0100
0010
,
1000
0000
0100
0000
1000
0000
0010
0000
0100
0000
0000
0000
0001
0010
0001
0010
,
0001
0000
1000
0010
1000
0010
1000
0000
0001
1000
0001
0000
1001
0000
0000
0000
,
0110
0000
1001
0000
0110
0000
1001
1000
,
0100
0000
0010
1000
0010
0000
0100
0001
,
0100
0000
0001
0010
0100
0000
1000
0100
,
0001
0000
1000
0100
0001
0000
1100
0000
,
0011
0000
1100
0000
0011
0000
1000
0010
,
0100
0000
0001
0000
1000
0000
0010
0000
0100
0000
0001
0000
0010
0100
0010
0100
,
0010
0100
0010
0100
0010
0100
0010
0100
0010
0100
0010
0100
0020
0000
0000
0000
,
0000
0030
0010
0100
,
0001
0010
0001
0010
0100
0000
0000
0000
1000
0010
1000
0010
0100
0000
0000
0000
,
0001
1000
0001
1000
0100
0000
0000
0000
1000
0100
1000
0100
0010
0000
0000
0000
;
