#TITLE:3rd Avenue;
#SUBTITLE:;
#ARTIST:Sound Souler;
#TITLETRANSLIT:;
#SUBTITLETRANSLIT:;
#ARTISTTRANSLIT:;
#GENRE:;
#CREDIT:M.P.B.L.;
#MUSIC:3rd Avenue.ogg;
#BANNER:3rd Avenue.png;
#BACKGROUND:3rd Avenue-bg.png;
#CDTITLE:cdtitle.png;
#SAMPLESTART:36.930;
#SAMPLELENGTH:18.462;
#SELECTABLE:YES;
#OFFSET:-0.007;
#BPMS:0.000=130.000
,15.000=520.000
,18.000=130.000
,83.000=65.000
,86.500=520.000
,90.500=65.000
,94.000=520.000
,98.000=65.000
,101.500=520.000
,105.500=65.000
,107.000=130.000
,111.000=520.000
,115.000=65.000
,118.500=520.000
,122.500=65.000
,126.000=520.000
,130.000=65.000
,133.500=520.000
,137.500=65.000
,139.000=130.000
,239.000=520.000
,243.000=65.000
,246.500=520.000
,250.500=65.000
,254.000=520.000
,258.000=65.000
,261.500=520.000
,265.500=65.000
,267.000=130.000
,271.000=520.000
,275.000=65.000
,278.500=520.000
,282.500=65.000
,286.000=520.000
,290.000=65.000
,293.500=520.000
,297.500=65.000
,299.000=130.000
;
#STOPS:15.000=-0.346
,86.500=-0.462
,90.500=0.462
,94.000=-0.462
,98.000=0.462
,101.500=-0.462
,105.500=0.462
,111.000=-0.462
,115.000=0.462
,118.500=-0.462
,122.500=0.462
,126.000=-0.462
,130.000=0.462
,133.500=-0.462
,137.500=0.462
,239.000=-0.462
,243.000=0.462
,246.500=-0.462
,250.500=0.462
,254.000=-0.462
,258.000=0.462
,261.500=-0.462
,265.500=0.462
,271.000=-0.462
,275.000=0.462
,278.500=-0.462
,282.500=0.462
,286.000=-0.462
,290.000=0.462
,293.500=-0.462
,297.500=0.462
;
#DISPLAYBPM:65.000:130.000;
#BGCHANGES:;
#FGCHANGES:;

//--------------- dance-single - M.P.B.L. one-dimensional ----------------
#NOTES:
     dance-single:
     M.P.B.L. one-dimensional:
     Beginner:
     3:
     0,0,0,0,0:
0000
0000
0000
0000
,
0000
0000
0000
0000
,
0000
0000
0000
0000
,
0000
0000
0000
0000
,
0000
0000
0000
0000
,
0000
0100
0000
0010
,
0000
0000
0000
1000
,
0000
0001
0000
1000
,
0000
0000
0000
0001
,
0000
0010
0000
0001
,
0000
0000
0000
1000
,
0000
0010
0000
1000
,
0000
0000
0000
0001
,
0000
0001
0000
1000
,
0000
1000
0000
0001
,
0000
0001
0000
1000
,
0000
1000
0000
0001
,
0000
0010
0000
0100
,
0000
1000
0000
0010
,
0000
0100
0000
1001
,
0000
0000
0000
0000
,
0001
1000
0001
0000
,
0000
0000
0000
0000
0000
0000
0000
1000
,
0000
0010
0000
1000
0000
0000
0000
0000
,
0000
0000
0000
0001
,
0100
0001
0000
0000
,
0000
0000
0000
0000
,
1000
0000
0001
0000
,
0000
0000
0000
0000
,
0100
0001
0010
0000
,
0000
0000
0000
0000
0000
0000
0000
0100
,
0000
1000
0000
0010
0000
0000
0000
0000
,
0000
0000
0000
0100
,
0010
0100
0000
0000
,
0000
0000
0000
0000
,
1000
0000
0001
0000
,
1000
0000
0000
0000
,
0000
0000
0000
0000
,
1000
0000
0000
0000
,
0000
0000
0000
0000
,
0010
0000
0000
0000
,
0000
0000
0000
0000
,
0010
0000
0000
0000
,
0000
0000
0000
0000
,
0100
0000
0000
0000
,
0000
0000
0000
0000
,
0100
0000
0000
0000
,
0000
0000
0000
0000
,
0001
0000
0000
0000
,
0000
0000
0000
0000
,
0001
0000
0000
0000
,
0000
0000
0000
0000
,
1000
0000
0010
0000
,
0100
0000
0001
0000
,
1000
0000
0010
0000
,
0100
0000
0001
0000
,
1000
0010
1000
0000
,
0001
0100
0001
0000
,
0100
0010
0100
0000
,
1001
0000
0000
0000
,
0000
0000
0000
0000
,
1000
0100
0001
0000
,
0000
0000
0000
0000
0000
0000
0000
1000
,
0000
0010
0000
0001
0000
0000
0000
0000
,
0000
0000
0000
0001
,
0100
1000
0000
0000
,
0000
0000
0000
0000
,
0001
0000
1000
0000
,
0000
0000
0000
0000
,
0010
0100
0001
0000
,
0000
0000
0000
0000
0000
0000
0000
1000
,
0000
0001
0000
0100
0000
0000
0000
0000
,
0000
0000
0000
0010
,
1000
0001
0000
0000
,
0000
0000
0000
0000
,
0001
0000
1000
0000
,
0110
0000
0000
0000
;

//--------------- dance-single - M.P.B.L. 2-D ----------------
#NOTES:
     dance-single:
     M.P.B.L. 2-D:
     Easy:
     6:
     0,0,0,0,0:
0000
0000
0000
0000
,
0000
0000
0000
0000
,
0000
0000
0000
0000
,
0000
0000
0000
0000
,
0000
0000
0000
0100
,
0000
0001
0000
0000
0100
0000
0000
0010
,
0000
1000
0010
1000
,
0000
0100
0000
0000
0010
0000
0000
0001
,
0000
0100
0010
1000
,
0000
0001
0000
0000
0100
0000
0000
0010
,
0000
0100
0001
1000
,
0000
0010
0000
0000
0100
0000
0000
0001
,
0000
1000
1001
0010
,
0010
0010
0010
0100
,
0100
0100
0100
0001
,
0001
0001
0001
1000
,
1000
1000
1000
0001
,
0010
0000
0001
0010
0001
0000
1000
0000
,
0100
0000
1000
0100
1000
0000
0001
1000
,
0001
0000
1000
0001
1000
0000
0110
0000
,
0000
0000
0000
0000
0000
0000
0110
0100
,
0010
0001
1000
0001
1000
0000
0000
0000
,
0000
0000
0000
0000
0000
0000
1000
0001
,
0010
0100
0010
0100
0000
0000
0000
0000
,
0000
0000
0000
0000
0000
0010
1000
0100
,
0001
0100
0001
0000
0000
0000
0000
0000
,
0000
0000
0000
0000
1000
0100
0001
0000
,
0000
0000
0000
0000
,
0000
0000
0000
0000
0000
0000
0000
1000
,
0100
0010
0001
0010
0100
0000
0000
0000
,
0000
0000
0000
0000
0000
0000
0001
0010
,
0100
1000
0100
0010
0000
0000
0000
0000
,
0000
0000
0000
0000
0000
1000
0010
0100
,
0001
0100
0001
0000
0000
0000
0000
0000
,
0000
0000
0000
0000
0001
0010
1000
0000
,
0000
0000
0000
0000
,
0200
0000
0000
0300
,
0020
0000
0000
0030
,
2000
0000
0000
3000
,
0002
0000
0000
0003
,
0200
0000
0000
0300
,
0020
0000
0000
0030
,
2000
0000
0000
3000
,
0002
0000
0000
0003
,
2000
0000
0000
3000
,
0200
0000
0000
0300
,
0020
0000
0000
0030
,
0002
0000
0000
0003
,
2000
0000
0000
3000
,
0020
0000
0000
0030
,
0200
0000
0000
0300
,
0002
0000
0000
0003
,
1000
0000
1000
0000
0010
0100
0010
0000
,
0100
0000
0100
0000
0001
0010
0001
0000
,
0010
0000
0010
0000
0100
0001
0100
0000
,
0001
0000
0001
0000
1000
0001
1000
0000
,
0001
0000
0100
0010
0100
0000
1000
0000
,
0001
0000
0010
0100
0010
0000
1000
0000
,
0001
0100
0001
0000
1000
0010
1000
0000
,
0110
0000
0000
0000
,
0000
0000
0000
0000
0000
0000
0000
1000
,
0100
0010
0100
1000
0010
0000
0000
0000
,
0000
0000
0000
0000
0000
0000
0001
0010
,
0100
0010
0001
0100
0000
0000
0000
0000
,
0000
0000
0000
0000
0000
1000
0010
0100
,
0010
1000
0001
0000
0000
0000
0000
0000
,
0000
0000
0000
0000
0001
0100
0010
0000
,
0000
0000
0000
0000
,
0000
0000
0000
0000
0000
0000
0000
0001
,
0100
0000
0010
0000
0100
0001
0100
0001
1000
0000
0000
0000
0000
0000
0000
0000
,
0000
0000
0000
0000
0000
0000
0100
0001
,
0010
0000
0100
0010
0100
0010
1000
0000
0000
0000
0000
0000
0000
0000
0000
0000
,
0000
0000
0000
0000
0000
1000
0100
0001
,
0100
1000
0100
1000
0010
0000
0000
0000
0000
0000
0000
0000
0000
0000
0000
0000
,
0000
0000
0000
0000
0001
0010
1000
0000
,
0000
0000
0000
0110
,
1001
0000
0000
0000
;

//--------------- dance-single - M.P.B.L. 3-D ----------------
#NOTES:
     dance-single:
     M.P.B.L. 3-D:
     Medium:
     9:
     0,0,0,0,0:
0000
0000
0000
0000
,
0000
0000
0000
0000
,
0000
0000
0000
0000
,
0200
0000
0000
0310
,
0000
0000
0000
0000
0010
0000
1000
0010
,
1000
0200
0000
0000
0000
0000
0000
0000
,
0000
0000
0300
0001
0100
0020
0000
0000
,
0000
0000
0030
1000
0010
0200
0000
0000
,
0300
0010
0000
0000
1000
0100
0010
0100
,
1000
0002
0000
0000
0000
0000
0000
0000
,
0000
0000
0003
0100
0001
0200
0000
0000
,
0000
0000
0300
0010
1000
0020
0000
0000
,
0030
0200
0000
0300
0001
1000
0001
0000
,
0001
0001
0001
1000
,
1000
1000
1000
0010
,
0010
0010
0010
0100
,
0100
0000
0100
0000
0100
0000
0001
0010
,
0001
0000
0100
0010
0100
0000
1000
0100
,
1000
0000
0001
0100
0001
0000
1000
0100
,
0010
0001
0010
0100
1000
0100
0110
0000
,
0000
0000
0000
0000
0000
0000
0000
0000
0000
0000
0000
0000
0000
0000
1000
0010
,
1000
0010
1000
0010
1000
0001
1000
0100
0000
0000
0000
0000
0000
0000
0000
0000
,
0000
0000
0000
0000
0000
0000
0000
0000
0000
0000
0000
0000
0001
0100
0001
0100
,
0001
0100
0001
0010
0001
1000
0000
0000
0000
0000
0000
0000
0000
0000
0000
0000
,
0000
0000
0000
0000
0000
0000
0000
0000
0000
0000
0100
1000
0100
1000
0100
1000
,
0100
0001
0100
1000
0000
0000
0000
0000
0000
0000
0000
0000
0000
0000
0000
0000
,
0000
0000
0000
0000
0000
0000
0000
0000
0001
0100
0001
1000
0010
0000
0000
0000
,
2002
0000
0000
3003
,
0000
0000
0000
0000
0000
0000
0000
0000
0000
0000
0000
0000
0000
0000
0100
0010
,
0100
0010
0100
0010
1000
0001
0100
0010
0000
0000
0000
0000
0000
0000
0000
0000
,
0000
0000
0000
0000
0000
0000
0000
0000
0000
0000
0000
0000
0001
0010
0001
0010
,
0001
0010
0100
1000
0001
0010
0000
0000
0000
0000
0000
0000
0000
0000
0000
0000
,
0000
0000
0000
0000
0000
0000
0000
0000
0000
0000
1000
0001
1000
0001
1000
0001
,
1000
0010
0100
0001
0000
0000
0000
0000
0000
0000
0000
0000
0000
0000
0000
0000
,
0000
0000
0000
0000
0000
0000
0000
0000
1000
0100
1000
0001
0010
0000
0000
0000
,
0220
0000
0000
0330
,
2000
0000
0000
0000
,
3200
0000
0000
0000
,
0320
0000
0000
0000
,
0032
0000
0000
0000
,
2003
0000
0000
0000
,
3020
0000
0000
0000
,
0230
0000
0000
0000
,
0302
0000
0000
0000
,
0203
0000
0010
0000
,
0302
0000
1000
0000
,
0023
0000
1000
0000
,
0230
0000
0001
0000
,
0301
0010
0100
0010
,
0001
1000
0010
1000
,
0001
0100
0010
0100
,
0001
1000
0100
1000
,
0001
0000
0001
0000
1000
0100
0010
0000
,
0100
0000
0100
0000
0001
0010
0100
0000
,
1000
0000
1000
0000
0100
0010
0001
0000
,
0010
0000
0010
0000
1000
0001
0100
0000
,
0010
0100
0010
0000
1000
0010
1000
0000
,
0001
0010
0001
0000
0100
0001
0100
0000
,
0001
1000
0010
0100
0001
1000
0010
0100
,
0220
0000
0000
0330
,
0000
0000
0000
0000
0000
0000
0000
0000
0000
0000
0000
0000
0000
0000
0001
0100
,
0010
1000
0001
1000
0010
0100
0001
0100
0000
0000
0000
0000
0000
0000
0000
0000
,
0000
0000
0000
0000
0000
0000
0000
0000
0000
0000
0000
0000
1000
0100
0010
0001
,
1000
0001
0010
0100
1000
0100
0000
0000
0000
0000
0000
0000
0000
0000
0000
0000
,
0000
0000
0000
0000
0000
0000
0000
0000
0000
0000
0010
0100
0001
1000
0001
1000
,
0010
0100
0001
0000
0000
0000
0000
0000
0000
0000
0000
0000
0000
0000
0000
0000
,
0000
0000
0000
0000
0000
0000
0000
0000
1000
0001
1000
0001
1000
0000
0000
0000
,
0202
0000
0000
0303
,
0000
0000
0000
0000
0000
0000
0000
0000
0000
0000
0000
0000
0000
0000
1000
0100
,
1000
0100
1000
0100
0001
0010
0001
0010
0000
0000
0000
0000
0000
0000
0000
0000
,
0000
0000
0000
0000
0000
0000
0000
0000
0000
0000
0000
0000
0001
0100
0001
0100
,
0001
0100
1000
0010
1000
0010
0000
0000
0000
0000
0000
0000
0000
0000
0000
0000
,
0000
0000
0000
0000
0000
0000
0000
0000
0000
0000
0001
1000
0001
1000
0001
1000
,
0010
0100
0010
0001
0000
0000
0000
0000
0000
0000
0000
0000
0000
0000
0000
0000
,
0000
0000
0000
0000
0000
0000
0000
0000
0100
0010
0100
0010
1000
0000
0000
0000
,
2020
0000
3030
0101
,
1010
0000
0000
0000
;

//--------------- dance-single - M.P.B.L. Four Dimensions ----------------
#NOTES:
     dance-single:
     M.P.B.L. Four Dimensions:
     Hard:
     13:
     0,0,0,0,0:
0000
0000
0000
0000
,
0000
0000
0000
0000
,
0000
0000
0000
0000
,
1000
0000
0000
0100
0000
0000
0010
0000
0000
0100
0000
0000
1000
0000
0000
0000
,
0000
0000
0000
0000
1000
0000
0001
0010
,
0100
1000
0000
0001
0100
0001
0000
0010
,
0100
0001
0100
1000
0100
0010
0000
1000
,
0001
0100
0000
0010
0100
1000
0000
0100
,
0001
0100
1000
0010
0001
0010
1000
0100
,
0010
0001
0000
1000
0010
1000
0000
0010
,
0100
0001
0010
1000
0010
0001
0010
0100
,
0010
0100
0000
1000
0010
0100
0000
0100
,
0000
0010
0000
0001
1000
0001
1000
0000
,
0011
0000
0000
0000
1010
0000
0000
0000
1000
0100
0010
0001
0100
0000
0000
0000
,
1100
0000
0000
0000
0101
0000
0000
0000
1000
0010
0100
0001
0010
0000
0000
0000
,
0110
0000
0000
0000
1001
0000
0000
0000
0010
0100
0001
1000
0010
0000
0000
0000
,
1001
0000
0000
0000
0110
0000
0000
0000
0001
1000
0010
0100
0001
0000
0010
0000
,
0001
0010
0100
1000
0100
1000
0010
0100
,
0010
0000
0000
0100
0000
0000
0001
0000
0000
0100
0000
0000
0001
0000
0000
0100
0000
0000
0010
0000
0100
0010
0000
0000
,
1000
0000
0001
1000
0000
0000
0001
0000
0100
0001
0000
0000
1000
0000
0010
1000
0000
0000
0110
0000
0000
0000
0000
0000
,
0000
0000
0000
0000
0000
0000
0000
0100
0001
0000
0000
0000
1010
0000
1000
0100
,
0010
0100
1000
0100
0001
0100
1000
0010
0100
0100
1000
0000
0000
0000
0000
0000
,
0000
0000
0000
0000
0000
0000
0000
0000
0000
0000
1000
0000
0001
0010
0100
0010
,
0001
0000
0100
0000
1000
0000
0100
0000
0001
0000
0010
0000
0100
0010
0000
0100
0010
0000
0000
0000
0000
0000
0000
0000
0000
0000
0000
0000
0000
0000
0000
0000
,
0000
0000
0000
0000
0000
0000
0000
0000
0010
0000
1000
0010
1000
0001
1000
0010
,
0100
0001
0010
0001
0100
0100
0010
0000
0000
0000
0000
0000
0000
0000
0000
0000
,
0000
0000
0000
0000
0000
0000
0010
0000
0001
0100
0010
1000
0010
0000
0000
0000
,
1000
0100
1000
0001
0010
0001
0110
0000
,
0000
0000
0000
0000
0000
0000
0000
0000
0000
0000
0000
0000
0110
0000
0100
0001
,
1000
0100
0001
0100
1000
0100
0010
0001
0100
0100
0101
0000
0000
0000
0000
0000
,
0000
0000
0000
0000
0000
0000
0000
0000
0000
0000
0101
0000
0010
0001
1000
0010
,
0001
0000
0010
0000
1000
0000
0100
0000
0010
0000
0001
0000
1000
0100
0000
1000
0100
0000
0000
0000
0000
0000
0000
0000
0000
0000
0000
0000
0000
0000
0000
0000
,
0000
0000
0000
0000
0000
0000
0000
0000
0100
0000
0001
0010
0001
0010
1000
0010
,
1000
0010
0001
0100
0010
0010
1010
0000
0000
0000
0000
0000
0000
0000
0000
0000
,
0000
0000
0000
0000
0000
0000
1010
0000
1000
0100
0010
0001
1000
0000
0000
0000
,
0001
0100
0001
1000
0010
1000
0110
0000
,
0020
0000
0000
0000
0000
0000
0000
2030
,
0000
0000
0000
3002
0000
0000
2003
0000
,
3200
0000
0000
0000
0000
0320
0000
0032
,
0000
0000
0000
0000
0103
1000
0100
0010
,
2000
0000
0000
0000
0000
0000
0000
3200
,
0000
0000
0000
0302
0000
0000
0203
0000
,
0320
0000
0000
0000
0000
0230
0000
2300
,
0000
0000
0000
0000
3001
0100
0010
1000
,
0100
0010
0000
0010
0000
0010
0000
0100
,
0000
0100
0000
0001
0000
0001
1000
0000
,
0010
0100
0000
0100
0000
0001
0000
0010
,
0000
0010
0000
1000
0000
1000
0010
0000
,
2000
0001
0010
0001
,
3020
0100
0001
0100
,
0032
0100
1000
0010
,
1000
0100
1000
0013
,
1000
0000
0000
0100
0010
0000
0001
0000
1000
0100
1000
0000
0001
0000
0100
0000
,
0001
0000
0000
0010
0100
0000
1000
0000
0001
0010
0001
0000
1000
0000
0010
0000
,
1000
0000
0000
0010
0100
0000
0001
0000
1000
0010
1000
0000
0001
0000
0010
0000
,
0001
0000
0000
0100
0010
0000
1000
0000
0001
0100
0001
0000
1000
0000
0100
0000
,
1000
0100
0010
0001
0100
0000
0000
0000
0001
0010
0100
1000
0010
0000
0000
0000
,
1000
0001
0100
0010
1000
0000
0000
0000
0001
1000
0100
0010
0001
0000
0000
0000
,
1000
0000
0010
1000
0000
0000
0001
0000
0100
0001
0000
0000
0010
0000
0001
0010
0000
0000
0100
0000
1000
0100
0000
0000
,
0022
0000
0000
0033
,
0000
0000
0000
0000
0000
0000
0000
0000
0000
0000
0000
0000
0000
0000
0000
0000
0000
0000
0000
0000
0000
0000
0000
0000
0000
0000
0000
1000
0001
0000
0100
0000
,
0010
0100
0001
0100
1000
0100
0001
0010
0100
0100
0001
0000
0000
0000
0000
0000
,
0000
0000
0000
0000
0000
0000
0000
0000
0000
0000
0000
0000
0000
0000
0000
0000
0000
0000
0000
0000
0001
0000
0000
0001
1000
0000
0010
0000
0100
0000
0010
0000
,
1000
0000
0100
0000
0001
0000
0100
0000
1000
0000
0010
0000
0100
0010
0000
0100
0010
0000
0000
0000
0000
0000
0000
0000
0000
0000
0000
0000
0000
0000
0000
0000
,
0000
0000
0000
0000
0000
0000
0000
0000
0000
0000
0000
0000
0000
0000
0000
0000
0010
0000
0000
0100
0001
0000
0010
0000
0001
0000
1000
0000
0001
0000
0010
0000
,
0100
1000
0010
1000
0100
0100
0010
0000
0000
0000
0000
0000
0000
0000
0000
0000
,
0000
0000
0000
0000
0000
0000
0000
0000
0000
0000
0000
0000
0010
0000
0000
0010
1000
0000
0100
0000
0010
0000
0001
0000
0010
0000
0000
0000
0000
0000
0000
0000
,
0001
0000
0100
0000
0001
0000
1000
0010
1000
0000
0100
0000
1100
0000
0000
0000
,
0000
0000
0000
0000
0000
0000
0000
0000
0000
0000
0000
0000
0000
0000
0000
0000
0000
0000
0000
0000
0000
0000
0000
0000
1100
0000
0000
0010
0100
0000
1000
0000
,
0001
0100
1000
0100
0001
0100
0010
1000
0100
0100
1100
0000
0000
0000
0000
0000
,
0000
0000
0000
0000
0000
0000
0000
0000
0000
0000
0000
0000
0000
0000
0000
0000
0000
0000
0000
0000
1100
0000
0000
1000
0010
0000
1000
0000
0001
0000
0010
0000
,
1000
0000
0010
0000
0001
0000
0100
0000
0010
0000
1000
0000
0001
0100
0000
0001
0100
0000
0000
0000
0000
0000
0000
0000
0000
0000
0000
0000
0000
0000
0000
0000
,
0000
0000
0000
0000
0000
0000
0000
0000
0000
0000
0000
0000
0000
0000
0000
0000
0100
0000
0000
0001
1000
0000
0010
0000
1000
0000
0010
0000
0001
0000
0010
0000
,
0001
0010
1000
0100
0010
0010
0011
0000
0000
0000
0000
0000
0000
0000
0000
0000
,
0000
0000
0000
0000
0000
0000
0000
0000
0000
0000
0000
0000
0011
0000
0000
1000
0001
0000
0100
0000
0010
0000
1000
0000
0001
0000
0000
0000
0000
0000
0000
0000
,
1000
0100
0001
1000
0010
0001
0011
0000
,
1100
0000
0000
0000
;

//--------------- dance-single - M.P.B.L. Five Dimensions ----------------
#NOTES:
     dance-single:
     M.P.B.L. Five Dimensions:
     Challenge:
     14:
     0,0,0,0,0:
0000
0000
0000
0000
,
0000
0000
0000
0000
,
0000
0000
0000
0000
,
0000
0000
0000
1000
0000
0000
0010
0000
0000
0100
0000
0000
1001
0000
0000
0000
,
0000
0000
0000
0000
1001
0000
0100
0010
,
0001
0200
0000
1000
0000
0302
0000
0010
,
0000
1003
0100
0001
0100
0020
0000
0001
,
0000
2030
0000
3010
0100
0002
0000
0003
,
0001
0020
0030
0010
1000
0010
1000
0100
,
0001
0200
0000
1000
0000
0302
0000
0100
,
0000
1003
0010
0100
0001
0200
0000
1000
,
0000
0001
0000
0310
0100
0002
0000
0003
,
1000
0000
0010
0000
0000
0000
0100
0000
0001
0000
0010
0000
1000
0000
0010
1000
,
0010
0000
0100
0001
0100
0000
0010
0000
0001
0000
0010
0100
0010
0000
1000
0010
,
1000
0000
0010
0000
1000
0000
0010
0100
0001
0100
0010
1000
0100
0000
1000
0000
,
0100
0000
1000
0001
1000
0000
0001
0100
0001
0000
0100
0000
0001
0000
0010
0001
,
0100
0000
0010
1000
0100
0000
0010
0100
1000
0100
0001
0000
0100
0010
1000
0001
,
0100
0010
1000
0000
0001
0010
0100
1000
0010
0100
0001
0000
1000
0100
0001
0100
,
1000
0000
0000
0100
0000
0000
0001
0000
0000
0000
0000
0000
1000
0000
0000
0010
0000
0000
0001
0000
0000
0010
0000
0000
1000
0000
0000
0010
0000
0000
0001
0000
0000
0000
0000
0000
1000
0000
0000
0000
0100
0000
0010
0000
0000
0000
0001
0000
,
1000
0000
0100
0010
0000
0001
1000
0000
0010
0100
0000
0001
1000
0000
0010
0100
0000
0000
1001
0000
0000
MMMM
0000
0000
,
MMMM
0000
MMMM
0000
MMMM
0000
0000
0100
0010
0000
0100
0000
1001
0000
0010
1010
,
0010
1010
0010
1010
0010
0101
1001
1100
0010
0010
0010
0000
0000
0000
0000
0000
,
0000
0000
0000
0000
0000
0000
0000
0000
0000
0000
0010
0000
0001
0011
0001
0011
,
0001
0000
0011
0000
0001
0000
1100
0000
0110
0000
0011
0000
1000
0001
0000
1000
0001
0000
0000
0000
0000
0000
0000
0000
0000
0000
0000
0000
0000
0000
0000
0000
,
0000
0000
0000
0000
0000
0000
0000
0000
0001
0000
0100
1001
0100
1001
0100
1001
,
0100
1010
0110
0101
0010
0010
0010
0000
0000
0000
0000
0000
0000
0000
0000
0000
,
0000
0000
0000
0000
0000
0000
0010
0000
1000
0110
1000
0110
1000
0000
0000
0000
,
0001
0000
0010
0000
1000
0000
0010
0001
0100
0000
0010
1000
0100
0000
0000
0000
,
0000
0000
0000
0000
0000
0000
0000
0000
0000
0000
0000
0000
0100
0000
0110
0110
,
0110
0110
0110
0110
0110
1001
1001
0110
0001
0100
1000
0000
0000
0000
0000
0000
,
0000
0000
0000
0000
0000
0000
0000
0000
0000
0000
1000
0000
1001
1001
1001
1001
,
1001
0000
1001
0000
1001
0000
0110
0000
0110
0000
1001
0000
0100
0010
0000
1000
0001
0000
0000
0000
0000
0000
0000
0000
0000
0000
0000
0000
0000
0000
0000
0000
,
0000
0000
0000
0000
0000
0000
0000
0000
0001
0000
1100
1100
1100
1100
1100
1100
,
1100
0011
0011
1100
0001
0100
1000
0000
0000
0000
0000
0000
0000
0000
0000
0000
,
0000
0000
0000
0000
0000
0000
1000
0000
0101
1010
0101
1010
0101
0000
0000
0000
,
1000
0000
0100
0000
0001
0000
0100
1000
0100
0000
0010
0001
0010
0000
0000
0000
,
0200
0000
0000
0000
0000
0000
0000
0302
,
0000
0000
0000
0020
0000
0000
0030
0000
,
2003
0000
0000
0000
0000
0010
0000
0200
,
0000
0000
0000
3300
0010
0100
0001
1000
,
0200
0000
0000
0000
0000
0000
0000
0320
,
0000
0000
0000
2000
0000
0000
3000
0000
,
0032
0000
0000
0000
0000
0100
0000
2000
,
0000
0000
0000
3003
1000
0100
0001
0010
,
0200
0010
0000
0001
0000
0010
0000
0320
,
0000
1000
0000
0230
0000
0001
0302
1000
,
2003
0100
0000
0010
0000
3200
0000
0302
,
0000
0100
0000
0203
0000
0310
0020
0000
,
2030
0100
0001
0100
,
3020
0000
1030
0200
0000
0010
0000
0301
,
0020
0000
0100
0000
1000
0000
0100
0030
,
0110
MMMM
1100
MMMM
0011
MMMM
0110
0100
,
1000
0000
0000
0000
0000
0000
0000
0000
0000
1000
0000
0000
0010
0000
0000
0000
0000
0000
0100
0000
0000
0000
0000
0000
0001
0000
0000
0000
0010
0000
0100
0000
0000
0000
0000
0000
0010
0000
0000
0000
0000
0000
0001
0000
0000
0000
0000
0000
,
0100
0000
0000
0000
0000
0000
0000
0000
0000
0100
0000
0000
0010
0000
0000
0000
0000
0000
1000
0000
0000
0000
0000
0000
0100
0000
0000
0000
0010
0000
0001
0000
0000
0000
0000
0000
0010
0000
0000
0000
0000
0000
0100
0000
0000
0000
0000
0000
,
0001
0000
0000
0000
0000
0000
0000
0000
0000
0001
0000
0000
1000
0000
0000
0000
0000
0000
0010
0000
0000
0000
0000
0000
0100
0000
0000
0000
0001
0000
0010
0000
0000
0000
0000
0000
0100
0000
0000
0000
0000
0000
1000
0000
0000
0000
0000
0000
,
1000
0000
0000
0000
0000
0000
0000
0000
0000
1000
0000
0000
0010
0000
0000
0000
0000
0000
0100
0000
0000
0000
0000
0000
1000
0000
0000
0000
0100
0000
0010
0000
0000
0000
0000
0000
0001
0000
0000
0000
0000
0000
0100
0000
0000
0000
0000
0000
,
0001
0000
1000
0100
0010
0000
0001
0100
0010
0100
0001
0000
0010
0100
1000
0000
,
0010
0000
1000
0100
0001
0000
0100
0010
0001
0010
0100
0000
0001
0100
1000
0000
,
0001
0000
0010
0100
0000
1000
0001
0000
0010
0100
0000
1000
0001
0000
0100
0010
0000
1000
0001
0000
0100
0010
0000
0000
,
2001
0001
3002
0100
0100
1003
0110
0000
,
0000
0000
0000
0000
0000
0000
0000
0000
0000
0000
0000
0000
0110
0000
1000
0010
,
0011
0010
1000
0010
0011
0010
1010
0110
0001
0001
1000
0000
0000
0000
0000
0000
,
0000
0000
0000
0000
0000
0000
0000
0000
0000
0000
1000
0000
1000
0100
0001
0010
,
1000
0000
0100
0000
0011
0000
0101
0000
1100
0000
1010
0000
0100
0001
0000
1000
0100
0000
0000
0000
0000
0000
0000
0000
0000
0000
0000
0000
0000
0000
0000
0000
,
0000
0000
0000
0000
0000
0000
0000
0000
0100
0000
1100
0011
1010
0101
0110
1001
,
0010
0110
1000
1001
0010
0010
0100
0000
0000
0000
0000
0000
0000
0000
0000
0000
,
0000
0000
0000
0000
0000
0000
0100
0000
1001
0110
0110
1000
0001
0000
0000
0000
,
1000
0000
0100
0000
0001
0000
0100
0010
0100
0000
0001
1000
0001
0000
0000
0000
,
0000
0000
0000
0000
0000
0000
0000
0000
0000
0000
0000
0000
0001
0000
0100
0101
,
0010
1010
0100
0101
0010
1000
0100
0001
0100
0010
1000
0000
0000
0000
0000
0000
,
0000
0000
0000
0000
0000
0000
0000
0000
0000
0000
1000
0000
0001
0010
0001
0100
,
0010
0000
1000
0000
0100
0000
0001
0000
0100
0000
1000
0000
0010
0001
0000
0010
1000
0000
0000
0000
0000
0000
0000
0000
0000
0000
0000
0000
0000
0000
0000
0000
,
0000
0000
0000
0000
0000
0000
0000
0000
1000
0000
0010
0100
1000
0100
0010
0100
,
0001
0100
1000
0010
0100
0100
0001
0000
0000
0000
0000
0000
0000
0000
0000
0000
,
0000
0000
0000
0000
0000
0000
0000
0000
0000
0000
0000
0000
0001
0000
0000
0000
1000
0100
0010
0001
1000
0001
0010
0100
1000
0000
0000
0000
0100
0000
0000
0000
,
0010
2010
3010
0100
0102
0013
1100
MMMM
,
1001
0000
0000
0000
;
