#TITLE:everybody is going to the moon;
#SUBTITLE:;
#ARTIST:jamiroquai;
#TITLETRANSLIT:;
#SUBTITLETRANSLIT:;
#ARTISTTRANSLIT:;
#CREDIT:;
#BANNER:everybody is going to the moon.png;
#BACKGROUND:everybody is going to the moon-bg.jpg;
#LYRICSPATH:;
#CDTITLE:;
#MUSIC:everybody is going to the moon.mp3;
#OFFSET:0.000;
#SAMPLESTART:100.050;
#SAMPLELENGTH:12.000;
#SELECTABLE:YES;
#BPMS:0.000=128.920;
#STOPS:;
#BGCHANGES:;

//---------------dance-single - ----------------
#NOTES:
     dance-single:
     :
     Beginner:
     2:
     0.149,0.131,0.008,0.017,0.000:
0000
0000
0000
0000
,
0000
0000
0000
0000
0000
1000
0000
0000
,
0000
0100
0000
0000
0000
1000
0000
0000
,
0000
0001
0000
0000
0000
0010
0000
0000
,
0000
0001
0000
0000
0000
0100
0000
0000
,
0000
0010
0000
0000
0000
1000
0000
0000
,
0000
0001
0000
0000
0000
0100
0000
0000
,
0000
0010
0000
0000
0000
0010
0000
0000
,
0000
0100
0000
0000
0000
1000
0000
0000
,
0000
0001
0000
0000
0000
0001
0000
0000
,
0000
1000
0000
0000
0000
0010
0000
0000
,
0000
0100
0000
0000
0000
0001
0000
0000
,
0000
1000
0000
0000
0000
1000
0000
0000
,
0000
0100
0000
0000
0000
0010
0000
0000
,
0000
0001
0000
0000
0000
0001
0000
0000
,
0000
0010
0000
0000
0000
0100
0000
0000
,
0000
1000
0000
0000
0000
0010
0000
0000
,
0000
0100
0000
0000
0000
0010
0000
0000
,
0000
0100
0000
0000
0000
1000
0000
0000
,
0000
1000
0000
0000
0000
0001
0000
0000
,
0000
0001
0000
0000
0000
0010
0000
0000
,
0000
0010
0000
0000
0000
0100
0000
0000
,
0000
0100
0000
0000
0000
1000
0000
0000
,
0000
1000
0000
0000
0000
0001
0000
0000
,
0000
0001
0000
0000
0000
0100
0000
0000
,
0000
0010
0000
0000
0000
0100
0000
0000
,
0000
0010
0000
0000
0000
1000
0000
0000
,
0000
0010
0000
0000
0000
0100
0000
0000
,
0000
0001
0000
0000
0000
0100
0000
0000
,
0000
0010
0000
0000
0000
1000
0000
0000
,
0000
0001
0000
0000
0000
0100
0000
0000
,
0000
0010
0000
0000
0000
1000
0000
0000
,
0000
0100
0000
0000
0000
0001
0000
0000
,
0000
0010
0000
0000
0000
0100
0000
0000
,
0000
0001
0000
0000
0000
1000
0000
0000
,
0000
0010
0000
0000
0000
0100
0000
0000
,
0000
0001
0000
0000
0000
1000
0000
0000
,
0000
0010
0000
0000
0000
0100
0000
0000
,
0000
0010
0000
0000
0000
1000
0000
0000
,
0000
0001
0000
0000
0000
0100
0000
0000
,
0000
0010
0000
0000
0000
1000
0000
0000
,
0000
0001
0000
0000
0000
1000
0000
0000
,
0000
0001
0000
0000
0000
0100
0000
0000
,
0000
1000
0000
0000
0000
0010
0000
0000
,
0000
0001
0000
0000
0000
0100
0000
0000
,
0000
0010
0000
0000
0000
1000
0000
0000
,
0000
0001
0000
0000
0000
0100
0000
0000
,
0000
0010
0000
0000
0000
0100
0000
0000
,
0000
1000
0000
0000
0000
0001
0000
0000
,
0000
0100
0000
0000
0000
0010
0000
0000
,
0000
1000
0000
0000
0000
0001
0000
0000
,
0000
0100
0000
0000
0000
0010
0000
0000
,
0000
0100
0000
0000
0000
0010
0000
0000
,
0000
1000
0000
0000
0000
0001
0000
0000
,
0000
1000
0000
0000
0000
0001
0000
0000
,
0000
0100
0000
0000
0000
0001
0000
0000
,
0000
1000
0000
0000
0000
0010
0000
0000
,
0000
0100
0000
0000
0000
0001
0000
0000
,
0000
0100
0000
0000
0000
1000
0000
0000
,
0000
0010
0000
0000
0000
1000
0000
0000
,
0000
0010
0000
0000
0000
0001
0000
0000
,
0000
0010
0000
0000
0000
2002
0000
0000
,
0000
3003
0000
0000
0000
0000
0000
0000
;

//---------------dance-single - Copied from----------------
#NOTES:
     dance-single:
     Copied from:
     Easy:
     2:
     0.149,0.131,0.008,0.017,0.000:
0000
0000
0000
0000
,
0000
0000
0000
0000
0000
1000
0000
0000
,
0000
0100
0000
0000
0000
1000
0000
0000
,
0000
0001
0000
0000
0000
0010
0000
0000
,
0000
0001
0000
0000
0000
0100
0000
0000
,
0000
0010
0000
0000
0000
1000
0000
0000
,
0000
0001
0000
0000
0000
0100
0000
0000
,
0000
0010
0000
0000
0000
0010
0000
0000
,
0000
0100
0000
0000
0000
1000
0000
0000
,
0000
0001
0000
0000
0000
0001
0000
0000
,
0000
1000
0000
0000
0000
0010
0000
0000
,
0000
0100
0000
0000
0000
0001
0000
0000
,
0000
1000
0000
0000
0000
1000
0000
0000
,
0000
0100
0000
0000
0000
0010
0000
0000
,
0000
0001
0000
0000
0000
0001
0000
0000
,
0000
0010
0000
0000
0000
0100
0000
0000
,
0000
1000
0000
0000
0000
0010
0000
0000
,
0000
0100
0000
0000
0000
0010
0000
0000
,
0000
0100
0000
0000
0000
1000
0000
0000
,
0000
1000
0000
0000
0000
0001
0000
0000
,
0000
0001
0000
0000
0000
0010
0000
0000
,
0000
0010
0000
0000
0000
0100
0000
0000
,
0000
0100
0000
0000
0000
1000
0000
0000
,
0000
1000
0000
0000
0000
0001
0000
0000
,
0000
0001
0000
0000
0000
0100
0000
0000
,
0000
0010
0000
0000
0000
0100
0000
0000
,
0000
0010
0000
0000
0000
1000
0000
0000
,
0000
0010
0000
0000
0000
0100
0000
0000
,
0000
0001
0000
0000
0000
0100
0000
0000
,
0000
0010
0000
0000
0000
1000
0000
0000
,
0000
0001
0000
0000
0000
0100
0000
0000
,
0000
0010
0000
0000
0000
1000
0000
0000
,
0000
0100
0000
0000
0000
0001
0000
0000
,
0000
0010
0000
0000
0000
0100
0000
0000
,
0000
0001
0000
0000
0000
1000
0000
0000
,
0000
0010
0000
0000
0000
0100
0000
0000
,
0000
0001
0000
0000
0000
1000
0000
0000
,
0000
0010
0000
0000
0000
0100
0000
0000
,
0000
0010
0000
0000
0000
1000
0000
0000
,
0000
0001
0000
0000
0000
0100
0000
0000
,
0000
0010
0000
0000
0000
1000
0000
0000
,
0000
0001
0000
0000
0000
1000
0000
0000
,
0000
0001
0000
0000
0000
0100
0000
0000
,
0000
1000
0000
0000
0000
0010
0000
0000
,
0000
0001
0000
0000
0000
0100
0000
0000
,
0000
0010
0000
0000
0000
1000
0000
0000
,
0000
0001
0000
0000
0000
0100
0000
0000
,
0000
0010
0000
0000
0000
0100
0000
0000
,
0000
1000
0000
0000
0000
0001
0000
0000
,
0000
0100
0000
0000
0000
0010
0000
0000
,
0000
1000
0000
0000
0000
0001
0000
0000
,
0000
0100
0000
0000
0000
0010
0000
0000
,
0000
0100
0000
0000
0000
0010
0000
0000
,
0000
1000
0000
0000
0000
0001
0000
0000
,
0000
1000
0000
0000
0000
0001
0000
0000
,
0000
0100
0000
0000
0000
0001
0000
0000
,
0000
1000
0000
0000
0000
0010
0000
0000
,
0000
0100
0000
0000
0000
0001
0000
0000
,
0000
0100
0000
0000
0000
1000
0000
0000
,
0000
0010
0000
0000
0000
1000
0000
0000
,
0000
0010
0000
0000
0000
0001
0000
0000
,
0000
0010
0000
0000
0000
2002
0000
0000
,
0000
3003
0000
0000
0000
0000
0000
0000
;

//---------------dance-single - Copied from Copied f----------------
#NOTES:
     dance-single:
     Copied from Copied f:
     Medium:
     7:
     0.293,0.210,0.008,0.017,0.000:
0000
0000
0000
0000
,
0000
0000
0000
0000
0000
1000
0000
0001
,
0000
0100
0000
0010
0000
1000
0000
0100
,
0000
0001
0000
0100
0000
0010
0000
0100
,
0000
0001
0000
0010
0000
0100
0000
1000
,
0000
0010
0000
0001
0000
1000
0000
0100
,
0000
0001
0000
1000
0000
0100
0000
0010
,
0000
0010
0000
1000
0000
0010
0000
0001
,
0000
0100
0000
0100
0000
1000
0000
0100
,
0000
0001
0000
0100
0000
0001
0000
0100
,
0000
1000
0000
0100
0000
0010
0000
1000
,
0000
0100
0000
0010
0000
0001
0000
0010
,
0000
1000
0000
0010
0000
1000
0000
0010
,
0000
0100
0000
1000
0000
0010
0000
1000
,
0000
0001
0000
0100
0000
0001
0000
0100
,
0000
0010
0000
0001
0000
0100
0000
0001
,
0000
1000
0000
0100
0000
0010
0000
0001
,
0000
0100
0000
1000
0000
0010
0000
0001
,
0000
0100
0000
0001
0000
1000
0000
0001
,
0000
1000
0000
0100
0000
0001
0000
1000
,
0000
0001
0000
1000
0000
0010
0000
0001
,
0000
0010
0000
1000
0000
0100
0000
0010
,
0000
0100
0000
0010
0000
1000
0000
0100
,
0000
1000
0000
0100
0000
0001
0000
0100
,
0000
0001
0000
0010
0000
0100
0000
1000
,
0000
0010
0000
0001
0000
0100
0000
0001
,
0000
0010
0000
0001
0000
1000
0000
0001
,
0000
0010
0000
1000
0000
0100
0000
1000
,
0000
0001
0000
1000
0000
0100
0000
1000
,
0000
0010
0000
0100
0000
1000
0000
0100
,
0000
0001
0000
0010
0000
0100
0000
1000
,
0000
0010
0000
0100
0000
1000
0000
0001
,
0000
0100
0000
1000
0000
0001
0000
1000
,
0000
0010
0000
1000
0000
0100
0000
0010
,
0000
0001
0000
0010
0000
1000
0000
0100
,
0000
0010
0000
0001
0000
0100
0000
1000
,
0000
0001
0000
0010
0000
1000
0000
0100
,
0000
0010
0000
0001
0000
0100
0000
1000
,
0000
0010
0000
0001
0000
1000
0000
0100
,
0000
0001
0000
0010
0000
0100
0000
1000
,
0000
0010
0000
0001
0000
1000
0000
0100
,
0000
0001
0000
0100
0000
1000
0000
0100
,
0000
0001
0000
0010
0000
0100
0000
0010
,
0000
1000
0000
0100
0000
0010
0000
0100
,
0000
0001
0000
0010
0000
0100
0000
1000
,
0000
0010
0000
0001
0000
1000
0000
0010
,
0000
0001
0000
0010
0000
0100
0000
1000
,
0000
0010
0000
0010
0000
0100
0000
0100
,
0000
1000
0000
0100
0000
0001
0000
0010
,
0000
0100
0000
1000
0000
0010
0000
0100
,
0000
1000
0000
0010
0000
0001
0000
0010
,
0000
0100
0000
1000
0000
0010
0000
0001
,
0000
0100
0000
1000
0000
0010
0000
0100
,
0000
1000
0000
0100
0000
0001
0000
0100
,
0000
1000
0000
0010
0000
0001
0000
1000
,
0000
0100
0000
0010
0000
0001
0000
0010
,
0000
1000
0000
0100
0000
0010
0000
1000
,
0000
0100
0000
0010
0000
0001
0000
1000
,
0000
0100
0000
0001
0000
1000
0000
0100
,
0000
0010
0000
0001
0000
1000
0000
0100
,
0000
0010
0000
0100
0000
0001
0000
1000
,
0000
0010
0000
0000
0000
2002
0000
0000
,
0000
3003
0000
0000
0000
0000
0000
0000
;

//---------------dance-single - ----------------
#NOTES:
     dance-single:
     :
     Hard:
     10:
     0.484,0.444,0.177,0.160,0.156: // measure 1
0000
0000
0000
0000
,  // measure 2
0000
0000
0000
0000
0000
0000
0000
0000
0000
0000
1000
0100
1000
0100
1000
0000
,  // measure 3
0000
0000
0100
0000
0000
0000
0100
0001
0100
0001
0100
0000
0000
0000
0100
0000
,  // measure 4
0000
0000
0100
0000
0000
0000
0100
0000
0000
0000
1000
0100
0010
0001
0010
0100
,  // measure 5
1000
0000
1000
0000
0000
0000
1000
0000
0000
0000
1000
0100
0010
0100
1000
0000
,  // measure 6
0001
0000
0001
0000
0000
0000
1001
0000
0000
0000
0010
0000
0000
0000
1000
0100
,  // measure 7
0010
0001
0010
0000
0000
0000
0100
0000
1000
0000
0001
0000
0100
0000
0010
0001
,  // measure 8
0100
1000
0000
0100
0000
0010
0000
1000
,  // measure 9
0000
0000
0100
0000
0000
0000
0010
0000
0100
0000
0001
0000
1000
0000
0100
0010
,  // measure 10
0001
0100
0000
1000
0000
1000
0000
0001
,  // measure 11
0000
0000
0001
0000
0000
0000
1000
0000
0001
0000
0010
0000
0100
0000
0010
0100
,  // measure 12
1000
0010
0000
1000
0000
0100
0000
0010
,  // measure 13
0000
0000
0001
0000
0000
0000
0100
0000
0010
0000
1000
0000
0100
0000
0001
0010
,  // measure 14
0100
0000
1001
0100
0100
0100
0000
0100
,  // measure 15
0000
1000
0000
0010
0000
0001
0000
0100
,  // measure 16
1001
0000
0000
0000
0000
0000
0001
0100
,  // measure 17
1000
0000
0010
1000
0100
0000
0010
0000
0000
0000
0010
0000
0000
0000
0100
0000
,  // measure 18
0000
1000
0000
0001
0000
0100
0000
1000
,  // measure 19
0100
0010
0001
1000
0100
0001
0200
0320
,  // measure 20
0030
0000
0000
0010
0100
0010
0100
1000
,  // measure 21
0100
0001
0010
0001
0100
0100
0000
1000
,  // measure 22
0000
0010
0000
1001
0001
0000
1000
0010
,  // measure 23
0100
0000
0001
0000
0100
1000
0000
0000
0001
0010
0000
0000
0100
0010
0000
0000
,  // measure 24
1000
0100
0000
0000
0000
0000
0000
0000
0100
0000
0000
0000
0100
0000
0100
0000
,  // measure 25
1000
0001
0100
0020
0000
0030
0000
1001
,  // measure 26
0000
0000
0100
0000
1000
0000
0001
0000
0100
0000
0010
0001
0100
0000
1000
0000
,  // measure 27
0001
0000
0100
0000
0010
1000
0000
0000
0100
0010
0000
0000
0001
0010
0000
0000
,  // measure 28
0000
0100
0000
1000
0000
0001
0200
0000
0000
0000
0300
0000
0000
0000
0000
0010
,  // measure 29
0000
1000
0200
0000
0020
0000
0000
0330
0000
0000
1001
0000
0000
0000
0110
0000
,  // measure 30
0000
1001
0000
0110
0000
1000
0100
0001
,  // measure 31
0010
0001
1000
0100
0010
1000
0001
0000
,  // measure 32
0100
0000
0100
0000
0100
0000
0000
0220
,  // measure 33
0330
0000
1000
0000
0100
0000
0000
0020
0000
0000
0000
0030
0000
0000
0000
0000
,  // measure 34
0100
0010
0100
0010
,  // measure 35
1001
0000
0000
1000
0001
0100
0010
1000
,  // measure 36
0001
0000
0100
1000
0100
0000
0010
0000
0000
0000
0010
0000
0000
0000
0100
0000
,  // measure 37
0000
0000
0100
0000
0010
1000
0100
0000
0100
0000
0010
0000
0000
0000
1000
0000
,  // measure 38
0000
0020
0000
0230
0000
0300
0000
1000
,  // measure 39
0001
0100
0010
1000
0001
0100
1000
0000
,  // measure 40
1000
0000
0000
0200
,  // measure 41
0310
1000
0001
0100
0010
0100
0000
0100
,  // measure 42
0000
0100
0000
0001
1000
0001
1000
0001
,  // measure 43
0000
1000
0000
0100
1000
0001
0100
0010
,  // measure 44
0001
0000
1000
0010
0100
0000
0010
0000
0000
0000
0010
0000
0000
0000
0100
0000
,  // measure 45
0000
0100
0010
0100
0010
1000
0001
0100
,  // measure 46
0100
1000
0001
0200
0000
0300
0010
1000
,  // measure 47
0001
0000
0100
0000
0010
0100
1000
0000
0001
0000
0100
0000
0000
0000
0100
0000
,  // measure 48
0000
0010
0100
1000
0000
0100
0001
0010
,  // measure 49
0100
1000
0001
0200
0000
0000
0020
0000
,  // measure 50
0000
0330
0000
1000
0001
0000
0010
0100
,  // measure 51
0000
1000
0001
0100
0010
1000
0000
0100
,  // measure 52
0000
0010
1000
0001
0100
1000
0000
0001
,  // measure 53
0010
0100
1000
0001
0100
0010
0100
1001
,  // measure 54
0000
1010
0000
0011
0000
0000
1000
0001
,  // measure 55
0100
0010
1000
0002
2000
0000
0000
0000
,  // measure 56
3003
0000
0100
0000
1000
0000
0010
0000
0100
0000
1000
0000
0001
0010
0000
0000
,  // measure 57
1000
0000
0100
0001
0010
0000
1000
0000
0010
0000
0001
0000
0100
0000
0000
0000
,  // measure 58
1000
0001
0100
0010
0000
1100
0000
0101
,  // measure 59
0000
0100
1000
0001
0100
0010
0000
1000
,  // measure 60
0001
0000
0100
0010
0100
0000
1000
0000
0001
0000
0010
0000
0100
0000
1000
0000
,  // measure 61
0001
0100
0010
1010
0000
1100
0000
0101
,  // measure 62
0000
0011
0000
0220
0000
0000
0000
0330
;
