#TITLE:you give me something;
#SUBTITLE:;
#ARTIST:jamiroquai;
#TITLETRANSLIT:;
#SUBTITLETRANSLIT:;
#ARTISTTRANSLIT:;
#CREDIT:;
#BANNER:;
#BACKGROUND:;
#LYRICSPATH:;
#CDTITLE:;
#MUSIC:you give me something.mp3;
#OFFSET:0.000;
#SAMPLESTART:0.050;
#SAMPLELENGTH:12.000;
#SELECTABLE:YES;
#BPMS:0.000=120.520;
#STOPS:;
#BGCHANGES:;

//---------------dance-single - ----------------
#NOTES:
     dance-single:
     :
     Beginner:
     2:
     0.137,0.147,0.009,0.000,0.000:
0000
0000
0000
0000
,
0000
0000
0000
0000
,
1000
0000
0010
0000
,
1000
0000
0001
0000
,
0100
0000
0010
0000
,
1000
0000
0001
0000
,
0100
0000
0010
0000
,
0100
0000
1000
0000
,
1000
0000
0001
0000
,
0100
0000
0010
0000
,
1000
0000
0001
0000
,
0001
0000
0100
0000
,
0010
0000
1000
0000
,
0100
0000
0010
0000
,
0001
0000
0100
0000
,
0010
0000
1000
0000
,
0001
0000
0010
0000
,
0100
0000
1000
0000
,
0010
0000
1000
0000
,
0100
0000
0001
0000
,
0010
0000
1000
0000
,
0010
0000
1000
0000
,
0100
0000
0001
0000
,
0100
0000
0001
0000
,
1000
0000
0100
0000
,
1000
0000
0100
0000
,
0010
0000
0001
0000
,
0010
0000
0001
0000
,
0100
0000
0010
0000
,
0100
0000
0010
0000
,
1000
0000
0001
0000
,
1000
0000
0001
0000
,
1000
0000
1000
0000
,
0100
0000
0100
0000
,
0001
0000
0001
0000
,
0010
0000
0010
0000
,
1000
0000
1000
0000
,
0001
0000
0001
0000
,
1000
0000
0001
0000
,
1000
0000
0001
0000
,
0100
0000
0100
0000
,
0010
0000
0010
0000
,
0100
0000
0010
0000
,
0100
0000
0010
0000
,
1000
0000
0100
0000
,
0001
0000
0010
0000
,
0100
0000
0010
0000
,
1000
0000
0001
0000
,
0100
0000
1000
0000
,
0001
0000
0100
0000
,
0010
0000
1000
0000
,
0100
0000
0001
0000
,
1001
0000
0000
0000
;

//---------------dance-single - Copied from----------------
#NOTES:
     dance-single:
     Copied from:
     Easy:
     4:
     0.271,0.244,0.009,0.000,0.000:
0000
0000
0000
0000
,
0000
0000
0000
0000
,
1000
0001
0010
0100
,
1000
0100
0001
0010
,
0100
1000
0010
0100
,
1000
0100
0001
0010
,
0100
0001
0010
1000
,
0100
0010
1000
0010
,
1000
0010
0001
0010
,
0100
1000
0010
0001
,
1000
0100
0001
0100
,
0001
0010
0100
0001
,
0010
0001
1000
0001
,
0100
1000
0010
1000
,
0001
1000
0100
1000
,
0010
0001
1000
0100
,
0001
0100
0010
1000
,
0100
0001
1000
0100
,
0010
0100
1000
0010
,
0100
0010
0001
0100
,
0010
0001
1000
0100
,
0010
0100
1000
0010
,
0100
1000
0001
0010
,
0100
0010
0001
0010
,
1000
0010
0100
0010
,
1000
0010
0100
0001
,
0010
1000
0001
0100
,
0010
0100
0001
0010
,
0100
0001
0010
1000
,
0100
1000
0010
0001
,
1000
0100
0001
0100
,
1000
0100
0001
0100
,
1000
0100
1000
0010
,
0100
0010
0100
0010
,
0001
0010
0001
0100
,
0010
0100
0010
0100
,
1000
0100
1000
0100
,
0001
0100
0001
0100
,
1000
0100
0001
0100
,
1000
0100
0001
0010
,
0100
0010
0100
1000
,
0010
0001
0010
0001
,
0100
1000
0010
0001
,
0100
1000
0010
0001
,
1000
0010
0100
1000
,
0001
0100
0010
0001
,
0100
1000
0010
0100
,
1000
0100
0001
0010
,
0100
0010
1000
0010
,
0001
0010
0100
0001
,
0010
0100
1000
0001
,
0100
0010
0001
0010
,
1001
0000
0000
0000
;

//---------------dance-single - Copied from Copied f----------------
#NOTES:
     dance-single:
     Copied from Copied f:
     Medium:
     6:
     0.338,0.293,0.009,0.000,0.000:
0000
0000
0000
0000
,
0000
0000
0000
0000
,
1000
0100
0001
0000
0010
0000
0100
0000
,
1000
0010
0100
0000
0001
0000
0010
0000
,
0100
0010
1000
0000
0010
0000
0100
0000
,
1000
0010
0100
0000
0001
0000
0010
0000
,
0100
0010
0001
0000
0010
0000
1000
0000
,
0100
1000
0010
0000
1000
0000
0010
0000
,
1000
0001
0010
0000
0001
0000
0010
0000
,
0100
0010
1000
0000
0010
0000
0001
0000
,
1000
0010
0100
0000
0001
0000
0100
0000
,
0001
0100
0010
0000
0100
0000
0001
0000
,
0010
0100
0001
0000
1000
0000
0001
0000
,
0100
0010
1000
0000
0010
0000
1000
0000
,
0001
0010
1000
0000
0100
0000
1000
0000
,
0010
0100
0001
0000
1000
0000
0100
0000
,
0001
0010
0100
0000
0010
0000
1000
0000
,
0100
0010
0001
0000
1000
0000
0100
0000
,
0010
0001
0100
0000
1000
0000
0010
0000
,
0100
1000
0010
0000
0001
0000
0100
0000
,
0010
0100
0001
0000
1000
0000
0100
0000
,
0010
1000
0100
0000
1000
0000
0010
0000
,
0100
0001
1000
0000
0001
0000
0010
0000
,
0100
1000
0010
0000
0001
0000
0010
0000
,
1000
0001
0010
0000
0100
0000
0010
0000
,
1000
0100
0010
0000
0100
0000
0001
0000
,
0010
0100
1000
0000
0001
0000
0100
0000
,
0010
0001
0100
0000
0001
0000
0010
0000
,
0100
1000
0001
0000
0010
0000
1000
0000
,
0100
0010
1000
0000
0010
0000
0001
0000
,
1000
0010
0100
0000
0001
0000
0100
0000
,
1000
0010
0100
0000
0001
0000
0100
0000
,
1000
0010
0100
0000
1000
0000
0010
0000
,
0100
0001
0010
0000
0100
0000
0010
0000
,
0001
1000
0010
0000
0001
0000
0100
0000
,
0010
1000
0100
0000
0010
0000
0100
0000
,
1000
0001
0100
0000
1000
0000
0100
0000
,
0001
0010
0100
0000
0001
0000
0100
0000
,
1000
0010
0100
0000
0001
0000
0100
0000
,
1000
0010
0100
0000
0001
0000
0010
0000
,
0100
0001
0010
0000
0100
0000
1000
0000
,
0010
1000
0001
0000
0010
0000
0001
0000
,
0100
0010
1000
0000
0010
0000
0001
0000
,
0100
0010
1000
0000
0010
0000
0001
0000
,
1000
0100
0010
0000
0100
0000
1000
0000
,
0001
0010
0100
0000
0010
0000
0001
0000
,
0100
0010
1000
0000
0010
0000
0100
0000
,
1000
0010
0100
0000
0001
0000
0010
0000
,
0100
0001
0010
0000
1000
0000
0010
0000
,
0001
1000
0010
0000
0100
0000
0001
0000
,
0010
0001
0100
0000
1000
0000
0001
0000
,
0100
1000
0010
0000
0001
0000
0010
0000
,
1001
0000
0000
0000
;

//---------------dance-single - ----------------
#NOTES:
     dance-single:
     :
     Hard:
     8:
     0.434,0.444,0.132,0.244,0.103: // measure 1
0000
0000
0000
0000
,  // measure 2
0000
0000
0000
0000
,  // measure 3
0100
0010
0000
0000
0100
0010
0000
0000
1000
0100
0000
0000
1000
0100
0000
0000
,  // measure 4
0001
0010
0000
0000
0001
0010
0000
0000
1001
0000
0000
0000
0100
0000
0010
0000
,  // measure 5
1000
0100
0000
0020
0000
0130
1000
0001
,  // measure 6
0100
0100
0010
0010
,  // measure 7
1000
0100
1000
0000
0010
0000
0001
0000
0010
0000
0100
0000
1000
0000
0001
0000
,  // measure 8
0100
0000
0000
0000
1000
0000
0000
0000
0001
0000
0000
0000
1000
0001
0010
0000
,  // measure 9
0100
0010
0000
0200
0000
0310
1000
0001
,  // measure 10
0100
0010
0100
0010
,  // measure 11
1000
0000
0010
0000
0001
0000
0100
0000
0010
0001
0100
0000
1000
0000
0000
0000
,  // measure 12
0100
0000
0010
0000
1000
0000
0001
0000
0100
1000
0010
0000
0100
0000
0000
0000
,  // measure 13
0010
0100
0010
0000
0001
0000
0000
0000
1000
0000
0001
0000
1000
0000
0001
0000
,  // measure 14
0100
1000
0001
0000
0100
0000
1000
0000
,  // measure 15
1000
0100
0010
0001
1000
0100
0010
0001
,  // measure 16
0002
0000
0000
0000
0003
0000
0100
1000
,  // measure 17
1001
0000
0100
0000
0100
0000
0010
0100
,  // measure 18
1000
0001
0110
0000
1000
0001
0110
0000
,  // measure 19
2000
0000
0010
0000
3001
0000
0001
0010
,  // measure 20
0100
0000
1000
0100
0001
0000
0010
0100
,  // measure 21
1000
0001
0100
0010
0200
0000
0310
0000
,  // measure 22
1000
0001
1000
0000
0010
0000
0000
0000
0100
0000
0000
0000
0100
0000
0000
0000
,  // measure 23
1000
0100
0000
0000
0001
0000
0010
0000
0100
0000
0001
0000
1000
0000
0100
0000
,  // measure 24
0010
0000
0100
0000
0010
0000
1000
0001
,  // measure 25
0100
0010
0000
1002
0000
0100
0000
1000
,  // measure 26
0103
0000
0010
0100
0020
0000
0000
0000
0030
0000
0000
0000
0000
0000
0100
0000
,  // measure 27
1000
0001
0100
0010
0100
0100
1000
0000
,  // measure 28
0100
0010
1000
0001
0100
1000
0100
0010
,  // measure 29
1002
0000
1003
0100
,  // measure 30
2001
0000
3001
0010
,  // measure 31
0002
0000
0000
0100
0003
0000
0100
2000
,  // measure 32
0000
0000
0000
0000
3000
0000
0000
0100
,  // measure 33
0020
0000
0130
0100
,  // measure 34
0200
0000
0000
0000
0310
0000
0010
0100
,  // measure 35
0000
0000
0000
0000
0000
0000
0000
0010
1000
0000
0001
0000
0100
0000
0010
0000
,  // measure 36
0100
0000
0100
0000
0100
0010
1000
0001
,  // measure 37
1001
0000
0100
0000
1000
0001
0100
0000
,  // measure 38
1000
0100
0001
0100
0010
0100
1001
0000
,  // measure 39
0100
0100
0100
0010
0010
0010
1000
0001
,  // measure 40
2000
0000
3000
0000
0000
0000
0100
0010
,  // measure 41
2002
0000
3003
0000
0010
0000
1000
0001
,  // measure 42
0100
0000
0010
0000
0000
0000
0000
0000
0000
1000
0001
0000
0100
0000
0020
0000
,  // measure 43
0100
0000
1030
0000
0001
1000
0000
0000
0100
0000
0000
0000
0010
0000
0000
0000
,  // measure 44
0110
0000
0000
0000
0010
0000
0000
0000
0100
0000
0000
1000
0001
0000
0100
0000
,  // measure 45
0110
0000
0000
0000
1000
0001
0100
0000
0010
0000
0000
0100
0010
0000
1000
0000
,  // measure 46
0001
0100
0010
0100
1000
0001
0110
0000
,  // measure 47
1000
0001
0100
0010
1000
0001
0010
0100
,  // measure 48
2000
0000
0000
0000
0000
0000
0000
0000
3000
0020
0000
0000
0200
0030
0000
0000
,  // measure 49
0302
0000
0003
0000
0000
0100
0001
1000
,  // measure 50
0020
0000
0100
0000
0030
0000
0000
0000
0000
1000
0001
0000
0100
0000
0020
0000
,  // measure 51
0000
0130
1000
0001
0200
0000
0310
1000
,  // measure 52
0001
0010
0100
1000
,  // measure 53
2002
0000
3003
0000
;
