#TITLE:virtual insanity;
#SUBTITLE:;
#ARTIST:jamiroquai;
#TITLETRANSLIT:;
#SUBTITLETRANSLIT:;
#ARTISTTRANSLIT:;
#CREDIT:;
#BANNER:;
#BACKGROUND:;
#LYRICSPATH:;
#CDTITLE:;
#MUSIC:virtual insanity.mp3;
#OFFSET:0.000;
#SAMPLESTART:48.590;
#SAMPLELENGTH:12.000;
#SELECTABLE:YES;
#BPMS:0.000=92.000;
#STOPS:;
#BGCHANGES:;

//---------------dance-single - ----------------
#NOTES:
     dance-single:
     :
     Hard:
     10:
     0.744,0.761,0.519,0.676,0.679: // measure 1
0000
0020
0000
0000
0000
0230
0000
0000
,  // measure 2
0000
0020
0300
0000
0000
2000
0030
0000
,  // measure 3
0000
0002
0000
3000
0000
0203
0000
0000
,  // measure 4
0000
2300
0000
0000
0200
3320
0031
0100
,  // measure 5
0010
1000
0001
0100
0000
1000
0001
0010
,  // measure 6
0100
0001
1000
0100
0000
0001
1000
1001
,  // measure 7
0000
0000
1000
0000
0001
0000
1001
0000
0000
0000
0100
0000
1000
0001
0010
0000
,  // measure 8
0100
0000
0110
0000
0000
0000
1000
0100
0000
0002
0000
0000
0100
0000
1000
0000
,  // measure 9
0013
0000
0100
0000
1000
0000
0001
2000
0000
0000
0000
0000
3000
0000
0010
0000
,  // measure 10
1000
0000
0001
0100
1000
0000
0000
0000
0000
0000
0100
0000
0010
0000
1001
0000
,  // measure 11
0000
0000
0010
0000
0100
0000
1001
0000
0000
0000
1000
0000
0001
0000
0100
0001
,  // measure 12
0000
2000
0000
0000
3000
0011
0100
1000
,  // measure 13
0001
0100
1100
0000
0000
1010
0100
0001
,  // measure 14
1000
0000
0100
0000
0101
0000
0000
0000
0000
1000
0100
0010
0100
1000
0001
0000
,  // measure 15
0100
0000
1000
0000
0001
0000
0010
0100
0000
0000
0000
0000
2002
0000
0000
0000
,  // measure 16
3003
0000
0000
0010
0100
0010
0100
1000
0000
0002
0000
0100
1003
0010
0100
0000
,  // measure 17
0000
0000
0010
0000
0100
0001
0010
0100
0000
1000
0100
0010
0000
0001
0000
0010
,  // measure 18
0000
0100
0000
0010
0000
1000
0000
0100
0000
0001
0000
1000
0000
0010
0000
0100
,  // measure 19
0000
2000
0000
3010
0100
0001
1000
0010
0000
0000
2001
0000
3001
0000
0110
0000
,  // measure 20
0100
0000
1002
0000
1003
0000
0110
0000
0010
0000
1000
0000
0001
0010
0000
0100
,  // measure 21
0000
0020
0000
0130
1000
0000
0010
0000
0000
0000
1200
0000
1300
0000
0110
0000
,  // measure 22
0100
0000
0201
0000
0301
0000
0110
0000
0010
0000
1000
0100
0000
1000
0000
0001
,  // measure 23
0000
0200
0000
0310
0000
0001
0100
0000
0010
0000
2010
0000
3001
0000
0110
0000
,  // measure 24
1000
0000
0012
0000
1003
0000
0110
0000
0001
0000
0100
0001
0000
0010
0000
0100
,  // measure 25
0000
2000
0000
0000
3100
0001
0000
0100
0000
0020
0000
0030
0100
0000
1000
0000
,  // measure 26
0001
0000
0200
0020
0000
0000
0330
0000
0000
1000
0000
0001
0000
1000
0000
0001
,  // measure 27
0000
2002
0000
3003
0000
0000
0100
0010
0000
2000
0000
0000
3100
0000
0001
0000
,  // measure 28
0010
0100
0001
1000
0000
0100
1000
0001
,  // measure 29
0010
0000
0001
1000
0100
0000
1000
0000
0000
0000
0010
0000
0100
0000
1000
0000
,  // measure 30
0000
0000
0100
0000
0010
0000
0001
0000
0000
0020
0000
0000
0130
0000
1000
0000
,  // measure 31
0001
0000
0110
0000
0000
0000
0000
0000
0100
0002
0000
0000
0003
1000
0000
0010
,  // measure 32
0000
0200
0000
0000
0020
0000
0330
0000
2000
0000
0000
0000
3010
0000
0100
0010
,  // measure 33
0001
0000
0000
1000
0000
0000
0000
0000
0010
0000
0000
0000
0000
0000
0001
0000
0000
0000
0000
0000
0100
0000
0000
0000
0000
0000
1000
0000
0000
0000
0010
0000
0000
0000
0000
0000
0001
0000
0000
0000
0000
0000
0100
0000
0000
0000
0000
0000
,  // measure 34
0000
1000
0010
0100
0001
2000
0000
3000
,  // measure 35
0000
0100
0010
0100
0010
1000
0001
0000
0100
0000
2000
0000
0000
0000
3000
0000
,  // measure 36
0000
0001
0010
0100
1000
0100
0010
0000
0100
0000
0002
0000
0000
0000
0003
0000
,  // measure 37
0000
0100
1000
0010
0001
0100
0010
0000
1000
0000
0001
0000
0100
0000
1000
0000
,  // measure 38
0001
0000
2000
0000
3002
0000
0000
0000
0003
0010
0000
1001
0000
0110
0000
0000
,  // measure 39
0000
1000
0010
0000
0100
0000
0001
0000
0010
0001
1000
0010
0100
0000
0000
0100
,  // measure 40
0010
1000
0001
1000
0001
1000
0001
0010
,  // measure 41
0100
1000
0001
0010
0100
0210
0310
1001
,  // measure 42
0010
0000
0120
0000
0130
0000
1001
0000
0100
0000
1000
0000
0010
0100
0000
1000
,  // measure 43
0000
0002
0000
0003
0010
1000
0000
0010
0000
0000
2010
0000
3100
0000
1010
0000
,  // measure 44
0100
0000
0102
0000
0013
0000
0101
0000
0010
0000
1000
0001
0000
0010
0000
1000
,  // measure 45
0000
0020
0000
0030
0100
0001
0000
0100
0000
0000
1002
0000
1003
0000
0110
0000
,  // measure 46
0100
0000
2001
0000
3001
0000
0110
0000
0010
0000
0100
1000
0000
0001
0000
0100
,  // measure 47
0000
0020
0000
0030
1000
0001
0000
0000
0200
0020
0000
0330
0100
0000
1000
0000
,  // measure 48
0001
0000
0100
0010
0000
0000
0000
1000
0001
0100
0000
0010
0000
0100
0000
0010
,  // measure 49
0000
1001
0000
0000
0000
0100
0000
0000
0000
0000
0001
0000
0100
0000
2000
0000
,  // measure 50
0000
3010
0001
0200
0000
1300
0001
0020
,  // measure 51
0000
0130
1000
0002
0000
0103
1000
1001
,  // measure 52
0000
0010
0100
0101
0000
1000
0100
1010
,  // measure 53
0000
0100
0001
0110
0000
0220
0000
0330
,  // measure 54
0000
1100
0000
1010
0000
0011
0000
0101
,  // measure 55
0000
1001
0000
0110
0000
1001
0000
0200
,  // measure 56
0000
0020
0000
0000
0330
0000
0000
1000
0002
0000
0000
0000
0003
0200
0020
0000
,  // measure 57
0330
0000
1000
0001
0100
0010
1000
0001
0100
0000
0021
0000
0000
0000
0000
0000
,  // measure 58
0000
0230
0000
0000
0000
2300
0000
0000
,  // measure 59
0000
0000
3002
0000
0000
0000
0000
0000
0000
0100
1003
0000
0000
0100
1000
0000
,  // measure 60
0000
0010
0001
0000
0000
0010
0001
0000
0000
0100
0010
0000
0000
0010
0100
0000
,  // measure 61
0000
1000
0002
0000
0000
0000
0000
0000
0000
0000
0203
0000
0000
0000
0000
0000
,  // measure 62
0000
0320
0000
0000
0000
2030
0000
0000
,  // measure 63
0000
0000
3010
0001
0100
0010
1001
0100
0010
0000
0110
0000
0000
0000
0000
0000
,  // measure 64
0000
0100
1000
0001
0100
0010
0100
1000
0100
0000
0021
0000
0130
0000
1100
0000
,  // measure 65
0001
0000
1020
0000
0130
0000
0101
0000
1000
0000
0100
0000
0001
1000
0000
0010
,  // measure 66
0000
0200
0000
0300
1000
0001
0000
0100
0000
0000
0210
0000
1300
0000
1001
0000
,  // measure 67
0010
0000
0120
0000
0031
0000
1001
0000
0100
0000
1000
0100
0000
0010
0000
1000
,  // measure 68
0000
0002
0000
0003
0010
0200
0000
0300
1000
0000
0110
0000
0110
0000
1001
0000
,  // measure 69
0110
0000
1100
0000
1010
0000
0011
0000
0101
0000
1000
0001
0000
1000
0000
0010
,  // measure 70
0000
0200
0000
0300
1000
0001
0000
0200
0000
0020
0030
0300
1000
0001
0000
0110
,  // measure 71
0000
0002
2000
0000
3003
0000
0000
0100
0010
1000
0000
0100
0000
0010
0000
0001
,  // measure 72
0000
1001
0000
0000
0000
0020
0030
0000
0000
0000
1000
0100
0010
0000
0100
0010
,  // measure 73
0001
0000
0001
0010
0100
0000
0010
0100
1000
0000
0100
0010
0001
0000
0010
0100
,  // measure 74
1000
0000
0001
0010
0100
0000
1000
0100
0010
0000
1000
0100
1000
0000
0001
0010
,  // measure 75
0001
0000
0100
0010
0100
0000
0010
0100
0010
0000
1000
0001
1000
0000
0001
1000
,  // measure 76
0001
0000
0100
1000
0010
0001
0100
0010
1000
0000
0210
0000
0000
0000
0010
0010
,  // measure 77
0310
0000
0000
0000
1000
0001
0000
0100
0000
0020
0000
0000
0030
0000
0000
0000
,  // measure 78
0000
0001
0010
0100
1000
0100
0010
0001
0100
0000
0120
0000
0000
0000
0100
0100
,  // measure 79
0130
0000
0000
0000
1000
0001
0000
0010
0000
0200
0000
0000
0300
0000
0000
0000
,  // measure 80
2002
0000
3003
0000
0000
1000
0000
0001
0000
0010
2001
0000
0000
0000
0000
0000
,  // measure 81
3000
0000
0002
0000
0000
0000
0000
0000
0003
0000
0100
0000
0000
0010
0001
0000
,  // measure 82
0000
0010
0000
0001
0000
0000
0100
1000
0000
0000
0100
0000
0020
0000
0000
0000
,  // measure 83
0230
0000
0000
0000
2300
0000
0000
0000
3000
0002
0000
0000
0003
0000
0200
0000
,  // measure 84
0000
0000
0000
0300
0000
0000
0000
0000
0000
0020
0000
0000
0000
0000
0030
0000
,  // measure 85
0000
0000
0000
0000
0000
0000
1000
0100
0010
0002
0000
0000
0000
0000
0000
0000
,  // measure 86
0000
0000
0000
0003
;
