#TITLE:travelling without moving;
#SUBTITLE:;
#ARTIST:jamiroquai;
#TITLETRANSLIT:;
#SUBTITLETRANSLIT:;
#ARTISTTRANSLIT:;
#CREDIT:;
#BANNER:travelling without moving.png;
#BACKGROUND:travelling without moving-bg.png;
#LYRICSPATH:;
#CDTITLE:;
#MUSIC:travelling without moving.mp3;
#OFFSET:0.000;
#SAMPLESTART:0.050;
#SAMPLELENGTH:12.000;
#SELECTABLE:YES;
#BPMS:0.000=128.580;
#STOPS:;
#BGCHANGES:;

//---------------dance-single - ----------------
#NOTES:
     dance-single:
     :
     Beginner:
     2:
     0.151,0.158,0.009,0.000,0.000:
0000
0000
0000
0000
,
1000
0000
0001
0000
,
0100
0000
0010
0000
,
1000
0000
0100
0000
,
1000
0000
0001
0000
,
0010
0000
0100
0000
,
0010
0000
1000
0000
,
0001
0000
0100
0000
,
0010
0000
1000
0000
,
0100
0000
1000
0000
,
0001
0000
0100
0000
,
0010
0000
0001
0000
,
1000
0000
0010
0000
,
0100
0000
0001
0000
,
1000
0000
0001
0000
,
1000
0000
0100
0000
,
1000
0000
0100
0000
,
1000
0000
0010
0000
,
0001
0000
0010
0000
,
0001
0000
0010
0000
,
1000
0000
0010
0000
,
1000
0000
0100
0000
,
0001
0000
0100
0000
,
0001
0000
1000
0000
,
1000
0000
0001
0000
,
0001
0000
1000
0000
,
0001
0000
1000
0000
,
0001
0000
0100
0000
,
0100
0000
0010
0000
,
0010
0000
0100
0000
,
0010
0000
0100
0000
,
0010
0000
1000
0000
,
0100
0000
0010
0000
,
0001
0000
1000
0000
,
0001
0000
1000
0000
,
0001
0000
0001
0000
,
0010
0000
0100
0000
,
1000
0000
0001
0000
,
1000
0000
0001
0000
,
1000
0000
0100
0000
,
0010
0000
0001
0000
,
0001
0000
0001
0000
,
0010
0000
0100
0000
,
1000
0000
1000
0000
,
0010
0000
0100
0000
,
1000
0000
0100
0000
,
0010
0000
0100
0000
,
0001
0000
0010
0000
,
0100
0000
1000
0000
,
0001
0000
0010
0000
,
1000
0000
0001
0000
,
0100
0000
0001
0000
,
0100
0000
1000
0000
,
0010
0000
1000
0000
,
0010
0000
0001
0000
,
0100
0000
1000
0000
,
0001
0000
0110
0000
,
0010
0000
0100
0000
,
0010
0000
0000
0000
;

//---------------dance-single - Copied from----------------
#NOTES:
     dance-single:
     Copied from:
     Easy:
     4:
     0.299,0.264,0.009,0.000,0.000:
0000
0000
0000
0000
,
1000
0010
0001
0010
,
0100
1000
0010
0001
,
1000
0010
0100
0010
,
1000
0010
0001
0100
,
0010
0001
0100
1000
,
0010
0100
1000
0100
,
0001
0010
0100
1000
,
0010
0001
1000
0010
,
0100
0010
1000
0010
,
0001
0010
0100
0001
,
0010
1000
0001
0010
,
1000
0100
0010
1000
,
0100
1000
0001
0100
,
1000
0100
0001
0010
,
1000
0001
0100
0001
,
1000
0010
0100
0010
,
1000
0100
0010
0100
,
0001
0100
0010
0100
,
0001
0100
0010
0100
,
1000
0100
0010
0100
,
1000
0010
0100
0010
,
0001
0010
0100
0010
,
0001
0010
1000
0010
,
1000
0010
0001
0010
,
0001
0010
1000
0010
,
0001
0010
1000
0010
,
0001
0010
0100
0010
,
0100
1000
0010
0001
,
0010
1000
0100
0001
,
0010
0001
0100
1000
,
0010
0100
1000
0010
,
0100
0001
0010
1000
,
0001
0100
1000
0100
,
0001
0100
1000
0100
,
0001
0100
0001
0100
,
0010
1000
0100
0001
,
1000
0010
0001
0010
,
1000
0010
0001
0010
,
1000
0010
0100
0001
,
0010
1000
0001
0100
,
0001
0100
0001
0100
,
0010
1000
0100
0001
,
1000
0100
1000
0100
,
0010
1000
0100
0001
,
1000
0010
0100
0001
,
0010
1000
0100
1000
,
0001
0100
0010
0001
,
0100
0010
1000
0010
,
0001
0100
0010
0100
,
1000
0100
0001
0010
,
0100
0010
0001
0010
,
0100
0010
1000
0100
,
0010
0100
1000
0100
,
0010
0100
0001
0010
,
0100
0010
1000
0010
,
0001
0010
0110
0100
,
0010
1000
0100
0001
,
0010
0000
0000
0000
;

//---------------dance-single - Copied from Copied f----------------
#NOTES:
     dance-single:
     Copied from Copied f:
     Medium:
     6:
     0.373,0.316,0.009,0.000,0.000:
0000
0000
0000
0000
,
1000
0100
0010
0000
0001
0000
0010
0000
,
0100
0010
1000
0000
0010
0000
0001
0000
,
1000
0100
0010
0000
0100
0000
0010
0000
,
1000
0100
0010
0000
0001
0000
0100
0000
,
0010
0100
0001
0000
0100
0000
1000
0000
,
0010
0001
0100
0000
1000
0000
0100
0000
,
0001
1000
0010
0000
0100
0000
1000
0000
,
0010
0100
0001
0000
1000
0000
0010
0000
,
0100
0001
0010
0000
1000
0000
0010
0000
,
0001
1000
0010
0000
0100
0000
0001
0000
,
0010
0100
1000
0000
0001
0000
0010
0000
,
1000
0010
0100
0000
0010
0000
1000
0000
,
0100
0010
1000
0000
0001
0000
0100
0000
,
1000
0010
0100
0000
0001
0000
0010
0000
,
1000
0010
0001
0000
0100
0000
0001
0000
,
1000
0100
0010
0000
0100
0000
0010
0000
,
1000
0010
0100
0000
0010
0000
0100
0000
,
0001
0010
0100
0000
0010
0000
0100
0000
,
0001
0010
0100
0000
0010
0000
0100
0000
,
1000
0010
0100
0000
0010
0000
0100
0000
,
1000
0100
0010
0000
0100
0000
0010
0000
,
0001
0100
0010
0000
0100
0000
0010
0000
,
0001
0100
0010
0000
1000
0000
0010
0000
,
1000
0100
0010
0000
0001
0000
0010
0000
,
0001
0100
0010
0000
1000
0000
0010
0000
,
0001
0100
0010
0000
1000
0000
0010
0000
,
0001
0100
0010
0000
0100
0000
0010
0000
,
0100
0010
1000
0000
0010
0000
0001
0000
,
0010
0100
1000
0000
0100
0000
0001
0000
,
0010
0100
0001
0000
0100
0000
1000
0000
,
0010
0001
0100
0000
1000
0000
0010
0000
,
0100
1000
0001
0000
0010
0000
1000
0000
,
0001
0010
0100
0000
1000
0000
0100
0000
,
0001
0010
0100
0000
1000
0000
0100
0000
,
0001
0010
0100
0000
0001
0000
0100
0000
,
0010
0100
1000
0000
0100
0000
0001
0000
,
1000
0100
0010
0000
0001
0000
0010
0000
,
1000
0100
0010
0000
0001
0000
0010
0000
,
1000
0100
0010
0000
0100
0000
0001
0000
,
0010
0100
1000
0000
0001
0000
0100
0000
,
0001
0010
0100
0000
0001
0000
0100
0000
,
0010
0100
1000
0000
0100
0000
0001
0000
,
1000
0010
0100
0000
1000
0000
0100
0000
,
0010
0100
1000
0000
0100
0000
0001
0000
,
1000
0100
0010
0000
0100
0000
0001
0000
,
0010
0100
1000
0000
0100
0000
1000
0000
,
0001
0010
0100
0000
0010
0000
0001
0000
,
0100
0001
0010
0000
1000
0000
0010
0000
,
0001
1000
0100
0000
0010
0000
0100
0000
,
1000
0010
0100
0000
0001
0000
0010
0000
,
0100
0001
0010
0000
0001
0000
0010
0000
,
0100
1000
0010
0000
1000
0000
0100
0000
,
0010
1000
0100
0000
1000
0000
0100
0000
,
0010
0001
0100
0000
0001
0000
0010
0000
,
0100
0001
0010
0000
1000
0000
0010
0000
,
0001
1000
0010
0000
0110
0000
0100
0000
,
0010
0100
1000
0000
0100
0000
0001
0000
,
0010
0000
0000
0000
;

//---------------dance-single - ----------------
#NOTES:
     dance-single:
     :
     Hard:
     9:
     0.475,0.554,0.336,0.291,0.123: // measure 1
0000
0000
0000
0000
,  // measure 2
0100
1000
0001
0100
0010
1000
0100
0001
,  // measure 3
0100
0000
0010
0000
0000
0000
0000
0000
0000
0000
0000
0010
1000
0000
0100
0000
,  // measure 4
0001
0010
0000
0000
0000
0000
1001
0000
,  // measure 5
0110
1000
0001
0100
,  // measure 6
0010
1000
0001
0100
0010
1000
0100
0001
,  // measure 7
0100
0000
1000
0000
0000
0000
0000
0000
0000
0000
0000
0000
0000
0010
1000
0000
,  // measure 8
0001
0100
0000
0010
0000
1000
0000
0110
,  // measure 9
0000
1001
0000
0010
1000
0001
0100
0010
,  // measure 10
0000
0100
1000
0001
0100
0010
1000
0001
,  // measure 11
0100
0000
0010
0000
0100
0000
0000
0000
0000
0000
0000
0000
0000
0010
1000
0000
,  // measure 12
0001
0100
0010
0000
0000
0100
0000
1100
,  // measure 13
0000
0011
0000
0000
1000
0001
0100
0010
,  // measure 14
0100
0000
0010
1000
0001
0100
0010
1000
,  // measure 15
0001
0100
0010
1000
0000
0000
1100
0000
,  // measure 16
1010
0000
0101
0000
0011
0000
1000
0100
,  // measure 17
0010
0001
0110
0000
0010
1000
0001
0100
,  // measure 18
0000
0000
0010
1000
0001
0100
0010
1000
,  // measure 19
0001
0000
0001
0100
0010
1000
0000
0000
,  // measure 20
1000
0001
0100
0010
0100
0000
1000
0000
,  // measure 21
0001
0000
0100
1000
0001
0000
0010
0000
,  // measure 22
0100
0000
0000
0010
1000
0000
0001
0000
0100
0000
0010
0000
1000
0000
0100
0000
,  // measure 23
0010
1000
0220
0000
0330
0000
0100
0000
,  // measure 24
0100
0000
0010
1000
0001
0100
0010
1000
,  // measure 25
0100
0000
1001
0000
0100
0000
0001
1000
,  // measure 26
0001
0100
1000
0001
0100
0010
1000
0100
,  // measure 27
0010
0100
0020
0000
0030
0000
1000
0000
,  // measure 28
0001
0000
0100
0000
1000
0000
0100
0010
,  // measure 29
0100
2002
3003
0100
,  // measure 30
0010
0000
1000
0001
0100
0010
1000
0001
,  // measure 31
0100
2002
3003
0100
,  // measure 32
0010
0000
0000
1000
0001
0100
0010
1000
,  // measure 33
0001
0100
0000
0120
0000
0000
0001
0000
,  // measure 34
0130
0210
1000
0001
,  // measure 35
0310
2001
0100
0010
,  // measure 36
3001
1002
0010
0100
,  // measure 37
1003
2010
3010
0102
,  // measure 38
0103
0120
0130
0210
,  // measure 39
0310
2010
3010
0012
,  // measure 40
0013
2100
3100
0102
,  // measure 41
0103
0000
1001
0010
0100
0000
1001
0100
,  // measure 42
0010
0000
0110
1000
0100
0000
0110
0001
,  // measure 43
0010
0000
0000
0000
0100
1000
0100
1000
0100
0000
0000
0000
0010
0001
0010
0001
,  // measure 44
0010
0000
0000
0000
1000
0001
1000
0001
1000
0000
0000
0000
0001
1000
0001
1000
,  // measure 45
0001
0220
0330
2002
,  // measure 46
3003
2200
3300
0202
,  // measure 47
0303
0000
0000
0000
0010
1000
0000
0000
0001
0100
0000
0000
0010
1000
0000
0000
,  // measure 48
0001
0100
0000
0000
0010
0100
0000
0000
1000
0001
0000
0000
0100
0010
0000
0000
,  // measure 49
1000
0100
0000
0000
0020
0000
0000
0000
0000
0000
0000
0000
0000
0000
0000
0000
,  // measure 50
0030
0000
1000
0001
0100
0010
1000
0001
,  // measure 51
0100
0000
0010
0000
1000
0000
0100
0010
0100
0000
0000
0000
0000
0000
0000
0000
,  // measure 52
0000
0000
0010
0100
0000
0100
0010
0000
0000
0000
0000
0000
0000
0000
0000
0000
,  // measure 53
0000
0000
0000
0002
0000
0000
0000
2000
0003
0000
0000
0000
0000
0000
3000
0000
,  // measure 54
0000
0000
0000
0000
0100
1000
0001
0100
,  // measure 55
0010
1000
0001
0100
0010
0100
0000
0000
,  // measure 56
0000
0000
0000
0000
1000
0100
0000
0010
0001
0000
0000
0000
0000
0000
0000
0000
,  // measure 57
0000
0000
0010
0000
0110
0000
0100
1000
,  // measure 58
0001
0100
0010
0000
0220
0000
0000
0000
,  // measure 59
0330
0000
0000
0000
;
