#TITLE:love foolosophy;
#SUBTITLE:;
#ARTIST:jamiroquai;
#TITLETRANSLIT:;
#SUBTITLETRANSLIT:;
#ARTISTTRANSLIT:;
#CREDIT:;
#BANNER:love foolosophy.png;
#BACKGROUND:love foolosophy-bg.jpg;
#LYRICSPATH:;
#CDTITLE:;
#MUSIC:love foolosophy.mp3;
#OFFSET:-0.820;
#SAMPLESTART:100.050;
#SAMPLELENGTH:12.000;
#SELECTABLE:YES;
#BPMS:0.000=129.280;
#STOPS:;
#BGCHANGES:;

//---------------dance-single - ----------------
#NOTES:
     dance-single:
     :
     Beginner:
     3:
     0.142,0.124,0.027,0.000,0.000:
0000
0000
0000
0000
0000
0000
0000
1000
,
0000
0000
0000
1000
0000
0000
0000
0001
,
0000
0000
0000
0001
0000
0000
0000
0100
,
0000
0000
0000
0100
0000
0000
0000
0010
,
0000
0000
0000
0010
0000
0000
0000
1000
,
0000
0000
0000
0100
0000
0000
0000
0010
,
0000
0000
0000
0001
0000
0000
0000
0010
,
0000
0000
0000
0100
0000
0000
0000
1000
,
0000
0000
0000
1000
0000
0000
0000
0100
,
0000
0000
0000
0010
0000
0000
0000
0100
,
0000
0000
0000
0010
0000
0000
0000
0100
,
0000
0000
0000
0010
0000
0000
0000
1001
,
0000
0000
0000
0000
,
0000
1000
0000
0000
0000
0001
0000
0000
,
0000
1000
0000
0000
0000
0001
0000
0000
,
0000
1000
0000
0000
0000
0100
0000
0000
,
0000
0001
0000
0000
0000
0010
0000
0000
,
0000
1000
0000
0000
0000
1000
0000
0000
,
0000
0001
0000
0000
0000
0001
0000
0000
,
0000
0100
0000
0000
0000
0001
0000
0000
,
0000
0100
0000
0000
0000
1000
0000
0000
,
0000
0100
0000
0000
0000
0100
0000
0000
,
0000
0100
0000
0000
0000
0100
0000
0000
,
0000
0010
0000
0000
0000
0010
0000
0000
,
0000
0010
0000
0000
0000
0010
0000
0000
,
0000
1000
0000
0000
0000
1000
0000
0000
,
0000
0100
0000
0000
0000
0100
0000
0000
,
0000
1000
0000
0000
0000
0001
0000
0000
,
0000
0001
0000
0000
0000
0001
0000
0000
,
0000
0100
0000
0000
0000
0010
0000
0000
,
0000
0001
0000
0000
0000
1000
0000
0000
,
0000
0001
0000
0000
0000
1000
0000
0000
,
0000
0001
0000
0000
0000
1000
0000
0000
,
0000
0100
0000
0000
0000
0100
0000
0000
,
0000
0010
0000
0000
0000
0010
0000
0000
,
0000
1000
0000
0000
0000
1000
0000
0000
,
0000
0001
0000
0000
0000
0001
0000
0000
,
0000
0010
0000
0000
0000
0100
0000
0000
,
0000
0010
0000
0000
0000
0100
0000
0000
,
0000
1000
0000
0000
0000
1000
0000
0000
,
0000
0001
0000
0000
0000
1001
0000
0000
,
0000
0000
0000
0000
0000
0000
0000
0010
,
0000
0000
0000
1000
0000
0000
0000
0100
,
0000
0000
0000
0001
0000
0000
0000
0100
,
0000
0000
0000
1000
0000
0000
0000
0010
,
0000
0000
0000
0010
0000
0000
0000
0100
,
0000
0000
0000
0100
0000
0000
0000
1000
,
0000
0000
0000
0001
0000
0000
0000
1000
,
0000
0000
0000
0001
0000
0000
0000
1000
,
0000
0000
0000
0100
0000
0000
0000
0100
,
0000
0000
0000
0010
0000
0000
0000
0010
,
0000
0000
0000
1000
0000
0000
0000
1000
,
0000
0000
0000
0001
0000
0000
0000
0001
,
0000
0000
0000
0010
0000
0000
0000
0100
,
0000
0000
0000
0100
0000
0000
0000
0010
,
0000
0000
0000
1000
0000
0000
0000
0001
,
0000
0000
0000
0001
0000
0000
0000
1001
,
0000
0000
0000
0100
0000
0000
0000
0100
,
0000
0000
0000
0010
0000
0000
0000
0010
,
0000
0000
0000
1000
0000
0000
0000
1000
,
0000
0000
0000
0001
0000
0000
0000
0001
,
0000
0000
0000
0100
0000
0000
0000
0100
,
0000
0000
0000
0010
0000
0000
0000
0010
,
0000
0000
0000
1000
0000
0000
0000
1000
,
0000
0000
0000
0001
0000
0000
0000
0001
,
0000
0000
0000
0100
0000
0000
0000
0100
,
0000
0000
0000
0010
0000
0000
0000
0010
,
0000
0000
0000
1000
0000
0000
0000
1000
,
0000
0000
0000
0001
0000
0000
0000
0001
,
0000
0000
0000
0100
0000
0000
0000
0100
,
0000
0000
0000
0010
0000
0000
0000
0010
,
0000
0000
0000
1000
0000
0000
0000
0001
,
0000
0000
0000
0001
0000
0000
0000
1001
;

//---------------dance-single - Copied from----------------
#NOTES:
     dance-single:
     Copied from:
     Easy:
     5:
     0.270,0.199,0.027,0.000,0.000:
0000
0000
0000
0000
0000
0000
0000
1000
,
0000
0001
0000
1000
0000
0000
0000
0001
,
0000
1000
0000
0001
0000
0000
0000
0100
,
0000
0010
0000
0100
0000
0000
0000
0010
,
0000
0100
0000
0010
0000
0000
0000
1000
,
0000
0001
0000
0100
0000
1000
0000
0010
,
0000
1000
0000
0001
0000
1000
0000
0010
,
0000
0001
0000
0100
0000
0001
0000
1000
,
0000
0001
0000
1000
0000
0010
0000
0100
,
0000
0100
0000
0010
0000
0010
0000
0100
,
0000
0100
0000
0010
0000
1000
0000
0100
,
0000
0001
0000
0010
0000
0000
0000
1001
,
0000
0000
0000
0000
,
0000
1000
0000
1000
0000
0001
0000
0001
,
0000
1000
0000
0100
0000
0001
0000
0010
,
0000
1000
0000
0100
0000
0100
0000
0010
,
0000
0001
0000
0010
0000
0010
0000
0001
,
0000
1000
0000
0001
0000
1000
0000
0100
,
0000
0001
0000
0100
0000
0001
0000
0010
,
0000
0100
0000
0010
0000
0001
0000
1000
,
0000
0100
0000
0001
0000
1000
0000
1000
,
0000
0100
0000
0001
0000
0100
0000
1000
,
0000
0100
0000
0001
0000
0100
0000
1000
,
0000
0010
0000
0100
0000
0010
0000
0100
,
0000
0010
0000
0100
0000
0010
0000
0010
,
0000
1000
0000
0001
0000
1000
0000
0001
,
0000
0100
0000
0001
0000
0100
0000
0001
,
0000
1000
0000
1000
0000
0001
0000
1000
,
0000
0001
0000
1000
0000
0001
0000
1000
,
0000
0100
0000
1000
0000
0010
0000
0100
,
0000
0001
0000
0010
0000
1000
0000
0100
,
0000
0001
0000
0010
0000
1000
0000
0100
,
0000
0001
0000
0010
0000
1000
0000
0001
,
0000
0100
0000
1000
0000
0100
0000
0001
,
0000
0010
0000
1000
0000
0010
0000
0001
,
0000
1000
0000
0001
0000
1000
0000
1000
,
0000
0001
0000
1000
0000
0001
0000
0100
,
0000
0010
0000
1000
0000
0100
0000
0001
,
0000
0010
0000
1000
0000
0100
0000
0001
,
0000
1000
0000
0001
0000
1000
0000
1000
,
0000
0001
0000
1000
0000
1001
0000
0000
,
0000
0000
0000
0000
0000
0000
0000
0010
,
0000
0100
0000
1000
0000
0100
0000
0100
,
0000
0100
0000
0001
0000
0100
0000
0100
,
0000
0010
0000
1000
0000
0010
0000
0010
,
0000
0010
0000
0010
0000
0010
0000
0100
,
0000
0010
0000
0100
0000
0010
0000
1000
,
0000
1000
0000
0001
0000
0001
0000
1000
,
0000
1000
0000
0001
0000
0001
0000
1000
,
0000
1000
0000
0100
0000
0001
0000
0100
,
0000
1000
0000
0010
0000
0001
0000
0010
,
0000
1000
0000
1000
0000
0001
0000
1000
,
0000
1000
0000
0001
0000
0001
0000
0001
,
0000
1000
0000
0010
0000
0010
0000
0100
,
0000
0010
0000
0100
0000
0100
0000
0010
,
0000
0100
0000
1000
0000
0010
0000
0001
,
0000
1000
0000
0001
0000
1000
0000
1001
,
0000
0000
0000
0100
0000
0001
0000
0100
,
0000
0000
0000
0010
0000
1000
0000
0010
,
0000
0001
0000
1000
0000
0001
0000
1000
,
0000
0100
0000
0001
0000
1000
0000
0001
,
0000
1000
0000
0100
0000
0010
0000
0100
,
0000
1000
0000
0010
0000
0001
0000
0010
,
0000
0001
0000
1000
0000
0001
0000
1000
,
0000
1000
0000
0001
0000
1000
0000
0001
,
0000
1000
0000
0100
0000
0010
0000
0100
,
0000
1000
0000
0010
0000
0001
0000
0010
,
0000
0100
0000
1000
0000
0010
0000
1000
,
0000
0100
0000
0001
0000
0010
0000
0001
,
0000
1000
0000
0100
0000
0001
0000
0100
,
0000
1000
0000
0010
0000
0001
0000
0010
,
0000
0100
0000
1000
0000
0100
0000
0001
,
0000
0100
0000
0001
0000
0100
0000
1001
;

//---------------dance-single - Copied from Copied f----------------
#NOTES:
     dance-single:
     Copied from Copied f:
     Medium:
     7:
     0.339,0.273,0.027,0.000,0.000:
0000
0000
0000
0000
0000
0000
0000
1000
,
0100
0001
0000
1000
0000
0000
0000
0001
,
0100
1000
0000
0001
0000
0000
0000
0100
,
1000
0010
0000
0100
0000
0000
0000
0010
,
1000
0100
0000
0010
0000
0000
0000
1000
,
0010
0001
0000
0100
0000
1000
0000
0010
,
0001
1000
0000
0001
0000
1000
0000
0010
,
1000
0001
0000
0100
0000
0001
0000
1000
,
0000
0001
0100
1000
0000
0010
0000
0100
,
0001
0100
0000
0010
0000
0010
0000
0100
,
0010
0100
0000
0010
0000
1000
0000
0100
,
0010
0001
0000
0010
0000
0000
0000
1001
,
0000
0000
0000
0000
,
0010
1000
0000
1000
0000
0001
0000
0001
,
0100
1000
0000
0100
0000
0001
0000
0010
,
0100
1000
0000
0100
0000
0100
0000
0010
,
0100
0001
0000
0010
0000
0010
0000
0001
,
0100
1000
0000
0001
0000
1000
0000
0100
,
0010
0001
0000
0100
0000
0001
0000
0010
,
1000
0100
0000
0010
0000
0001
0000
1000
,
0001
0100
0000
0001
0000
1000
0000
1000
,
0010
0100
0000
0001
0000
0100
0000
1000
,
0010
0100
0000
0001
0000
0100
0000
1000
,
0100
0010
0000
0100
0000
0010
0000
0100
,
1000
0010
0000
0100
0000
0010
0000
0010
,
0001
1000
0000
0001
0000
1000
0000
0001
,
0010
0100
0000
0001
0000
0100
0000
0001
,
0010
1000
0000
1000
0000
0001
0000
1000
,
0010
0001
0000
1000
0000
0001
0000
1000
,
0010
0100
0000
1000
0000
0010
0000
0100
,
0010
0001
0000
0010
0000
1000
0000
0100
,
1000
0001
0000
0010
0000
1000
0000
0100
,
1000
0001
0000
0010
0000
1000
0000
0001
,
1000
0100
0000
1000
0000
0100
0000
0001
,
0001
0010
0000
1000
0000
0010
0000
0001
,
0010
1000
0000
0001
0000
1000
0000
1000
,
0010
0001
0000
1000
0000
0001
0000
0100
,
0001
0010
0000
1000
0000
0100
0000
0001
,
0100
0010
0000
1000
0000
0100
0000
0001
,
0100
1000
0000
0001
0000
1000
0000
1000
,
0010
0001
0000
1000
0000
1001
0000
0000
,
0000
0000
0000
0000
0000
0000
0000
0010
,
0001
0100
0000
1000
0000
0100
0000
0100
,
0000
0100
0010
0001
0000
0100
0000
0100
,
1000
0010
0000
1000
0000
0010
0000
0010
,
0100
0010
0000
0010
0000
0010
0000
0100
,
0001
0010
0000
0100
0000
0010
0100
1000
,
0000
1000
0000
0001
0000
0001
0000
1000
,
0010
1000
0000
0001
0000
0001
0000
1000
,
0100
1000
0000
0100
0000
0001
0000
0100
,
0010
1000
0000
0010
0000
0001
0000
0010
,
0100
1000
0000
1000
0000
0001
0000
1000
,
0010
1000
0000
0001
0000
0001
0000
0001
,
0100
1000
0000
0010
0000
0010
0000
0100
,
1000
0010
0000
0100
0000
0100
0000
0010
,
0001
0100
0000
1000
0000
0010
0000
0001
,
0100
1000
0000
0001
0000
1000
0000
1001
,
0100
0000
0000
0100
0000
0001
0000
0100
,
1000
0000
0000
0010
0000
1000
0000
0010
,
0100
0001
0000
1000
0000
0001
0000
1000
,
0010
0100
0000
0001
0000
1000
0000
0001
,
0010
1000
0000
0100
0000
0010
0000
0100
,
0010
1000
0000
0010
0000
0001
0000
0010
,
0100
0001
0000
1000
0000
0001
0000
1000
,
0010
1000
0000
0001
0000
1000
0000
0001
,
0100
1000
0000
0100
0000
0010
0000
0100
,
0010
1000
0000
0010
0000
0001
0000
0010
,
1000
0100
0000
1000
0000
0010
0000
1000
,
0001
0100
0000
0001
0000
0010
0000
0001
,
0100
1000
0000
0100
0000
0001
0000
0100
,
0010
1000
0000
0010
0000
0001
0000
0010
,
0001
0100
0000
1000
0000
0100
0000
0001
,
1000
0100
0000
0001
0000
0100
0000
1001
;

//---------------dance-single - ----------------
#NOTES:
     dance-single:
     :
     Hard:
     10:
     0.469,0.500,0.198,0.511,0.007: // measure 1
0000
0000
0000
0000
0000
0000
0000
1000
,  // measure 2
0010
0100
1000
0001
0100
0010
0000
1000
,  // measure 3
0001
0100
0010
0100
0001
0000
0000
0010
,  // measure 4
1000
0001
0100
0010
0010
0000
0000
1000
,  // measure 5
0001
0100
0010
0100
1000
0100
0000
0001
,  // measure 6
1000
0100
0001
0100
1001
0100
0000
0010
,  // measure 7
1000
0001
0100
0010
1000
0000
0000
0100
,  // measure 8
1000
0001
0100
0010
0001
0000
0000
0100
,  // measure 9
1000
0001
0100
0010
0000
1001
0000
0000
,  // measure 10
0000
1000
0100
1000
0001
0000
0010
0000
,  // measure 11
1000
0000
0100
0010
1000
0001
0100
0020
,  // measure 12
0000
0230
0000
0300
0000
1000
0100
0010
,  // measure 13
0001
0010
0100
1000
0000
0000
0000
0000
,  // measure 14
0000
0100
1000
0001
0100
0000
0001
1000
,  // measure 15
0000
0100
0001
0100
0010
0100
1000
0000
,  // measure 16
0000
0100
0000
0100
0000
0100
0000
0000
,  // measure 17
0010
0010
0000
0000
0000
1001
0000
0000
,  // measure 18
0010
0100
1000
0001
0100
0010
0100
0000
,  // measure 19
0100
0000
0020
0030
2000
3000
0200
0300
,  // measure 20
0002
0103
0000
0100
0000
0100
0000
0010
,  // measure 21
0000
0010
0000
0010
0000
0000
0000
1000
,  // measure 22
1000
1000
0100
0000
0001
0001
0001
0000
,  // measure 23
0010
0000
0000
0000
1000
0001
0010
0100
,  // measure 24
0000
0100
0000
0100
0000
0010
0000
0010
,  // measure 25
1000
0100
0010
0001
0010
0100
1000
2002
,  // measure 26
3003
1000
0001
0100
0010
0000
0022
0033
,  // measure 27
0010
0001
0010
0001
0000
0000
2200
3300
,  // measure 28
1000
0100
1000
0100
1000
0000
2002
3003
,  // measure 29
0100
0010
0100
0010
0100
0010
0000
0010
,  // measure 30
0000
1001
0000
1001
0000
1000
2200
0000
,  // measure 31
3300
0001
0202
0000
0303
0010
2002
0000
,  // measure 32
3003
0001
0000
1000
0010
0100
0010
0100
,  // measure 33
0000
0100
0000
1000
0001
1000
0001
0022
,  // measure 34
0033
0010
0001
0010
0001
0000
2020
3030
,  // measure 35
1000
0100
1000
0100
0000
0000
2000
3100
,  // measure 36
0001
0010
0100
1000
0001
0000
1001
0100
,  // measure 37
0010
0001
1000
0010
0100
0010
0000
0010
,  // measure 38
0000
1001
0000
1001
0000
1000
2000
0000
,  // measure 39
3000
0001
0002
0000
0003
0100
0200
0000
,  // measure 40
0300
0010
0020
0000
0030
2000
3200
0300
,  // measure 41
0002
0003
0020
0030
0200
0300
0020
0230
,  // measure 42
0300
0000
0000
0000
0000
0000
0000
0000
0000
0001
1000
0000
,  // measure 43
1000
0000
0002
0000
0000
0000
0103
0000
0000
1000
0000
0000
0001
0000
0000
0100
0000
0000
0010
0000
0000
1000
0000
0000
,  // measure 44
1000
0000
0000
0000
0000
0000
0020
0030
,  // measure 45
0200
0300
0000
0100
0000
0100
0000
0000
,  // measure 46
0000
1000
0001
1000
0001
0000
0010
0100
,  // measure 47
1000
0001
0100
0010
0100
0100
0000
0100
,  // measure 48
0000
0100
1000
0001
0100
0000
0000
0010
,  // measure 49
1000
0001
0100
0010
0000
0010
0000
0010
,  // measure 50
0002
0000
0103
1000
0001
0100
0010
0000
,  // measure 51
0010
0000
0000
0000
1000
0001
2000
0000
,  // measure 52
3000
0100
0020
0000
0030
0010
2000
0000
,  // measure 53
0000
3000
0000
1000
0000
1000
0000
0000
,  // measure 54
0001
0010
0001
0100
0100
0000
0000
0000
,  // measure 55
0010
1000
0001
0100
0010
0000
0000
0000
,  // measure 56
1000
0001
0100
0020
0030
0100
1000
0002
,  // measure 57
0003
0100
1000
0001
0000
0100
0100
2002
,  // measure 58
3003
1000
0001
1000
0001
0000
0220
0330
,  // measure 59
0100
0010
0100
0010
0000
0000
2200
3300
,  // measure 60
1000
0100
1000
0100
0000
0000
0022
0033
,  // measure 61
0010
0001
0010
0001
0000
0100
0000
0220
,  // measure 62
0000
0330
0000
0110
0000
1000
2000
0000
,  // measure 63
3000
0001
0002
0000
0003
0100
0200
0000
,  // measure 64
0300
0010
0020
0000
0030
1000
0001
1000
,  // measure 65
0001
1000
0000
0001
1000
0001
1000
2020
,  // measure 66
3030
1000
0010
1000
0010
0000
0000
0022
,  // measure 67
0033
0010
0001
0010
0001
0000
2002
3003
,  // measure 68
1000
0001
0010
0100
0010
0000
0220
0330
,  // measure 69
0100
0010
1000
0001
1000
0001
0000
0220
,  // measure 70
0330
0100
0010
0100
0000
1000
2000
0000
,  // measure 71
3000
0001
0002
0000
0003
0100
0200
0000
,  // measure 72
0300
0010
0020
0000
0030
1000
0001
0100
,  // measure 73
0010
1000
0001
0100
0000
0010
1000
2002
,  // measure 74
0000
0000
0000
3003
0000
0000
0000
0000
;
