#TITLE:little l;
#SUBTITLE:;
#ARTIST:jamiroquai;
#TITLETRANSLIT:;
#SUBTITLETRANSLIT:;
#ARTISTTRANSLIT:;
#CREDIT:;
#BANNER:;
#BACKGROUND:;
#LYRICSPATH:;
#CDTITLE:;
#MUSIC:little l.mp3;
#OFFSET:0.000;
#SAMPLESTART:31.670;
#SAMPLELENGTH:12.000;
#SELECTABLE:YES;
#BPMS:0.000=121.720;
#STOPS:;
#BGCHANGES:;

//---------------dance-single - ----------------
#NOTES:
     dance-single:
     :
     Beginner:
     2:
     0.139,0.126,0.009,0.027,0.000:
0000
0000
0000
0000
,
0000
0000
0000
0000
,
0000
0100
0000
0000
0000
1000
0000
0000
,
0000
0010
0000
0000
0000
0001
0000
0000
,
0000
0100
0000
0000
0000
0010
0000
0000
,
0000
1000
0000
0000
0000
0001
0000
0000
,
0000
0010
0000
0000
0000
0020
0000
0000
,
0000
0000
0000
0030
,
0000
0000
0000
0100
0000
0000
0000
0010
,
0000
0000
0000
1000
0000
0000
0000
1000
,
0000
0000
0000
0001
0000
0000
0000
0001
,
0000
0000
0000
0100
0000
0000
0000
0010
,
0000
0000
0000
1000
0000
0000
0000
0001
,
0000
0000
0000
0010
0000
0000
0000
0001
,
0000
0000
0000
0100
0000
0000
0000
1000
,
0000
0000
0000
0010
0000
0000
0000
0100
,
0000
0000
0000
0010
0000
0000
0000
1000
,
0000
0000
0000
0001
0000
0000
0000
0010
,
0000
0000
0000
0010
0000
0000
0000
0100
,
0000
0000
0000
1000
0000
0000
0000
0001
,
0000
0000
0000
0010
0000
0000
0000
0001
,
0000
0000
0000
0010
0000
0000
0000
1000
,
0000
0000
0000
0100
0000
0000
0000
1000
,
0000
0000
0000
0100
0000
0000
0000
0001
,
0000
0000
0000
0010
0000
0000
0000
0010
,
0000
0000
0000
0100
0000
0000
0000
0010
,
0000
0000
0000
0100
0000
0000
0000
0100
,
0000
0000
0000
0010
0000
0000
0000
0100
,
0000
0000
0000
1000
0000
0000
0000
0001
,
0000
0000
0000
0001
0000
0000
0000
1000
,
0000
0000
0000
0010
0000
0000
0000
1000
,
0000
0000
0000
1000
0000
0000
0000
0001
,
0000
0000
0000
0001
0000
0000
0000
0100
,
0000
0000
0000
0001
0000
0000
0000
0100
,
0000
0000
0000
1000
0000
0000
0000
0010
,
0000
0000
0000
1000
0000
0000
0000
0010
,
0000
0000
0000
0001
0000
0000
0000
0100
,
0000
0000
0000
0001
0000
0000
0000
0010
,
0000
0000
0000
0001
0000
0000
0000
0100
,
0000
0000
0000
1000
0000
0000
0000
0010
,
0000
0000
0000
1000
0000
0000
0000
0100
,
0000
0000
0000
0010
0000
0000
0000
0001
,
0000
0000
0000
0010
0000
0000
0000
0100
,
0000
0000
0000
1000
0000
0000
0000
0010
,
0000
0000
0000
1000
0000
0000
0000
0100
,
0000
0000
0000
0010
0000
0000
0000
0001
,
0000
0000
0000
0100
0000
0000
0000
1000
,
0000
0000
0000
0010
0000
0000
0000
0001
,
0000
0000
0000
0100
0000
0000
0000
0100
,
0000
0000
0000
0010
0000
0000
0000
1000
,
0000
0000
0000
0001
0000
0000
0000
0010
,
0000
0000
0000
0001
0000
0000
0000
1000
,
0000
0000
0000
0100
0000
0000
0000
0010
,
0000
0000
0000
1000
0000
0000
0000
0001
,
0000
0000
0000
0100
0000
0000
0000
0010
,
0000
0000
0000
0010
0000
0000
0000
0220
,
0000
0000
0000
0000
0000
0000
0000
0330
;

//---------------dance-single - Copied from----------------
#NOTES:
     dance-single:
     Copied from:
     Easy:
     4:
     0.271,0.227,0.009,0.027,0.000:
0000
0000
0000
0000
,
0000
0000
0000
0000
,
0000
0100
0000
0010
0000
1000
0000
0100
,
0000
0010
0000
0100
0000
0001
0000
0010
,
0000
0100
0000
0010
0000
0010
0000
0001
,
0000
1000
0000
0010
0000
0001
0000
1000
,
0000
0010
0000
0100
0000
0020
0000
0000
,
0000
0000
0000
0030
,
0000
0000
0000
0100
0000
1000
0000
0010
,
0000
0001
0000
1000
0000
0100
0000
1000
,
0000
0100
0000
0001
0000
0100
0000
0001
,
0000
0010
0000
0100
0000
1000
0000
0010
,
0000
0001
0000
1000
0000
0100
0000
0001
,
0000
0100
0000
0010
0000
0100
0000
0001
,
0000
0010
0000
0100
0000
0010
0000
1000
,
0000
0100
0000
0010
0000
0001
0000
0100
,
0000
1000
0000
0010
0000
0001
0000
1000
,
0000
0100
0000
0001
0000
1000
0000
0010
,
0000
0100
0000
0010
0000
1000
0000
0100
,
0000
0001
0000
1000
0000
0010
0000
0001
,
0000
0100
0000
0010
0000
0100
0000
0001
,
0000
0100
0000
0010
0000
0100
0000
1000
,
0000
0010
0000
0100
0000
0010
0000
1000
,
0000
0010
0000
0100
0000
0010
0000
0001
,
0000
0100
0000
0010
0000
0100
0000
0010
,
0000
0001
0000
0100
0000
1000
0000
0010
,
0000
0001
0000
0100
0000
1000
0000
0100
,
0000
1000
0000
0010
0000
0001
0000
0100
,
0000
0010
0000
1000
0000
0100
0000
0001
,
0000
0010
0000
0001
0000
0010
0000
1000
,
0000
0100
0000
0010
0000
0100
0000
1000
,
0000
0100
0000
1000
0000
0100
0000
0001
,
0000
0100
0000
0001
0000
1000
0000
0100
,
0000
1000
0000
0001
0000
0010
0000
0100
,
0000
0001
0000
1000
0000
0001
0000
0010
,
0000
0100
0000
1000
0000
0100
0000
0010
,
0000
0100
0000
0001
0000
0010
0000
0100
,
0000
0010
0000
0001
0000
0100
0000
0010
,
0000
0100
0000
0001
0000
0010
0000
0100
,
0000
0010
0000
1000
0000
0100
0000
0010
,
0000
0100
0000
1000
0000
0010
0000
0100
,
0000
0001
0000
0010
0000
1000
0000
0001
,
0000
1000
0000
0010
0000
0001
0000
0100
,
0000
0010
0000
1000
0000
0001
0000
0010
,
0000
0001
0000
1000
0000
0010
0000
0100
,
0000
1000
0000
0010
0000
1000
0000
0001
,
0000
0010
0000
0100
0000
0010
0000
1000
,
0000
0100
0000
0010
0000
0100
0000
0001
,
0000
0010
0000
0100
0000
0010
0000
0100
,
0000
1000
0000
0010
0000
0001
0000
1000
,
0000
0100
0000
0001
0000
0100
0000
0010
,
0000
0100
0000
0001
0000
0100
0000
1000
,
0000
0010
0000
0100
0000
1000
0000
0010
,
0000
0001
0000
1000
0000
0100
0000
0001
,
0000
0010
0000
0100
0000
0001
0000
0010
,
0000
1000
0000
0010
0000
0100
0000
0220
,
0000
0000
0000
0000
0000
0000
0000
0330
;

//---------------dance-single - Copied from Copied f----------------
#NOTES:
     dance-single:
     Copied from Copied f:
     Medium:
     6:
     0.338,0.277,0.009,0.027,0.000:
0000
0000
0000
0000
,
0000
0000
0000
0000
,
0000
0100
1000
0010
0000
1000
0000
0100
,
0000
0010
0001
0100
0000
0001
0000
0010
,
0000
0100
1000
0010
0000
0010
0000
0001
,
0000
1000
0001
0010
0000
0001
0000
1000
,
0000
0010
0001
0100
0000
0020
0000
0000
,
0000
0000
0000
0030
,
0000
0000
1000
0100
0000
1000
0000
0010
,
0000
0001
0010
1000
0000
0100
0000
1000
,
0000
0100
0010
0001
0000
0100
0000
0001
,
0000
0010
0001
0100
0000
1000
0000
0010
,
0000
0001
0010
1000
0000
0100
0000
0001
,
0000
0100
1000
0010
0000
0100
0000
0001
,
0000
0010
0001
0100
0000
0010
0000
1000
,
0000
0100
1000
0010
0000
0001
0000
0100
,
0000
1000
0001
0010
0000
0001
0000
1000
,
0000
0100
1000
0001
0000
1000
0000
0010
,
0000
0100
1000
0010
0000
1000
0000
0100
,
0000
0001
0010
1000
0000
0010
0000
0001
,
0000
0100
0001
0010
0000
0100
0000
0001
,
0000
0100
0001
0010
0000
0100
0000
1000
,
0000
0010
1000
0100
0000
0010
0000
1000
,
0000
0010
0001
0100
0000
0010
0000
0001
,
0000
0100
1000
0010
0000
0100
0000
0010
,
0000
0001
0010
0100
0000
1000
0000
0010
,
0000
0001
0010
0100
0000
1000
0000
0100
,
0000
1000
0100
0010
0000
0001
0000
0100
,
0000
0010
0001
1000
0000
0100
0000
0001
,
0000
0010
1000
0001
0000
0010
0000
1000
,
0000
0100
1000
0010
0000
0100
0000
1000
,
0000
0100
0001
1000
0000
0100
0000
0001
,
0000
0100
0010
0001
0000
1000
0000
0100
,
0000
1000
0010
0001
0000
0010
0000
0100
,
0000
0001
0010
1000
0000
0001
0000
0010
,
0000
0100
0010
1000
0000
0100
0000
0010
,
0000
0100
0010
0001
0000
0010
0000
0100
,
0000
0010
0100
0001
0000
0100
0000
0010
,
0000
0100
0010
0001
0000
0010
0000
0100
,
0000
0010
0100
1000
0000
0100
0000
0010
,
0000
0100
0010
1000
0000
0010
0000
0100
,
0000
0001
0100
0010
0000
1000
0000
0001
,
0000
1000
0100
0010
0000
0001
0000
0100
,
0000
0010
0100
1000
0000
0001
0000
0010
,
0000
0001
0100
1000
0000
0010
0000
0100
,
0000
1000
0100
0010
0000
1000
0000
0001
,
0000
0010
0001
0100
0000
0010
0000
1000
,
0000
0100
1000
0010
0000
0100
0000
0001
,
0000
0010
1000
0100
0000
0010
0000
0100
,
0000
1000
0001
0010
0000
0001
0000
1000
,
0000
0100
0010
0001
0000
0100
0000
0010
,
0000
0100
0010
0001
0000
0100
0000
1000
,
0000
0010
0001
0100
0000
1000
0000
0010
,
0000
0001
0010
1000
0000
0100
0000
0001
,
0000
0010
1000
0100
0000
0001
0000
0010
,
0000
1000
0100
0010
0000
0100
0000
0220
,
0000
0000
0000
0000
0000
0000
0000
0330
;

//---------------dance-single - ----------------
#NOTES:
     dance-single:
     :
     Hard:
     9:
     0.455,0.452,0.417,0.301,0.137: // measure 1
0000
0000
0000
0000
,  // measure 2
0000
0000
0000
0100
0000
0010
0000
0000
0000
0100
0000
0010
0000
0000
0000
0000
0000
0000
0000
0000
0000
0000
0000
0000
,  // measure 3
0000
0000
0000
0100
0000
1000
0000
0000
0000
0010
0000
0001
0000
0000
0000
1000
0000
0000
0000
0000
0000
0000
0000
0000
,  // measure 4
0000
0000
0100
0000
0000
0000
0010
0100
0001
0010
1000
0000
0000
0020
0000
0000
,  // measure 5
0000
0000
0000
0100
0000
1000
0000
0000
0000
0100
0000
0000
0030
0000
0000
0000
0000
0000
0000
0000
0000
0000
0000
0000
,  // measure 6
0000
0000
0000
0000
0000
0000
0000
0000
0000
0000
0000
0000
0000
0000
0000
0000
0000
0000
0000
0000
0000
0000
0000
0000
1000
0000
0000
0000
0000
0000
0000
0000
0000
0000
0000
0000
0000
0000
0000
0000
0100
0000
0000
0000
0000
0000
0000
0000
0000
0000
0000
0000
0000
0000
0000
0000
0000
0000
0000
0000
0000
0000
0000
0000
0000
0000
0000
0000
0000
0000
0000
0000
0100
0000
0000
0000
0000
0000
0000
0000
0000
0000
0000
0000
0000
0000
0000
0000
0001
0000
0000
0000
0000
0000
0000
0000
0000
0000
0000
0000
0000
0000
0000
0000
0000
0000
0000
0000
0000
0000
0000
0000
0000
0000
0000
0000
0000
0000
0000
0000
0010
0000
0000
0000
0000
0000
0000
0000
0000
0000
0000
0000
0000
0000
0000
0000
0000
0000
0000
0000
0000
0000
0000
0000
0000
0000
0000
0000
0000
0000
0000
0000
0000
0000
0000
0000
0000
0000
0000
0000
0000
0000
0000
0000
0000
0000
0000
0000
1000
0000
0000
0000
0000
0000
0100
0000
0000
0000
0000
0000
0000
0000
0000
0000
0000
0000
0000
0000
0000
0000
0000
0000
,  // measure 7
0000
0000
0000
0000
1000
0010
0000
0000
0000
0000
0000
0000
0100
0001
0000
0000
0000
0000
0000
0000
0010
0001
0000
0000
0000
0000
0000
0000
0220
0000
0000
0000
,  // measure 8
0000
0000
0000
0000
0000
0000
0000
0330
,  // measure 9
0000
0000
0000
0000
0000
0000
1000
0000
0100
0000
0001
0000
0010
0100
1000
0000
,  // measure 10
0010
0100
0000
0001
0000
1000
0200
0000
,  // measure 11
0310
0010
0000
0100
0000
1010
0000
0010
,  // measure 12
0100
0000
0000
0000
0000
0000
0010
0000
0000
0000
0000
0000
0000
0000
0000
0000
1100
0000
0000
0000
0000
0000
0000
0000
0000
0000
0000
0101
0000
0000
0000
0000
0000
0000
0000
0000
0000
0000
0000
0000
0000
0000
0220
0000
0000
0000
0000
0000
,  // measure 13
0330
0000
0000
0000
0000
0000
1000
0000
0001
0000
0010
0000
0100
1000
0010
0000
,  // measure 14
0001
0100
0000
0110
0000
0010
0000
1000
,  // measure 15
0100
1000
0000
0001
0010
0001
0010
0200
,  // measure 16
0000
0310
0000
1001
0000
0110
0000
0000
,  // measure 17
0000
2100
0000
0001
0000
0010
3000
0102
,  // measure 18
0100
1000
0000
0100
0000
1003
0000
0000
,  // measure 19
0110
0100
0000
0000
0100
1000
0100
0010
,  // measure 20
0001
0000
0000
0000
0000
0000
0000
0000
0000
1001
0000
0000
0000
0000
0000
0000
0110
0000
0000
0000
0000
0000
0000
0000
,  // measure 21
0000
0210
0000
1000
0000
0001
0000
0310
,  // measure 22
0000
0120
0100
1000
0000
0001
0000
0130
,  // measure 23
0000
1001
0000
0000
0100
0001
0010
0100
,  // measure 24
1000
0000
0000
0000
0000
0000
0000
0000
0000
0011
0000
0000
0000
0000
0000
0000
1010
0000
0000
0000
0000
0000
0000
0000
,  // measure 25
0000
0000
0000
0010
0001
1000
0001
1000
,  // measure 26
0100
0000
0010
0000
0000
0000
0010
0000
0100
0000
0010
0000
0000
0000
1000
0100
,  // measure 27
0010
0000
0100
0000
1000
0000
0001
0000
0000
0000
0001
0000
0000
0000
0100
0010
,  // measure 28
1000
0000
0000
1000
0000
0000
0001
0000
0000
0110
0000
0000
0000
0000
0000
0000
1001
0000
0000
0000
0000
0200
0000
0000
,  // measure 29
0000
0000
0000
0310
0001
0010
0100
1000
,  // measure 30
0010
1100
0000
0101
0000
0010
0000
0110
,  // measure 31
0010
1000
0001
0100
0001
0010
0100
1000
,  // measure 32
0000
0000
0000
0101
0000
0000
0000
0000
0000
0110
0000
0000
0000
0000
0000
0000
0100
0000
0000
0000
0000
1200
0000
0000
,  // measure 33
0000
0000
0010
0000
0301
0000
0001
0000
0100
0000
0010
0000
1000
0000
0100
1000
,  // measure 34
0000
0100
0000
0010
0000
0100
0000
0010
,  // measure 35
0001
0010
0100
0000
0020
0030
0100
2001
,  // measure 36
0000
3100
0010
1002
0000
1003
0000
0110
,  // measure 37
0000
0000
0100
0100
0010
0100
1000
0001
,  // measure 38
0100
0000
0000
0000
0010
1000
0020
0000
,  // measure 39
0000
0130
1000
0001
0100
0010
0100
0000
,  // measure 40
0000
0000
0000
0110
0000
1001
0000
0000
,  // measure 41
0000
0201
0000
0010
0000
1300
0000
1200
,  // measure 42
1000
0010
0000
0001
0300
0010
0001
0000
,  // measure 43
0110
0010
0000
0000
1000
0100
0010
0001
,  // measure 44
0100
0000
0000
0110
0000
1001
0000
0000
,  // measure 45
0000
1020
0000
0100
0000
0031
0000
0021
,  // measure 46
0001
0100
0000
1030
0000
0100
1000
0000
,  // measure 47
0110
0100
0000
0000
0001
0010
0100
1000
,  // measure 48
0010
0000
0000
1001
0000
0110
0000
0000
,  // measure 49
0000
0210
0000
0310
0000
0100
0000
2000
,  // measure 50
3100
0200
0310
0020
0030
0002
1003
0000
,  // measure 51
0110
1001
0000
0000
0100
0010
1000
0001
,  // measure 52
0100
0000
0000
1100
0000
0101
0000
0000
,  // measure 53
0000
0002
0000
2003
0000
3020
0000
0230
,  // measure 54
1300
0000
0020
0000
0000
0000
0032
0000
0000
0000
0003
0000
0000
0000
0100
1000
,  // measure 55
0000
0000
0100
1000
0000
0000
0100
0001
0000
0000
0100
0001
0000
0000
0100
0000
,  // measure 56
0010
0000
0100
0000
0010
0000
0010
0100
0010
0100
0010
0000
0100
0000
2002
0000
,  // measure 57
0000
0000
0000
0000
0000
3003
0000
0000
;
