#TITLE:lifeline(new);
#SUBTITLE:;
#ARTIST:jamiroquai;
#TITLETRANSLIT:;
#SUBTITLETRANSLIT:;
#ARTISTTRANSLIT:;
#CREDIT:;
#BANNER:lifeline.png;
#BACKGROUND:lifeline-bg.png;
#LYRICSPATH:;
#CDTITLE:;
#MUSIC:lifeline.mp3;
#OFFSET:0.000;
#SAMPLESTART:24.990;
#SAMPLELENGTH:12.000;
#SELECTABLE:YES;
#BPMS:0.000=80.000;
#STOPS:;
#BGCHANGES:;

//---------------dance-single - ----------------
#NOTES:
     dance-single:
     :
     Beginner:
     2:
     0.095,0.082,0.000,0.018,0.000:
0000
0000
0000
0000
,
1000
0000
0100
0000
,
1000
0000
0010
0000
,
0001
0000
0010
0000
,
0100
0000
0001
0000
,
1000
0000
0100
0000
,
0010
0000
1000
0000
,
0100
0000
0001
0000
,
0010
0000
0010
0000
,
1000
0000
0001
0000
,
0010
0000
0010
0000
,
0001
0000
1000
0000
,
0100
0000
0010
0000
,
0100
0000
0010
0000
,
1000
0000
1000
0000
,
0001
0000
0001
0000
,
0100
0000
0001
0000
,
0100
0000
1000
0000
,
0010
0000
1000
0000
,
0010
0000
0001
0000
,
0100
0000
1000
0000
,
0100
0000
0001
0000
,
0010
0000
1000
0000
,
0010
0000
0001
0000
,
0100
0000
0010
0000
,
1000
0000
0010
0000
,
0001
0000
0100
0000
,
0010
0000
0010
0000
,
1000
0000
0010
0000
,
0001
0000
0100
0000
,
0100
0000
0001
0000
,
0100
0000
1000
0000
,
0010
0000
1000
0000
,
0100
0000
0001
0000
,
0001
0000
0010
0000
,
0100
0000
0001
0000
,
1000
0200
0020
0330
;

//---------------dance-single - Copied from----------------
#NOTES:
     dance-single:
     Copied from:
     Easy:
     4:
     0.184,0.147,0.000,0.018,0.000:
0000
0000
0000
0000
,
1000
0010
0100
0010
,
1000
0100
0010
0100
,
0001
0100
0010
0001
,
0100
1000
0001
0010
,
1000
0010
0100
1000
,
0010
0001
1000
0010
,
0100
0010
0001
0100
,
0010
0100
0010
0100
,
1000
0100
0001
0100
,
0010
0100
0010
0100
,
0001
0100
1000
0010
,
0100
0001
0010
1000
,
0100
1000
0010
0001
,
1000
0010
1000
0010
,
0001
0010
0001
0010
,
0100
0010
0001
0010
,
0100
0010
1000
0100
,
0010
0100
1000
0100
,
0010
0100
0001
0010
,
0100
0010
1000
0010
,
0100
0010
0001
0100
,
0010
0100
1000
0100
,
0010
0100
0001
1000
,
0100
1000
0010
0001
,
1000
0001
0010
0100
,
0001
0010
0100
0001
,
0010
1000
0010
0100
,
1000
0100
0010
0100
,
0001
0010
0100
0010
,
0100
0010
0001
0010
,
0100
0010
1000
0100
,
0010
0100
1000
0010
,
0100
1000
0001
1000
,
0001
0100
0010
0001
,
0100
0010
0001
0100
,
1000
0200
0020
0330
;

//---------------dance-single - Copied from Copied f----------------
#NOTES:
     dance-single:
     Copied from Copied f:
     Medium:
     6:
     0.231,0.179,0.009,0.018,0.000:
0000
0000
0000
0000
,
1000
0100
0010
0000
0100
0000
0010
0000
,
1000
0010
0100
0000
0010
0000
0100
0000
,
0001
0010
0100
0000
0010
0000
0001
0000
,
0100
0010
1000
0000
0001
0000
0010
0000
,
1000
0100
0010
0000
0100
0000
1000
0000
,
0010
0100
0001
0000
1000
0000
0010
0000
,
0100
0001
0010
0000
0001
0000
0100
0000
,
0010
1000
0100
0000
0010
0000
0100
0000
,
1000
0010
0100
0000
0001
0000
0100
0000
,
0010
0001
0100
0000
0010
0000
0100
0000
,
0001
1000
0100
0000
1000
0000
0010
0000
,
0100
0010
0001
0000
0010
0000
1000
0000
,
0100
0010
1000
0000
0010
0000
0001
0000
,
1000
0100
0010
0000
1000
0000
0010
0000
,
0001
0100
0010
0000
0001
0000
0010
0000
,
0100
0001
0010
0000
0001
0000
0010
0000
,
0100
1000
0010
0000
1000
0000
0100
0000
,
0010
0001
0100
0000
1000
0000
0100
0000
,
0010
1000
0100
0000
0001
0000
0010
0000
,
0100
0001
0010
0000
1000
0000
0010
0000
,
0100
1000
0010
0000
0001
0000
0100
0000
,
0010
1000
0100
0000
1000
0000
0100
0000
,
0010
0001
0100
0000
0001
0000
1000
0000
,
0100
0010
1000
0000
0010
0000
0001
0000
,
1000
0100
0001
0000
0010
0000
0100
0000
,
0001
0100
0010
0000
0100
0000
0001
0000
,
0010
0100
1000
0000
0010
0000
0100
0000
,
1000
0010
0100
0000
0010
0000
0100
0000
,
0001
0100
0010
0000
0100
0000
0010
0000
,
0100
0001
0010
0000
0001
0000
0010
0000
,
0100
1000
0010
0000
1000
0000
0100
0000
,
0010
1000
0100
0000
1000
0000
0010
0000
,
0100
0001
1000
0000
0001
0000
1000
0000
,
0001
0010
0100
0000
0010
0000
0001
0000
,
0100
1000
0010
0000
0001
0000
0100
0000
,
1000
0001
0210
0000
0020
0000
0330
0000
;

//---------------dance-single - ----------------
#NOTES:
     dance-single:
     :
     Hard:
     9:
     0.461,0.421,0.355,0.115,0.386: // measure 1
0000
0000
0000
0000
,  // measure 2
1000
0100
1000
0001
0010
0000
0100
0000
1001
0000
0010
0000
0100
0000
1000
0000
,  // measure 3
0100
0010
1000
0001
0110
0000
0010
0000
1000
0000
0001
0000
0100
0000
0010
0000
,  // measure 4
1000
0100
0001
0000
0010
0100
0000
1000
0100
0000
0010
0100
0000
0010
0001
0000
,  // measure 5
0100
0010
0100
0000
0002
0010
0100
0010
0103
0000
0000
1000
0010
0000
0100
0000
,  // measure 6
1010
0000
0000
0000
0100
0001
0010
0100
1000
0000
0100
0000
0010
0000
1000
0000
,  // measure 7
0011
0000
0000
0000
0100
0010
0100
1000
0001
0000
0000
0100
1000
0001
0100
0010
,  // measure 8
0100
0000
0000
0000
1000
0100
0000
0010
0001
0000
0010
1000
0000
0100
0002
0000
,  // measure 9
0003
0000
1100
0100
1010
0010
0011
0010
,  // measure 10
0101
0000
0100
0000
1100
0000
1000
0000
0101
0000
0001
0000
1001
0000
1000
0100
,  // measure 11
0010
0000
0000
0001
0200
0000
0000
0000
0310
0100
0001
0000
1000
0000
0010
0000
,  // measure 12
0100
0000
0000
0000
0110
0000
0100
0000
1001
0100
0010
0000
1001
0000
0000
0010
,  // measure 13
0200
0010
0310
0000
1100
0100
0101
0010
,  // measure 14
1001
0000
0000
1000
0000
0100
0010
0001
0010
0000
0000
0000
,  // measure 15
0100
0000
0010
0010
0200
0000
0000
0000
1300
0000
0010
0000
0001
0000
0000
0000
,  // measure 16
0000
0100
1000
0000
0010
0000
0100
0000
0001
0000
0010
0000
0100
0000
0010
0100
,  // measure 17
1000
0000
0100
0010
0200
0000
0010
0000
0301
0000
1000
0100
0010
0000
0001
0010
,  // measure 18
0100
0000
0001
0000
0000
0000
0000
0000
0000
0000
0000
0000
0020
0000
0000
0000
0000
0000
0000
0000
0000
0000
0000
0000
0130
0000
0000
0000
0000
0000
1000
0000
0000
0002
0000
0000
0000
0000
0000
0000
0000
0000
0000
0000
0000
0000
0000
0000
,  // measure 19
0103
0000
0010
0100
0001
0000
0010
0000
0100
0000
0000
0010
0100
1000
0001
0100
,  // measure 20
0010
0000
0000
0000
0100
1000
0001
0100
0010
0000
0000
0000
0100
1000
0001
0100
,  // measure 21
0010
0000
0100
0000
1001
0000
0010
0000
1001
0000
1000
0100
0010
0001
0010
0100
,  // measure 22
1000
0000
0000
0000
0110
0000
0100
0000
0110
0000
0001
0010
0100
1000
0100
0010
,  // measure 23
0001
0000
0000
0000
1010
0000
0100
0000
0011
0000
0100
0010
1000
0100
0001
0010
,  // measure 24
0100
0000
0000
0000
1100
0000
0010
0000
0101
0000
1000
0001
0100
0010
1000
0001
,  // measure 25
0100
0000
0000
0000
0001
0100
0010
1000
0100
0000
0001
0000
0000
0000
0000
0000
,  // measure 26
0000
0000
0000
0000
0100
1000
0001
0100
0010
0000
1000
0000
0000
0000
0000
0000
,  // measure 27
0000
0000
0000
0000
1000
1000
0001
0100
0010
0001
0001
0000
0000
0000
0000
0000
,  // measure 28
0000
0100
0010
0000
0100
0000
1000
0000
0001
0000
0100
0000
0001
0100
1000
0020
,  // measure 29
0030
0100
0010
0000
1001
0000
0010
0000
1001
0000
0100
0000
0110
0000
0100
0000
,  // measure 30
0110
0000
1100
0100
1010
0010
0011
0010
,  // measure 31
0101
0000
0100
0000
0010
1000
0001
0100
0010
0000
0000
0000
0100
1000
0001
0100
,  // measure 32
0010
0000
0000
0000
0001
0010
0100
1000
0001
0000
0000
0000
1000
0100
0010
0001
,  // measure 33
1000
0100
0010
0000
0120
0000
0000
0000
0100
0000
0000
0000
0100
0000
0030
0000
,  // measure 34
0110
0000
1100
0000
0101
0000
0110
0100
,  // measure 35
1001
0000
0000
0000
1000
0001
0100
1000
0001
0010
0200
0000
0010
0000
0001
0000
,  // measure 36
1300
0000
0000
0000
0010
0100
1000
0000
0100
0010
0001
0000
0010
1000
0100
0000
,  // measure 37
0010
0001
0100
0000
0220
0000
0000
0000
0330
0000
0000
0000
0000
0000
0000
0000
;
