#TITLE:dynamite(new);
#SUBTITLE:;
#ARTIST:jamiroquai;
#TITLETRANSLIT:;
#SUBTITLETRANSLIT:;
#ARTISTTRANSLIT:;
#CREDIT:;
#BANNER:;
#BACKGROUND:;
#LYRICSPATH:;
#CDTITLE:;
#MUSIC:dynamite.mp3;
#OFFSET:0.000;
#SAMPLESTART:0.050;
#SAMPLELENGTH:12.000;
#SELECTABLE:YES;
#BPMS:0.000=114.540;
#STOPS:;
#BGCHANGES:;

//---------------dance-single - ----------------
#NOTES:
     dance-single:
     :
     Beginner:
     2:
     0.127,0.141,0.000,0.058,0.000:
0000
0000
0000
0000
,
0000
0000
0000
0000
,
0000
0000
0000
0000
,
0000
0000
0000
0000
,
0000
1000
0000
0000
0000
0001
0000
0000
,
0000
0100
0000
0000
0000
0010
0000
0000
,
0000
1000
0000
0000
0000
0001
0000
0000
,
0000
0100
0000
0000
0000
1000
0000
0000
,
0000
0010
0000
0000
0000
1000
0000
0000
,
0000
0010
0000
0000
0000
0001
0000
0000
,
0000
0100
0000
0000
0000
0100
0000
0000
,
0000
0010
0000
0000
0000
0010
0000
0000
,
0000
0001
0000
0000
0000
0100
0000
0000
,
0000
0001
0000
0000
0000
1000
0000
0000
,
0000
1000
0000
0000
0000
0100
0000
0000
,
0000
0010
0000
0000
0000
0010
0000
0000
,
0000
1000
0000
0000
0000
0001
0000
0000
,
0000
0100
0000
0000
0000
1000
0000
0000
,
0000
0100
0000
0000
0000
0001
0000
0000
,
0000
0010
0000
0000
0000
0100
0000
0000
,
0000
1000
0000
0000
0000
0010
0000
0000
,
0000
0001
0000
0000
0000
0010
0000
0000
,
0000
0100
0000
0000
0000
0100
0000
0000
,
0000
0010
0000
0000
0000
0100
0000
0000
,
0000
2000
0000
0000
0000
0000
0000
3000
,
0000
0001
0000
0000
0000
0010
0000
0000
,
0000
0100
0000
0000
0000
1000
0000
0000
,
0000
1000
0000
0000
0000
0100
0000
0000
,
0000
0010
0000
0000
0000
0001
0000
0000
,
0000
0100
0000
0000
0000
0100
0000
0000
,
0000
0010
0000
0000
0000
0010
0000
0000
,
0000
1000
0000
0000
0000
0001
0000
0000
,
0000
0010
0000
0000
0000
0100
0000
0000
,
0000
0010
0000
0000
0000
1000
0000
0000
,
0000
0100
0000
0000
0000
0001
0000
0000
,
0000
0010
0000
0000
0000
0010
0000
0000
,
0000
0100
0000
0000
0000
0100
0000
0000
,
0000
1000
0000
0000
0000
0010
0000
0000
,
0000
0100
0000
0000
0000
0001
0000
0000
,
0000
1000
0000
0000
0000
1000
0000
0000
,
0000
0001
0000
0000
0000
0001
0000
0000
,
0000
0200
0000
0300
0000
0000
0000
0000
,
0000
0020
0000
0030
0000
0000
0000
0000
,
0000
2000
0000
3000
0000
0000
0000
0000
,
0000
0002
0000
0003
0000
0200
0000
0000
,
0000
0310
0000
0000
0000
1000
0000
0000
,
0000
0001
0000
0000
0000
0100
0000
0000
,
0000
0010
0000
0000
0000
1000
0000
0000
,
0000
0010
0000
0000
0000
0001
0000
0000
;

//---------------dance-single - Copied from----------------
#NOTES:
     dance-single:
     Copied from:
     Easy:
     4:
     0.235,0.187,0.000,0.058,0.000:
0000
0000
0000
0000
,
0000
0000
0000
0000
,
0000
0000
0000
0000
,
0000
0000
0000
0000
,
0000
1000
0000
1000
0000
0001
0000
0001
,
0000
0100
0000
0100
0000
0010
0000
0010
,
0000
1000
0000
0001
0000
0001
0000
1000
,
0000
0100
0000
0010
0000
1000
0000
0001
,
0000
0010
0000
0100
0000
1000
0000
0001
,
0000
0010
0000
0100
0000
0001
0000
1000
,
0000
0100
0000
0010
0000
0100
0000
0001
,
0000
0010
0000
0100
0000
0010
0000
1000
,
0000
0001
0000
0010
0000
0100
0000
0001
,
0000
0001
0000
0010
0000
1000
0000
0001
,
0000
1000
0000
0010
0000
0100
0000
1000
,
0000
0010
0000
1000
0000
0010
0000
0001
,
0000
1000
0000
0100
0000
0001
0000
1000
,
0000
0100
0000
0010
0000
1000
0000
0010
,
0000
0100
0000
0010
0000
0001
0000
1000
,
0000
0010
0000
0001
0000
0100
0000
0010
,
0000
1000
0000
0100
0000
0010
0000
0100
,
0000
0001
0000
0100
0000
0010
0000
0001
,
0000
0100
0000
0001
0000
0100
0000
1000
,
0000
0010
0000
1000
0000
0100
0000
0001
,
0000
2000
0000
0000
0000
0000
0000
3000
,
0000
0001
0000
1000
0000
0010
0000
0100
,
0000
0100
0000
0001
0000
1000
0000
0010
,
0000
1000
0000
0010
0000
0100
0000
1000
,
0000
0010
0000
0100
0000
0001
0000
1000
,
0000
0100
0000
0001
0000
0100
0000
1000
,
0000
0010
0000
0100
0000
0010
0000
0100
,
0000
1000
0000
0100
0000
0001
0000
0100
,
0000
0010
0000
1000
0000
0100
0000
0001
,
0000
0010
0000
0100
0000
1000
0000
0001
,
0000
0100
0000
1000
0000
0001
0000
0100
,
0000
0010
0000
1000
0000
0010
0000
0001
,
0000
0100
0000
0010
0000
0100
0000
0010
,
0000
1000
0000
0100
0000
0010
0000
1000
,
0000
0100
0000
0010
0000
0001
0000
0010
,
0000
1000
0000
0010
0000
1000
0000
0010
,
0000
0001
0000
1000
0000
0001
0000
0010
,
0000
0200
0000
0300
0000
0000
0000
0000
,
0000
0020
0000
0030
0000
0000
0000
0000
,
0000
2000
0000
3000
0000
0000
0000
0000
,
0000
0002
0000
0003
0000
0200
0000
0000
,
0000
0310
0000
0001
0000
1000
0000
0100
,
0000
0001
0000
0010
0000
0100
0000
1000
,
0000
0010
0000
0001
0000
1000
0000
0100
,
0000
0010
0000
1000
0000
0001
0000
0000
;

//---------------dance-single - ----------------
#NOTES:
     dance-single:
     :
     Medium:
     6:
     0.315,0.282,0.039,0.058,0.000:
0000
0000
0000
0000
,
0000
0000
0000
0000
,
0000
0000
0000
0000
,
0000
0000
0000
0000
,
0000
0100
0000
0100
0001
0010
0000
1000
,
0000
0100
0000
1000
0100
0001
0000
0010
,
0000
0100
0000
1000
0001
0010
0000
0100
,
0000
1000
0000
0001
0001
1000
0000
0001
,
0000
0100
1000
0001
0000
0010
0000
0100
,
0000
1000
0001
0010
0000
0100
0000
1000
,
0000
0001
0100
0010
0000
0001
0000
1000
,
0000
0100
1000
0001
0000
0001
0000
0100
,
0000
0001
1000
0010
0000
0100
0000
0010
,
0000
0001
1000
0100
0000
1000
0000
0001
,
0000
0010
0001
0100
0000
1000
0000
0010
,
0000
0100
1000
0010
0000
0100
0000
0001
,
0000
0100
1000
0001
0000
0010
0000
0100
,
0000
0010
0001
1000
0000
0100
0000
0010
,
0000
1000
0100
1000
0000
0001
0000
0010
,
0000
1000
0100
0001
0000
0010
0000
0100
,
0000
0100
1000
0001
0000
0010
0000
0001
,
0000
0100
0010
1000
0000
0001
0000
0100
,
0000
0100
0010
1000
0000
0001
0000
0010
,
0000
0001
1000
0100
0000
0010
0000
1000
,
0000
0020
0000
0100
0000
0100
0030
0100
,
0000
1000
0001
0010
0000
0100
0000
0001
,
0000
1000
0001
0100
0000
0010
0000
1000
,
0000
0100
0001
0010
0000
1000
0000
0001
,
0000
0100
0010
0001
0000
0100
0000
0001
,
0000
0010
1000
0100
0000
0010
0000
1000
,
0000
0100
0001
0010
0000
0010
0000
0100
,
0000
0010
1000
0001
0000
0100
0000
0010
,
0000
1000
0100
0001
0000
0010
0000
0100
,
0000
1000
0010
0100
0000
0100
0000
1000
,
0000
0100
0010
0001
0000
0010
0000
0001
,
0000
0010
0100
0001
0000
1000
0000
0010
,
0000
0100
0010
1000
0000
1000
0000
0001
,
0000
0010
0100
0001
0000
1000
0000
0010
,
0000
0100
1000
0010
0000
0100
0000
0001
,
0000
0100
0010
1000
0000
0001
0000
0010
,
0000
0100
1000
0001
0000
0010
0000
0100
,
0000
1002
0000
1000
0000
1003
0000
0100
,
0000
2001
0000
0001
0000
3001
0000
0100
,
0000
0210
0000
0010
0000
0010
0000
0310
,
0000
0120
0000
0100
0000
0200
0000
0300
,
0030
1000
0001
0001
0000
0100
0000
0010
,
0000
1000
0010
0100
0000
1000
0000
0001
,
0000
0010
0100
0001
0000
1000
0000
0100
,
0000
0010
1000
0001
0000
0010
0000
0100
;

//---------------dance-single - ----------------
#NOTES:
     dance-single:
     :
     Hard:
     8:
     0.387,0.377,0.260,0.125,0.039: // measure 1
0000
0000
0000
0000
,  // measure 2
0000
0000
0000
0000
,  // measure 3
0000
0000
0000
0000
,  // measure 4
0000
0000
0000
0000
,  // measure 5
0000
0000
0100
1000
0000
0000
0100
0000
0001
0000
0010
0000
0000
0000
1000
0000
,  // measure 6
0000
0000
0100
0010
0100
0000
1000
0000
0001
0000
0010
0000
0100
0000
1000
0000
,  // measure 7
0001
0100
0000
0001
0000
0100
0000
1000
,  // measure 8
0000
0100
0010
0001
1000
0100
0010
1000
,  // measure 9
0000
0000
0001
0000
0010
0000
1000
0000
0000
0001
0000
0000
0000
0000
0110
0000
,  // measure 10
0000
0000
0001
0000
0010
0000
1000
0000
0000
0100
0000
0000
0000
0000
0100
0000
,  // measure 11
0000
0001
0100
1000
0000
0001
0010
1000
,  // measure 12
0000
1000
0100
0001
0000
1000
0100
0001
,  // measure 13
0000
0000
0010
0000
0100
0000
1000
0000
0000
0010
0000
0000
0000
0000
0011
0000
,  // measure 14
0000
0000
0001
0000
1000
0000
0010
0000
0000
0100
0000
0000
0000
0000
0001
0000
,  // measure 15
0000
1000
0000
0010
0100
0001
0100
1100
,  // measure 16
0000
0010
1000
0001
0010
0100
0000
1001
,  // measure 17
0000
0100
1000
0100
0001
0000
0100
1001
,  // measure 18
0000
0010
1000
0010
0001
0000
0100
1000
,  // measure 19
0001
0010
0000
1000
0000
0001
0000
0110
,  // measure 20
0000
1000
0100
0010
0001
0010
0100
1000
,  // measure 21
0000
0010
0100
0001
0000
0100
0000
1001
,  // measure 22
0000
0010
1000
0100
0010
0000
0000
0001
,  // measure 23
0010
0100
0000
0010
0000
1000
0000
1001
,  // measure 24
0000
0001
0000
0100
0000
0010
0000
0100
,  // measure 25
0000
2001
0000
0010
0000
0002
0000
3003
,  // measure 26
0000
0210
0000
1300
0000
0001
0000
0010
,  // measure 27
0100
1000
0000
0010
0000
0000
0100
1001
,  // measure 28
0000
0000
0010
0100
1000
0000
0010
0000
0001
0000
0100
0000
0000
0000
0110
0000
,  // measure 29
0000
0010
0001
0100
1000
0010
0000
1001
,  // measure 30
0000
1000
0100
1000
0100
1000
0000
0110
,  // measure 31
0000
0001
0010
0001
0010
0001
0000
0010
,  // measure 32
0100
2001
0000
0100
0000
0010
0000
3001
,  // measure 33
0000
1002
0000
0010
0000
0100
0000
1003
,  // measure 34
0000
0200
0000
0310
0001
1000
0000
0100
,  // measure 35
0001
1000
0100
0010
0000
0100
0010
1001
,  // measure 36
0000
0000
0010
1000
0001
0000
0010
0000
0001
0000
0100
0000
1000
0000
0010
0000
,  // measure 37
0000
1100
0001
0010
0100
0101
0000
0000
,  // measure 38
0000
0120
1000
0100
1000
0000
0000
0130
,  // measure 39
0001
0120
0001
0100
0001
0000
0000
0030
,  // measure 40
0000
1002
0000
0100
0000
1000
0000
0103
,  // measure 41
0000
2001
0000
0010
0000
0001
0000
3010
,  // measure 42
0000
0200
0000
0310
0000
0110
0000
0001
,  // measure 43
0000
1000
0100
0001
0000
0001
0100
1000
,  // measure 44
0000
0010
1000
0010
0000
0010
0001
0010
,  // measure 45
0000
1000
0000
0001
0000
2002
0000
3003
,  // measure 46
0000
0100
0001
0100
0000
1000
0000
0010
,  // measure 47
0000
0100
1000
0100
0000
0001
0000
0010
,  // measure 48
0000
0100
1000
0001
0010
0100
0000
1001
,  // measure 49
0000
0100
0000
0010
0000
0100
0000
1001
;
