#TITLE:do you know where you're coming from;
#SUBTITLE:;
#ARTIST:jamiroquai;
#TITLETRANSLIT:;
#SUBTITLETRANSLIT:;
#ARTISTTRANSLIT:;
#CREDIT:;
#BANNER:;
#BACKGROUND:;
#LYRICSPATH:;
#CDTITLE:;
#MUSIC:do you know where you're coming from.mp3;
#OFFSET:0.000;
#SAMPLESTART:100.050;
#SAMPLELENGTH:12.000;
#SELECTABLE:YES;
#BPMS:0.000=160.000;
#STOPS:;
#BGCHANGES:;

//---------------dance-single - ----------------
#NOTES:
     dance-single:
     :
     Beginner:
     3:
     0.188,0.164,0.009,0.000,0.000:
0000
0000
0000
0000
,
1000
0000
0001
0000
,
0100
0000
1000
0000
,
0010
0000
0100
0000
,
0001
0000
0010
0000
,
1000
0000
0001
0000
,
0100
0000
0010
0000
,
1000
0000
0001
0000
,
0100
0000
0010
0000
,
1000
0000
0001
0000
,
0100
0000
0010
0000
,
1000
0000
0100
0000
,
1000
0000
0100
0000
,
0010
0000
0001
0000
,
0010
0000
0001
0000
,
0010
0000
0100
0000
,
1000
0000
0100
0000
,
1000
0000
1000
0000
,
0001
0000
0100
0000
,
0010
0000
0001
0000
,
1000
0000
0001
0000
,
0010
0000
0100
0000
,
0001
0000
0010
0000
,
0100
0000
1000
0000
,
1000
0000
0100
0000
,
0010
0000
0001
0000
,
0010
0000
0100
0000
,
0001
0000
0100
0000
,
0010
0000
1000
0000
,
1000
0000
0001
0000
,
0100
0000
0010
0000
,
0100
0000
0001
0000
,
1000
0000
0010
0000
,
1000
0000
0100
0000
,
1000
0000
1000
0000
,
0001
0000
0100
0000
,
0001
0000
0010
0000
,
0001
0000
0100
0000
,
0010
0000
0100
0000
,
1000
0000
0001
0000
,
0100
0000
0010
0000
,
0001
0000
0010
0000
,
1000
0000
0001
0000
,
0100
0000
0010
0000
,
1000
0000
0100
0000
,
0001
0000
0010
0000
,
0100
0000
0010
0000
,
0100
0000
1000
0000
,
1000
0000
0001
0000
,
0001
0000
0100
0000
,
0010
0000
0100
0000
,
0010
0000
1000
0000
,
0100
0000
0010
0000
,
0001
0000
0010
0000
,
0100
0000
1000
0000
,
0100
0000
0001
0000
,
0010
0000
0100
0000
,
0010
0000
1000
0000
,
0001
0000
0100
0000
,
0010
0000
1000
0000
,
0001
0000
0100
0000
,
0010
0000
0100
0000
,
1000
0000
0100
0000
,
0010
0000
0001
0000
,
0001
0000
0010
0000
,
0100
0000
1000
0000
,
0010
0000
0100
0000
,
0001
0000
1000
0000
,
1000
0000
0001
0000
,
0010
0000
1000
0000
,
0100
0000
0001
0000
,
1000
0000
0010
0000
,
0100
0000
0001
0000
,
0010
0000
0010
0000
,
0100
0000
0100
0000
,
0110
0000
0000
0000
;

//---------------dance-single - Copied from----------------
#NOTES:
     dance-single:
     Copied from:
     Easy:
     5:
     0.373,0.296,0.009,0.000,0.000:
0000
0000
0000
0000
,
1000
0010
0001
1000
,
0100
0001
1000
0100
,
0010
0001
0100
1000
,
0001
0100
0010
0001
,
1000
0100
0001
0010
,
0100
1000
0010
0001
,
1000
0100
0001
0010
,
0100
1000
0010
0001
,
1000
0100
0001
1000
,
0100
0001
0010
0100
,
1000
0001
0100
1000
,
1000
0001
0100
0100
,
0010
1000
0001
0001
,
0010
0100
0001
0001
,
0010
1000
0100
0001
,
1000
0100
0100
0010
,
1000
0001
1000
0100
,
0001
1000
0100
0001
,
0010
0100
0001
0001
,
1000
0100
0001
0001
,
0010
1000
0100
0001
,
0001
0100
0010
0001
,
0100
1000
1000
0001
,
1000
1000
0100
0001
,
0010
1000
0001
0001
,
0010
0100
0100
0010
,
0001
0100
0100
0010
,
0010
0100
1000
0010
,
1000
0100
0001
0010
,
0100
1000
0010
0001
,
0100
1000
0001
0001
,
1000
0100
0010
0010
,
1000
0100
0100
0010
,
1000
1000
1000
0001
,
0001
1000
0100
0001
,
0001
0100
0010
0100
,
0001
0100
0100
0100
,
0010
0100
0100
0100
,
1000
0100
0001
0100
,
0100
0010
0010
0010
,
0001
0010
0010
0010
,
1000
1000
0001
0001
,
0100
1000
0010
0001
,
1000
0100
0100
0010
,
0001
1000
0010
0100
,
0100
0010
0010
0001
,
0100
0010
1000
0100
,
1000
1000
0001
0001
,
0001
0100
0100
0010
,
0010
1000
0100
0100
,
0010
0001
1000
0010
,
0100
1000
0010
0001
,
0001
0100
0010
0001
,
0100
1000
1000
0001
,
0100
0100
0001
1000
,
0010
0100
0100
0010
,
0010
0001
1000
0010
,
0001
0100
0100
1000
,
0010
0100
1000
0010
,
0001
1000
0100
0001
,
0010
0001
0100
1000
,
1000
0001
0100
1000
,
0010
0100
0001
0100
,
0001
0100
0010
0001
,
0100
1000
1000
1000
,
0010
1000
0100
1000
,
0001
1000
1000
0001
,
1000
0100
0001
0001
,
0010
0001
1000
0001
,
0100
0010
0001
0100
,
1000
0100
0010
0001
,
0100
1000
0001
0100
,
0010
0100
0010
0001
,
0100
1000
0100
0010
,
0110
0000
0000
0000
;

//---------------dance-single - Copied from Copied f----------------
#NOTES:
     dance-single:
     Copied from Copied f:
     Medium:
     7:
     0.466,0.362,0.009,0.000,0.000:
0000
0000
0000
0000
,
1000
0100
0010
0000
0001
0000
1000
0000
,
0100
0010
0001
0000
1000
0000
0100
0000
,
0010
0100
0001
0000
0100
0000
1000
0000
,
0001
0010
0100
0000
0010
0000
0001
0000
,
1000
0010
0100
0000
0001
0000
0010
0000
,
0100
0010
1000
0000
0010
0000
0001
0000
,
1000
0010
0100
0000
0001
0000
0010
0000
,
0100
0010
1000
0000
0010
0000
0001
0000
,
1000
0010
0100
0000
0001
0000
1000
0000
,
0100
0010
0001
0000
0010
0000
0100
0000
,
1000
0010
0001
0000
0100
0000
1000
0000
,
1000
0010
0001
0000
0100
0000
0100
0000
,
0010
0100
1000
0000
0001
0000
0001
0000
,
0010
1000
0100
0000
0001
0000
0001
0000
,
0010
0001
1000
0000
0100
0000
0001
0000
,
1000
0010
0100
0000
0100
0000
0010
0000
,
1000
0010
0001
0000
1000
0000
0100
0000
,
0001
0010
1000
0000
0100
0000
0001
0000
,
0010
1000
0100
0000
0001
0000
0001
0000
,
1000
0001
0100
0000
0001
0000
0001
0000
,
0010
0100
1000
0000
0100
0000
0001
0000
,
0001
0010
0100
0000
0010
0000
0001
0000
,
0100
0010
1000
0000
1000
0000
0001
0000
,
1000
0010
1000
0000
0100
0000
0001
0000
,
0010
0100
1000
0000
0001
0000
0001
0000
,
0010
0001
0100
0000
0100
0000
0010
0000
,
0001
1000
0100
0000
0100
0000
0010
0000
,
0010
1000
0100
0000
1000
0000
0010
0000
,
1000
0001
0100
0000
0001
0000
0010
0000
,
0100
0010
1000
0000
0010
0000
0001
0000
,
0100
0010
1000
0000
0001
0000
0001
0000
,
1000
0010
0100
0000
0010
0000
0010
0000
,
1000
0010
0100
0000
0100
0000
0010
0000
,
1000
0010
1000
0000
1000
0000
0001
0000
,
0001
0010
1000
0000
0100
0000
0001
0000
,
0001
0010
0100
0000
0010
0000
0100
0000
,
0001
0010
0100
0000
0100
0000
0100
0000
,
0010
1000
0100
0000
0100
0000
0100
0000
,
1000
0001
0100
0000
0001
0000
0100
0000
,
0100
0001
0010
0000
0010
0000
0010
0000
,
0001
1000
0010
0000
0010
0000
0010
0000
,
1000
0100
1000
0000
0001
0000
0001
0000
,
0100
0010
1000
0000
0010
0000
0001
0000
,
1000
0010
0100
0000
0100
0000
0010
0000
,
0001
0100
1000
0000
0010
0000
0100
0000
,
0100
0001
0010
0000
0010
0000
0001
0000
,
0100
1000
0010
0000
1000
0000
0100
0000
,
1000
0010
1000
0000
0001
0000
0001
0000
,
0001
0010
0100
0000
0100
0000
0010
0000
,
0010
0100
1000
0000
0100
0000
0100
0000
,
0010
0100
0001
0000
1000
0000
0010
0000
,
0100
0010
1000
0000
0010
0000
0001
0000
,
0001
0010
0100
0000
0010
0000
0001
0000
,
0100
0010
1000
0000
1000
0000
0001
0000
,
0100
0010
0100
0000
0001
0000
1000
0000
,
0010
0001
0100
0000
0100
0000
0010
0000
,
0010
1000
0001
0000
1000
0000
0010
0000
,
0001
0010
0100
0000
0100
0000
1000
0000
,
0010
0001
0100
0000
1000
0000
0010
0000
,
0001
0100
1000
0000
0100
0000
0001
0000
,
0010
1000
0001
0000
0100
0000
1000
0000
,
1000
0100
0001
0000
0100
0000
1000
0000
,
0010
0001
0100
0000
0001
0000
0100
0000
,
0001
1000
0100
0000
0010
0000
0001
0000
,
0100
0010
1000
0000
1000
0000
1000
0000
,
0010
0100
1000
0000
0100
0000
1000
0000
,
0001
0100
1000
0000
1000
0000
0001
0000
,
1000
0010
0100
0000
0001
0000
0001
0000
,
0010
0100
0001
0000
1000
0000
0001
0000
,
0100
0010
0010
0000
0001
0000
0100
0000
,
1000
0010
0100
0000
0010
0000
0001
0000
,
0100
0010
1000
0000
0001
0000
0100
0000
,
0010
1000
0100
0000
0010
0000
0001
0000
,
0100
0001
1000
0000
0100
0000
0010
0000
,
0110
0000
0000
0000
;

//---------------dance-single - ----------------
#NOTES:
     dance-single:
     :
     Hard:
     9:
     0.530,0.525,0.088,0.105,0.004: // measure 1
0000
0000
0000
0000
,  // measure 2
1000
0000
0100
0010
,  // measure 3
0100
1000
0001
0000
0001
0000
0000
0000
,  // measure 4
0100
0000
1000
0001
,  // measure 5
0000
0000
0100
1000
0001
0000
0100
0000
,  // measure 6
0000
0100
1000
0001
0100
0000
0000
0100
,  // measure 7
1000
0001
0100
0010
0000
0000
0000
0100
,  // measure 8
1000
0001
0100
0010
0100
0000
0000
1000
,  // measure 9
0001
0100
0010
0100
1000
0010
0100
0000
,  // measure 10
1000
0001
0100
0010
0100
1000
0000
0100
,  // measure 11
0001
1000
0100
0001
0010
0100
0000
1000
,  // measure 12
1000
0100
0001
0100
0010
0001
0000
0001
,  // measure 13
0100
0000
1000
0000
0001
0000
0100
0000
0010
0000
0100
0010
0100
0000
0000
0000
,  // measure 14
0000
1000
0100
0001
0010
0100
0010
0100
,  // measure 15
1000
0100
0010
0001
0100
0010
0000
0100
,  // measure 16
1000
0001
0100
0010
0100
1000
0000
0100
,  // measure 17
0001
1000
0100
0001
0100
0010
0000
2000
,  // measure 18
0100
0000
0001
0000
0010
0000
0100
3010
,  // measure 19
0000
0100
0010
1000
0100
0000
0000
0010
,  // measure 20
0000
0100
1000
0001
0100
0010
0100
0000
,  // measure 21
1000
0000
0001
0000
0100
0000
0000
0100
,  // measure 22
1000
0001
0100
0010
0100
0000
2000
0000
,  // measure 23
0000
3100
0010
0001
0100
0000
0000
0100
,  // measure 24
1000
0001
0100
0010
0100
0000
0000
0010
,  // measure 25
1000
0001
0100
0010
0100
0000
0000
0010
,  // measure 26
0100
0010
0100
0000
0000
0100
1000
0100
,  // measure 27
1000
0000
0000
0010
0001
0010
0001
0000
,  // measure 28
0000
0100
1000
0001
0100
0010
0000
1000
,  // measure 29
0100
0010
0001
0010
0000
0000
0000
0100
,  // measure 30
0001
0100
0010
0000
0000
1000
0001
0100
,  // measure 31
0010
0000
0000
0100
1000
0001
0100
0010
,  // measure 32
0100
1000
0100
0010
0000
0010
1000
0001
,  // measure 33
0100
0010
0100
1000
0001
0100
0000
1001
,  // measure 34
0000
1000
0000
1000
0000
0100
0010
1001
,  // measure 35
0000
0001
0000
0001
0000
0001
0000
0100
,  // measure 36
1000
0001
0100
0010
0100
0000
0000
1000
,  // measure 37
0001
0100
0010
0100
1000
0000
0000
0110
,  // measure 38
0000
0100
0000
0010
0000
0110
0000
1000
,  // measure 39
0000
0001
0000
1000
0000
0100
0010
0001
,  // measure 40
0000
0100
1000
0000
0010
0001
0000
0100
,  // measure 41
1000
0001
0100
0010
0100
1000
0000
0200
,  // measure 42
0000
0000
0000
0300
0020
0000
0000
0000
,  // measure 43
0000
0030
0000
0000
0000
0000
0100
1000
,  // measure 44
0001
0100
0010
0100
1000
0001
0000
0100
,  // measure 45
1000
0001
0100
0010
0100
1000
0000
0100
,  // measure 46
0010
1000
0001
0100
0000
0100
0010
1000
,  // measure 47
0001
0100
0000
0000
0000
0000
0000
0100
,  // measure 48
1000
0001
0100
0010
0100
1000
0100
0010
,  // measure 49
0001
0010
0100
1000
1000
1000
0000
0100
,  // measure 50
0000
1000
0001
0100
0010
0000
0000
0100
,  // measure 51
1000
0001
0100
0010
0100
0000
0000
1000
,  // measure 52
0001
0100
0010
1000
0001
0000
0000
0100
,  // measure 53
1000
0001
0100
0010
0100
1001
0000
0100
,  // measure 54
1000
0001
0001
1000
0000
0001
0000
0100
,  // measure 55
1000
0001
0100
0010
1000
0000
0000
0100
,  // measure 56
0010
0100
0010
1000
0001
0000
0000
0110
,  // measure 57
0000
0000
0000
0110
0000
0000
0000
1000
,  // measure 58
0001
0100
0010
0000
0000
0100
1000
0001
,  // measure 59
0100
0000
0000
1000
0100
0010
0001
0000
,  // measure 60
0000
0001
0010
0100
1000
0000
0000
1000
,  // measure 61
0001
1000
0001
1000
0100
0001
0000
0010
,  // measure 62
0100
1000
0001
0000
0100
1000
0010
0001
,  // measure 63
0100
0000
0000
1000
0001
1000
0100
0010
,  // measure 64
0100
1000
0000
0100
0000
0010
0000
0001
,  // measure 65
0010
0100
1000
0100
0010
0001
0000
2200
,  // measure 66
0000
0000
3300
0022
,  // measure 67
0000
0000
0033
0000
0000
0000
0000
1000
,  // measure 68
0000
0001
0000
1000
0000
0100
0010
1000
,  // measure 69
0001
0100
0000
0100
0000
0100
0000
0010
,  // measure 70
1000
0001
0000
0100
1000
0001
0100
0010
,  // measure 71
0100
1000
0001
0100
0010
0100
0000
2000
,  // measure 72
0000
0000
0000
3200
0000
0000
0000
0320
,  // measure 73
0000
0000
0000
0032
0000
0000
0000
0103
,  // measure 74
0000
1000
0000
0001
0000
0100
0000
0010
,  // measure 75
1000
1000
0000
0100
0001
0010
0000
1001
;
