#TITLE:Canned Heat;
#SUBTITLE:(long ver.);
#ARTIST:jamiroquai;
#TITLETRANSLIT:;
#SUBTITLETRANSLIT:;
#ARTISTTRANSLIT:;
#CREDIT:;
#BANNER:;
#BACKGROUND:;
#LYRICSPATH:;
#CDTITLE:;
#MUSIC:01 - Jamiroquai - Canned Heat [Album Version].mp3;
#OFFSET:0.000;
#SAMPLESTART:56.990;
#SAMPLELENGTH:12.000;
#SELECTABLE:YES;
#BPMS:0.000=128.020;
#STOPS:;
#BGCHANGES:;

//---------------dance-single - ----------------
#NOTES:
     dance-single:
     :
     Hard:
     15:
     0.520,0.499,0.238,0.506,0.181: // measure 1
0000
0000
0000
2000
0000
0000
3200
0000
,  // measure 2
0000
0302
0000
0000
0023
0000
0030
0220
,  // measure 3
0000
0000
0000
0000
,  // measure 4
0000
0000
0000
0000
0000
0330
0000
1000
,  // measure 5
0001
0100
0110
0000
0100
1000
0000
0001
,  // measure 6
0100
0000
0010
0000
1000
0100
0000
0000
0010
0000
0100
0000
1000
0000
0001
0000
,  // measure 7
0100
1000
0000
0000
0020
0000
0030
0000
0100
0000
1000
0000
0100
0010
0000
0000
,  // measure 8
0000
0000
0000
1000
0100
1000
0000
0100
0001
0000
0010
0000
0100
1000
0000
0000
,  // measure 9
0001
0000
0100
0000
0020
0000
0030
0000
1000
0000
0100
0000
0010
0001
0000
0000
,  // measure 10
0000
0000
0000
0100
1000
0001
0000
0000
0100
0000
1000
0010
0001
0100
0000
1000
,  // measure 11
0010
0000
0010
0100
0000
0000
0002
0000
0000
0000
0003
0000
2000
0000
0000
0000
,  // measure 12
3000
0200
0000
2300
0000
3002
0000
0023
,  // measure 13
0000
0031
1000
0200
0000
0010
0000
0010
,  // measure 14
0000
0010
0300
1000
0000
0001
0100
1000
,  // measure 15
0010
0100
0000
1001
0000
0100
1000
0001
,  // measure 16
0100
0000
0010
0000
1000
0100
0010
0000
0020
0000
0000
0000
0130
0000
1000
0000
,  // measure 17
0000
0001
0000
0000
0100
0000
0000
1000
0100
0000
0001
0100
0000
0100
1000
0000
,  // measure 18
0100
0000
0010
0000
1000
0000
0001
0100
0000
1000
0002
0000
0000
0000
0103
0000
,  // measure 19
0000
1000
0000
0000
0100
0000
0000
0000
0010
0100
0000
1000
0100
0000
0001
0000
,  // measure 20
1000
0000
0010
0000
0100
0000
0010
0000
1000
0000
0000
0100
0010
0000
1000
0000
,  // measure 21
0000
0001
0000
0000
0100
0000
0000
0010
0100
0000
1000
0100
0000
0001
0010
0000
,  // measure 22
0100
1000
0001
0020
0000
2030
0000
3200
,  // measure 23
0000
0302
0000
1003
0000
0100
0001
1000
,  // measure 24
0001
0100
0010
2000
3100
0000
0000
1001
,  // measure 25
0000
0110
0000
0000
1001
0000
0000
0000
1000
0100
1000
0000
0100
0000
0010
0000
,  // measure 26
0001
0010
0001
0000
0100
1000
0000
0010
0001
0000
1000
0000
0000
0000
1100
0000
,  // measure 27
0000
0101
0000
0000
1001
0000
0000
0000
0100
0000
1000
0000
0001
0000
0100
0000
,  // measure 28
0010
0000
1000
0000
0001
1000
0100
0000
0010
0100
0001
0000
0000
0000
0000
0000
,  // measure 29
2000
0000
0000
0000
3000
0000
0000
0000
0010
0001
1000
0000
0010
0000
0100
0000
,  // measure 30
0001
1000
0010
0100
0000
0100
0000
0100
,  // measure 31
0000
0100
0000
1001
0000
0010
0200
0000
,  // measure 32
0300
0000
0000
0000
0000
0000
1000
0010
0100
0000
0001
0000
0010
0000
1000
0000
,  // measure 33
0010
0100
0000
0000
0010
0000
0101
0000
0000
0000
1001
0000
0000
0000
0000
0000
,  // measure 34
0000
0000
0100
0000
1000
0000
0001
0000
0100
0000
0000
0000
0010
1000
0100
0001
,  // measure 35
0010
0000
0000
0000
0100
0000
1100
0000
0000
0000
0000
0000
0100
0010
0100
0000
,  // measure 36
0010
0100
0010
0000
1000
0000
0100
0000
0010
0000
0001
0000
0100
0000
0010
0000
,  // measure 37
0001
0000
1000
0000
0020
0030
0000
0000
0200
0300
0000
0000
0002
0003
0000
0000
,  // measure 38
0000
2000
3002
2003
,  // measure 39
3002
0000
0000
0000
0003
0000
0000
0000
0100
0000
1000
0000
0001
0010
0100
0000
,  // measure 40
0010
0000
1000
0000
0000
0100
0010
0000
1000
0000
0000
0100
0010
0000
1000
0000
,  // measure 41
0001
0100
0010
0000
0010
1000
0001
0020
,  // measure 42
0230
0000
0300
0000
0000
0000
1000
0001
0100
0000
0020
0000
0000
0000
1000
0000
,  // measure 43
0030
0000
0000
0100
2000
0000
0000
0000
0000
0000
3100
0000
0001
0000
0010
0000
,  // measure 44
1000
0001
0100
0020
0230
0000
0300
1000
,  // measure 45
0000
0001
0000
0000
0010
0000
0000
0100
1000
0000
0001
0000
0100
0000
0010
0000
,  // measure 46
1000
0000
0001
0000
0100
0000
0010
0100
0000
0000
0000
0100
0010
0000
0000
0010
,  // measure 47
0100
0000
0000
0000
0010
0100
0001
1000
,  // measure 48
0010
0000
0100
0000
0001
1000
0000
0000
0010
0000
0000
0000
0100
0000
0001
0010
,  // measure 49
0100
0000
0000
1000
0010
0100
0002
0000
,  // measure 50
0103
0000
0000
1000
0100
0000
0010
0100
0001
1000
0000
0000
0000
0000
0000
0000
,  // measure 51
0010
0000
0100
0000
2000
0000
0000
0000
3100
0000
0000
0010
0100
0000
0000
0000
,  // measure 52
0100
0000
0010
0000
0002
0000
0000
0000
0013
0000
0000
0100
0010
0000
0000
0000
,  // measure 53
0100
0000
0000
0001
0000
0000
1000
0000
0000
0100
0000
0000
0001
0000
0000
0000
0010
0000
0000
0000
0100
0000
0001
0000
,  // measure 54
0000
0000
0000
0000
0100
0000
0000
0000
0000
0000
0000
0000
1000
0000
0000
0100
0000
0000
0001
0000
0000
0000
0000
0000
0010
0000
0000
0000
0000
0000
0100
0000
0000
0000
0000
0000
1000
0000
0000
0000
0000
0000
0000
0000
0000
0010
0000
0000
,  // measure 55
0100
0000
0000
0000
0000
0000
1001
0000
0000
0000
0010
0000
0000
0000
0000
0100
,  // measure 56
0010
1000
0001
0010
1000
0100
0020
0000
,  // measure 57
0130
1000
0001
0110
0000
1001
0000
0000
,  // measure 58
0000
0000
0100
0000
1000
0000
0020
0000
0100
0000
0030
0000
1000
0000
0100
0001
,  // measure 59
0000
0010
0100
0000
0010
0000
1001
0000
0000
0000
0000
0000
1000
0100
1000
0000
,  // measure 60
0001
0010
0001
0000
0100
0000
1000
0000
0001
0000
0100
0000
0010
0000
1000
0000
,  // measure 61
0001
0000
0100
0000
0020
0030
0000
0000
0002
0003
0000
0000
2000
3000
0000
0000
,  // measure 62
0010
1000
0001
0200
0300
0020
0030
0200
,  // measure 63
0300
1000
0001
1001
0000
0110
0000
0000
,  // measure 64
0100
0010
0100
0000
0000
0000
1000
0000
0001
0000
0100
0000
0010
0000
1000
0000
,  // measure 65
0001
0000
0100
0000
0000
0000
1100
0000
0000
0000
0101
0000
0000
0000
0000
0010
,  // measure 66
0100
0000
1000
0000
0002
0000
0000
0000
0103
0000
0000
0010
0100
1000
0000
0010
,  // measure 67
2000
0000
0000
0000
3000
0000
0020
0000
0030
0000
0000
0000
1000
0100
0010
0000
,  // measure 68
0001
0010
0100
0000
0000
0000
0010
0000
1000
0000
0001
0000
0100
0000
0010
0000
,  // measure 69
1000
0000
0001
0000
0200
0300
0000
0000
0002
0003
0000
0000
2000
3000
0000
0000
,  // measure 70
0000
0000
0000
0010
1000
0000
0001
0000
0010
0100
0000
1000
0100
0000
0000
0010
,  // measure 71
0001
0000
0000
1000
0020
0000
0000
0000
0000
0000
0230
0000
0000
0000
0000
0000
,  // measure 72
2300
0000
0000
3002
0000
0200
0003
2300
,  // measure 73
0000
3002
0000
0023
0000
0000
0000
0000
,  // measure 74
0000
0200
0000
0300
,  // measure 75
0030
0000
0000
0000
0000
0000
0100
1000
0001
0000
0000
0000
0010
0001
1000
0000
,  // measure 76
0000
0000
0000
0000
0000
0000
0100
0010
1000
0000
0000
0000
0010
0100
0001
0000
,  // measure 77
0000
0000
0010
0100
0010
0000
0100
1000
0100
0000
0000
0000
0010
0001
0010
0000
,  // measure 78
0000
0000
0000
0000
0000
0000
0100
1000
0001
0000
0000
0000
0100
0001
1000
0000
,  // measure 79
0000
0000
0100
0010
0100
0000
0000
0000
1000
0000
0001
0000
0100
0000
0010
0000
,  // measure 80
1000
0000
0001
0000
0100
0000
0010
0000
0100
0000
0000
0000
0000
0000
0001
0010
,  // measure 81
0100
1000
0000
0010
0100
0000
0000
0000
0100
0000
0001
0000
1000
0000
0010
0000
,  // measure 82
0100
0001
1000
0010
0200
0000
0300
0000
,  // measure 83
1000
0001
0200
0000
1300
0001
0100
0010
,  // measure 84
1000
0000
0001
0000
0100
0000
0010
0000
0000
0000
0000
0000
1000
0100
0010
0001
,  // measure 85
0000
0000
0000
0100
0010
0000
0000
0000
0001
0000
0010
0000
1000
0000
0001
0000
,  // measure 86
0100
0010
0100
1000
0010
0000
0000
0220
,  // measure 87
0330
0220
0330
0000
1000
0001
0100
0010
,  // measure 88
1000
0000
0001
0000
0100
0000
0020
0000
0000
0000
0030
0000
0100
0010
0000
0010
,  // measure 89
0100
0000
0000
0000
0000
0000
1000
0001
0010
0100
0000
0000
0010
1000
0001
0000
,  // measure 90
0010
0000
0100
0000
0002
0000
0003
0000
2000
0000
3000
0000
0000
0000
0000
0010
,  // measure 91
0100
1000
0001
1100
0000
1010
0000
0101
,  // measure 92
0000
0011
0000
0010
0100
1000
0001
0100
,  // measure 93
0010
0000
1000
0000
0000
0000
0100
0010
0100
0010
0000
0000
0000
0000
0010
0100
,  // measure 94
0010
0100
0000
0000
0000
0000
1000
0000
0001
0000
0010
0000
0100
0000
1000
0000
,  // measure 95
0001
0100
0010
0011
0000
1010
0000
0000
,  // measure 96
0200
0000
0000
0000
1300
0010
0100
0000
0010
0000
0001
0000
0020
0000
0000
0000
,  // measure 97
1030
0100
0000
1001
0000
0110
0000
0000
,  // measure 98
0000
1000
0100
0020
0000
0130
0000
0010
,  // measure 99
0100
0000
0010
0000
0000
0000
0110
0000
0000
0000
0000
0000
1000
0100
1000
0000
,  // measure 100
0001
0010
0001
0000
0100
0000
1000
0000
0001
0000
0100
0000
0010
0000
1000
0000
,  // measure 101
0001
0100
0020
0000
2030
0000
3002
0000
,  // measure 102
0103
0010
1000
0020
0000
0000
0030
0100
,  // measure 103
1000
0001
0100
1001
0000
0110
0000
0000
,  // measure 104
0010
1000
0001
0100
0010
1000
0001
0100
,  // measure 105
0010
0100
0000
1010
0000
0101
0000
0000
,  // measure 106
0010
0200
0000
0300
0100
0001
0100
1000
,  // measure 107
0010
0000
0001
0000
0000
0000
0110
0000
0000
0000
0100
0000
0001
1000
0001
0000
,  // measure 108
1000
0001
1000
0000
0100
0000
0010
0000
1000
0000
0001
0000
0100
0000
0010
0000
,  // measure 109
1000
0001
0200
0000
0320
0000
0230
0000
,  // measure 110
0310
1000
0001
0200
0000
0000
0000
0010
,  // measure 111
0300
0010
0000
2001
0000
0000
3001
0000
,  // measure 112
0000
0200
0000
2300
0000
3002
0000
0203
,  // measure 113
0000
2300
0000
3002
0000
0000
1003
0000
,  // measure 114
0000
0100
0010
2000
0000
3002
0000
0203
,  // measure 115
0000
0310
0000
2002
3003
0000
0200
0000
,  // measure 116
0000
0300
0010
0110
0000
0000
0100
0110
,  // measure 117
0001
1000
0010
0100
0001
0010
0000
0000
,  // measure 118
0100
1000
0001
0100
0010
1000
0001
0100
,  // measure 119
0010
0100
0000
0210
0000
0000
0310
0000
,  // measure 120
0000
2000
0000
3002
0000
0203
0000
0320
,  // measure 121
0000
2030
0000
3002
0000
0003
0200
0000
,  // measure 122
0300
1000
0001
0200
0000
0320
0000
2030
,  // measure 123
0000
3002
0000
0203
0000
0300
0110
0000
,  // measure 124
0000
0000
1000
1100
0000
0000
0001
0101
,  // measure 125
0000
0100
2000
0000
3002
0000
0203
0000
,  // measure 126
0320
0000
2030
0000
3002
0000
0003
1100
,  // measure 127
0000
0101
0000
1001
0000
0110
0000
0000
,  // measure 128
0000
0000
0100
0010
1000
0001
0100
0010
,  // measure 129
0100
1000
0001
0110
0000
1001
0000
0000
,  // measure 130
0000
0000
0000
0010
0100
1000
0001
0100
,  // measure 131
0010
1000
0001
0110
0000
1001
0000
0000
,  // measure 132
0000
0000
0000
1000
0100
0010
0001
0010
,  // measure 133
0100
1000
0020
0000
2030
0000
3002
0000
,  // measure 134
0003
0100
0000
0010
0000
1001
0000
0100
,  // measure 135
0010
0100
0000
2002
0000
0000
0000
0000
,  // measure 136
0000
3000
0000
0203
0000
2300
0000
0001
,  // measure 137
0000
0010
3200
0000
0000
0300
0000
0100
,  // measure 138
0000
0100
0000
0020
0000
2000
0030
3002
,  // measure 139
0000
0203
0000
0320
0000
0000
0000
1000
,  // measure 140
0000
0031
0000
0200
0000
2300
0000
3002
,  // measure 141
0000
0203
0020
0300
0000
0030
0000
1000
,  // measure 142
0000
0000
0001
0000
0000
0000
0100
1000
0000
0000
0010
0001
0000
0000
0100
0000
,  // measure 143
0010
1000
0001
0210
0000
0010
0000
0010
,  // measure 144
0000
0010
0000
0010
0000
0310
0000
0100
,  // measure 145
0000
0110
0000
2001
0000
0010
0000
0100
,  // measure 146
3000
0010
0100
0010
0100
0000
1000
0001
,  // measure 147
1000
0001
0100
0120
0000
0130
0000
0020
,  // measure 148
0000
0200
0000
0000
0000
0000
0330
1000
,  // measure 149
0001
0100
0010
1002
0000
0100
0000
0010
,  // measure 150
0003
1000
0100
0010
0001
0010
0100
0000
,  // measure 151
1000
0001
0100
0120
0000
0130
0000
2000
,  // measure 152
0000
0002
0000
0000
0000
3003
0000
0110
,  // measure 153
0000
1001
0000
0210
0000
1000
0000
0001
,  // measure 154
0300
0010
0100
0010
0100
0000
1000
0001
,  // measure 155
0100
0010
0100
0210
0000
0310
0000
0220
,  // measure 156
0000
0330
2002
0000
3003
1000
0001
1100
,  // measure 157
0000
0101
0000
1000
0100
1000
0000
0000
,  // measure 158
0000
0001
0010
0001
0000
0000
0000
0000
,  // measure 159
0100
0010
0100
0000
1000
0000
0001
0000
0100
0000
1000
0000
0001
0000
0010
0000
,  // measure 160
0100
0001
1000
0100
0000
1100
0000
0101
,  // measure 161
0000
1001
0000
0210
0000
0000
0020
0000
,  // measure 162
0330
0000
0000
0000
1000
0001
0100
0000
0000
0000
0010
0000
1000
0000
0001
0000
,  // measure 163
0100
0010
0100
1002
0000
0000
2000
0000
,  // measure 164
3003
0000
0000
0000
0100
0010
0100
0000
1000
0000
0001
0000
0100
0000
0010
0000
,  // measure 165
1000
0001
0010
2001
0000
0000
0002
0000
,  // measure 166
3003
0200
0000
0320
0000
0030
2000
0000
,  // measure 167
3002
0003
0000
0220
0000
0000
0330
0100
,  // measure 168
0000
0100
0000
0200
0000
0320
0000
2030
,  // measure 169
0000
3001
0000
0210
0000
0010
0300
0000
,  // measure 170
0001
1000
0010
0100
0001
0000
1000
0001
,  // measure 171
0100
0010
1000
0210
0000
0310
0000
0000
,  // measure 172
0100
0001
1000
0010
0100
0000
0010
1000
,  // measure 173
0001
0100
0010
2002
0000
0000
0000
0000
,  // measure 174
0000
0000
0000
0000
,  // measure 175
0000
0000
0000
3003
0000
0000
0000
0000
;
