#TITLE:Alright around the world;
#SUBTITLE:;
#ARTIST:Daft Punk vs Jamiroquai;
#TITLETRANSLIT:;
#SUBTITLETRANSLIT:;
#ARTISTTRANSLIT:;
#CREDIT:;
#BANNER:;
#BACKGROUND:;
#LYRICSPATH:;
#CDTITLE:;
#MUSIC:Daft Punk v Jamiroquai.mp3;
#OFFSET:0.000;
#SAMPLESTART:108.570;
#SAMPLELENGTH:12.000;
#SELECTABLE:YES;
#BPMS:0.000=126.060;
#STOPS:;
#BGCHANGES:;

//---------------dance-single - ----------------
#NOTES:
     dance-single:
     :
     Hard:
     15:
     0.533,0.605,0.322,0.413,0.222: // measure 1
0000
0000
0000
2002
0000
0000
0000
0000
0000
0000
0000
0000
0000
0000
0000
0000
,  // measure 2
0000
0000
0000
0000
3003
0000
0000
0000
1000
0000
0000
0001
0000
0000
1000
0000
,  // measure 3
0000
0001
0000
0000
1000
0000
0000
0001
0000
0000
1000
0000
0000
0000
0002
0000
,  // measure 4
0000
0000
1000
0000
0100
0003
1000
0000
,  // measure 5
0100
0001
0100
0001
,  // measure 6
0100
1000
0010
0001
,  // measure 7
0010
1000
0100
0001
,  // measure 8
0100
1000
0100
0001
,  // measure 9
0001
1000
0100
0001
,  // measure 10
0001
0001
0100
1000
,  // measure 11
1000
0000
0020
0000
0130
0000
0000
0100
0010
0000
0000
0001
0100
0000
1000
0000
,  // measure 12
0100
0001
0100
0020
0130
0020
0130
0020
,  // measure 13
0130
0020
0130
2000
3100
2000
3100
2000
,  // measure 14
3100
2000
3100
0002
1003
0002
1003
0002
,  // measure 15
1003
0002
1003
0200
0301
0020
1030
0200
,  // measure 16
0310
0002
0103
2000
3100
0020
0130
2000
,  // measure 17
3100
0020
0031
0020
1030
0200
0301
0020
,  // measure 18
1030
2000
0100
0000
3100
0002
0010
0000
,  // measure 19
0013
0200
1000
0000
0301
0020
0001
0000
,  // measure 20
1030
1100
0101
1100
,  // measure 21
0101
0000
1010
0000
0011
0000
1000
0100
,  // measure 22
0001
0010
1000
0000
0100
0000
0000
0000
0110
0000
0000
0000
0001
0000
0000
0000
,  // measure 23
1000
0000
0011
0100
1000
0100
0001
0010
,  // measure 24
1001
1010
0011
0101
,  // measure 25
1100
0000
0000
0000
0100
0000
1000
0000
0001
0000
0010
0000
0010
1000
0001
0000
,  // measure 26
0100
1000
0120
0000
1000
0000
0001
0000
,  // measure 27
1030
0000
1010
0100
0010
0001
1000
0100
,  // measure 28
1001
0000
0000
0000
1000
0100
0000
0000
0100
1000
0000
0000
0001
0100
0000
0000
,  // measure 29
0100
0001
0000
0000
2000
0000
0100
0000
3002
0000
0100
0000
0023
0000
0000
0000
,  // measure 30
0130
0000
0000
0000
0100
1000
0000
0000
0010
0001
0000
0000
0100
1000
0000
0000
,  // measure 31
0010
0100
0000
0000
0020
0000
0100
0000
2030
0000
0001
0000
3020
0000
0000
0000
,  // measure 32
0130
0000
0000
0000
2100
0000
0001
0000
3100
0010
0000
0000
0000
0000
1010
0000
,  // measure 33
0000
0000
0000
0000
0102
0000
0000
0000
0103
0010
1000
0000
0000
0000
0011
0000
,  // measure 34
0000
1100
0100
0101
,  // measure 35
0100
0000
1100
0100
0101
0100
0110
0100
,  // measure 36
1001
0000
0000
0020
,  // measure 37
2030
3200
2300
3002
,  // measure 38
0023
0230
0000
0302
,  // measure 39
0203
0320
2030
3200
,  // measure 40
2300
0000
3002
0000
0000
0003
1100
0000
,  // measure 41
0110
0011
0110
1100
,  // measure 42
0101
0220
0030
0302
,  // measure 43
2003
3200
2300
3020
,  // measure 44
0230
0000
0302
0000
0000
0003
0110
0000
,  // measure 45
1100
0101
0110
0011
,  // measure 46
1010
0220
0030
0320
,  // measure 47
0032
0203
2300
3200
,  // measure 48
0320
0000
0000
0000
2030
0000
0000
0000
0000
0000
3000
0100
0010
0000
0000
0000
,  // measure 49
0000
1000
0001
0000
0000
0000
0000
0100
0000
0000
0000
1000
0000
0000
0000
0010
,  // measure 50
0000
0000
0000
2000
0000
0000
0000
0000
3001
0000
0000
0010
1000
0000
0000
0000
,  // measure 51
0000
0100
0001
0000
0000
0000
0000
0010
0000
0000
0000
1000
0000
0000
0000
0100
,  // measure 52
0000
0000
0000
0001
0000
0000
0000
0010
0000
0000
0000
0000
0100
0000
0000
0000
,  // measure 53
0100
0001
0001
1000
,  // measure 54
1000
0000
0020
0000
0030
0000
0100
0100
,  // measure 55
0100
0001
0001
0001
1000
1000
1000
0000
,  // measure 56
0100
0001
1000
0010
0100
0000
0010
1000
,  // measure 57
0100
0001
0010
0000
1000
0100
1000
0001
,  // measure 58
0100
0010
0100
1000
0010
0000
0100
1100
,  // measure 59
0010
0001
0010
0000
0100
0001
1010
0100
,  // measure 60
0010
1000
0001
0100
1001
0000
0100
1100
,  // measure 61
0000
0010
0011
0000
1100
0000
0101
0000
,  // measure 62
1100
0000
0011
0000
0100
0000
1000
0100
,  // measure 63
0010
0001
1000
0010
0100
1000
0001
0010
,  // measure 64
0100
1000
0001
0100
1000
0100
0000
1020
,  // measure 65
0000
0230
0000
0302
0000
0023
0000
2030
,  // measure 66
0000
3002
0000
0023
0000
0230
0000
0302
,  // measure 67
0000
2003
0000
3200
0000
0320
0000
2030
,  // measure 68
0000
3000
0011
0000
1100
0000
0110
0000
,  // measure 69
1010
0101
1001
0011
,  // measure 70
1010
0101
1100
0101
,  // measure 71
1100
0110
1001
0110
,  // measure 72
0101
0000
0110
0000
1001
0010
0000
0010
,  // measure 73
0001
0100
0010
1000
0100
0010
1000
0001
,  // measure 74
0100
0010
1000
0100
1000
0001
0010
0100
,  // measure 75
0001
0100
1000
1100
0100
0001
0100
0101
,  // measure 76
0010
1000
0100
1010
0100
0001
0100
0011
,  // measure 77
0100
1000
0100
0010
0001
1000
0100
0010
,  // measure 78
0001
0100
0010
1000
0001
0010
0100
1000
,  // measure 79
0100
0002
0000
1003
0100
1000
0100
0001
,  // measure 80
0100
0001
0100
0010
1000
0010
1000
0010
,  // measure 81
0001
0010
0001
0100
1000
0010
0100
0001
,  // measure 82
0100
0010
1000
0010
0100
0001
0100
0010
,  // measure 83
1000
0100
0010
1000
0001
0100
0010
0100
,  // measure 84
1000
0000
0001
0000
1000
0100
1000
0100
1000
0100
1000
0000
0100
0000
1000
0000
,  // measure 85
0000
0000
1000
0000
0010
0000
0001
0100
0001
0100
0001
0000
0100
0000
0001
0000
,  // measure 86
0000
0001
0000
0000
0100
1000
0000
0100
1000
0000
0000
0010
0001
0000
0000
0001
,  // measure 87
0000
0100
0000
0000
1000
0100
0000
0010
0001
0000
0000
0100
1000
0000
0000
0100
,  // measure 88
0000
0010
0000
0000
0001
0100
0000
0010
1000
0000
0000
0000
0100
0010
0000
0100
,  // measure 89
0000
1000
0000
0000
0010
0100
0000
1000
0001
0000
0000
0000
0010
0100
0000
1000
,  // measure 90
0000
0001
0000
0000
0100
0010
0000
0001
1000
0000
0000
0000
0100
1000
0000
0010
,  // measure 91
0000
0001
0000
0000
0100
0010
0000
0001
0100
0000
0000
0000
1000
0010
0000
0100
,  // measure 92
0000
1000
0000
0000
0010
0100
0000
0100
1000
0000
0000
0000
1000
0001
0000
0010
,  // measure 93
0000
0100
0000
0000
1000
0100
0000
0100
0001
0000
0000
0000
0001
1000
0000
0100
,  // measure 94
0000
0010
0000
0000
1000
0001
0000
0001
2000
0000
0100
0000
3002
0000
0010
0000
,  // measure 95
0203
1000
0320
0001
0230
1000
0320
0001
,  // measure 96
0230
1000
0320
0001
0230
0010
0302
0100
,  // measure 97
0023
1000
0230
0001
0302
1000
0203
1000
,  // measure 98
0320
0100
0030
1100
0100
0101
0010
1010
,  // measure 99
0100
0011
0010
1001
0100
0110
1000
1010
,  // measure 100
0001
0101
1000
0010
0001
0100
0010
1000
,  // measure 101
0100
0001
0100
0010
0100
1000
0100
0001
,  // measure 102
0010
0001
0100
1000
0010
0100
0020
0100
,  // measure 103
0000
0100
0000
0100
0000
0100
0030
1000
,  // measure 104
0000
0001
0000
0010
0000
0100
0000
0001
,  // measure 105
0000
1000
0000
0010
0000
0100
0000
1000
,  // measure 106
0100
0001
0000
0010
0100
1000
0000
0010
,  // measure 107
0001
0100
0000
0010
0100
1000
0000
0100
,  // measure 108
0010
0001
0000
0010
0100
1000
0000
0100
,  // measure 109
1000
0010
0000
0100
1000
0001
0000
0010
,  // measure 110
0001
0100
0000
1000
0100
0010
0000
0010
,  // measure 111
0100
0001
0000
0100
1000
0100
0000
0100
,  // measure 112
1000
0000
0001
0000
0000
0000
1000
0000
0001
1000
0001
1000
0001
0100
0010
0000
,  // measure 113
0010
0000
1000
0000
0100
0001
0100
0000
0100
0000
1000
0000
0000
0000
0010
0000
,  // measure 114
0000
0000
0100
0000
0000
0000
0010
0001
0010
0100
1000
0100
0010
0001
0100
1000
,  // measure 115
0100
0000
0100
0000
0000
0000
0100
0000
0000
0000
0100
0000
0000
0000
0100
0010
,  // measure 116
0100
0010
0100
0010
0000
0000
0100
0000
0000
0000
0100
0000
0000
0000
0100
0010
,  // measure 117
0100
0010
0100
0010
0000
0000
0100
0000
0000
0000
0100
0000
0000
0000
0100
0010
,  // measure 118
0100
0010
0100
0010
0000
0000
0100
0000
1000
0001
1000
0001
1000
0001
0010
0000
,  // measure 119
0100
0000
0010
0000
0100
0000
0010
0000
0000
0000
0010
0000
0000
0000
0010
0100
,  // measure 120
0010
0100
0010
0100
0000
0000
0010
0000
0000
0000
0010
0000
0000
0000
0010
0100
,  // measure 121
0010
0100
0010
0100
0000
0000
0010
0000
0000
0000
0010
0000
0000
0000
0010
0100
,  // measure 122
0010
0100
0010
0100
0000
0000
0010
0000
0001
1000
0001
1000
0001
1000
0001
0000
;
