#TITLE:Sorry for Party Rocking;
#SUBTITLE:;
#ARTIST:LMFAO;
#TITLETRANSLIT:;
#SUBTITLETRANSLIT:;
#ARTISTTRANSLIT:;
#CREDIT:;
#BANNER:Banner.jpg;
#BACKGROUND:BG.jpg;
#LYRICSPATH:;
#CDTITLE:Irwiny0.png;
#MUSIC:Sorry for Party Rocking.mp3;
#OFFSET:0.100;
#SAMPLESTART:109.840;
#SAMPLELENGTH:12.000;
#SELECTABLE:YES;
#BPMS:0.000=133.770,174.000=145.730,176.000=133.770,231.750=28.302,231.938=133.783,375.000=66.892,376.000=139.383,380.500=62.923,381.000=133.783,412.000=87.183,412.500=68.512,412.625=133.783,435.250=148.823,435.333=66.892,435.667=133.783;
#STOPS:435.625=0.280
,437.000=0.260
,437.500=0.240
,438.000=0.220
,438.500=0.220
,439.500=0.220
,441.000=0.200
,441.500=0.200
,442.000=0.200
,442.500=0.240
;
#BGCHANGES:;

//---------------dance-single - ----------------
#NOTES:
     dance-single:
     :
     Hard:
     10:
     0.766,0.813,0.960,1.000,0.492: // measure 1
0000
0000
0000
0000
2000
0000
0000
0000
3020
0000
0000
0030
1001
0000
0000
0000
,  // measure 2
0200
0000
0000
0000
0310
0000
0012
0000
0000
0003
0020
0000
0000
0000
0030
0000
,  // measure 3
2002
0000
3003
0000
0100
0000
0100
0000
1000
0000
0010
0000
0120
0000
0130
2000
,  // measure 4
0000
3000
0000
0000
0001
0000
0001
0000
0100
0000
0010
0000
1200
0000
0301
0020
,  // measure 5
0030
0000
0001
0100
0010
0100
1100
1100
,  // measure 6
0001
0010
0100
1000
0200
0000
0300
0000
0110
0000
0000
0000
0110
0000
0000
0000
,  // measure 7
2200
0000
3300
0000
0001
0000
1000
0000
0010
0000
0010
0000
1200
0000
0310
0200
,  // measure 8
0300
0000
0000
0000
0001
0000
0100
0000
1000
0000
0010
0000
0102
0000
0013
0200
,  // measure 9
0300
0000
0100
1100
0001
0011
0200
0300
,  // measure 10
2000
0000
3010
0220
0000
0330
1000
0100
,  // measure 11
2000
3000
0010
0100
0001
2002
3003
0000
,  // measure 12
0100
1000
0100
0100
0011
0010
0100
2200
,  // measure 13
3300
0000
0010
0100
0010
0100
0020
0030
,  // measure 14
0100
0010
0100
1000
0002
0000
0003
0000
0200
0000
1300
0000
1100
0000
0100
0000
,  // measure 15
2002
3003
0010
0100
2200
3300
0001
0001
,  // measure 16
0110
0000
1100
0000
0110
0000
1001
2002
,  // measure 17
3003
0000
0100
0100
0011
0001
0011
0000
,  // measure 18
0100
1000
0100
0010
2000
0000
3000
0000
0101
0000
1000
0000
1000
0000
0110
0000
,  // measure 19
0000
0011
0100
0010
2000
3000
0100
0020
,  // measure 20
0030
0000
0101
0000
0001
0000
0100
0000
0010
0000
0200
0000
0000
0300
2002
0000
,  // measure 21
0003
3000
0000
0000
0100
0000
0100
0000
1000
0000
0010
0000
0001
0000
0001
0000
,  // measure 22
0100
0010
0001
1000
0020
0000
0030
0000
0102
0000
0003
0000
0100
0000
0010
0000
,  // measure 23
0100
0000
0000
0000
1200
0000
0000
0300
0021
0000
0000
0000
0130
0000
0100
0000
,  // measure 24
1010
0000
0101
0000
0110
0000
1000
0020
,  // measure 25
0030
0100
1000
0100
0001
0001
0011
0110
,  // measure 26
2000
0000
0000
0000
3010
0000
0220
0000
0330
1000
0000
1002
0003
0000
0200
0000
,  // measure 27
0000
0310
0000
0001
0000
1000
0000
0000
0012
0000
0000
0003
0100
0000
0100
0000
,  // measure 28
1010
1010
0000
0220
0000
0300
0000
0000
,  // measure 29
0030
0000
0000
0000
0102
0000
0000
0003
2100
0000
0000
3000
0220
0000
0300
0000
,  // measure 30
2030
0000
0000
0000
3020
0000
0230
0000
0300
2002
0000
0000
3003
0200
0000
0000
,  // measure 31
0300
0011
0000
0200
0000
0000
0000
0300
2002
0000
0000
0003
3100
0000
0000
0000
,  // measure 32
2000
0000
0000
3020
0000
0030
2002
0000
0000
0000
0000
0000
3003
0000
0000
0000
,  // measure 33
0000
0000
0000
0200
0000
0000
0000
1300
0000
0000
0000
0220
0000
0000
0330
2000
,  // measure 34
0000
0000
3000
0010
0000
0021
0000
0000
0030
2002
0000
0000
0000
0000
3003
0020
,  // measure 35
0000
0130
0000
2000
0000
3010
0000
0200
0000
0301
0000
0200
0000
1300
0000
0020
,  // measure 36
0000
0031
0000
0200
0000
0310
0000
2000
0000
3002
0000
0100
0003
0000
0000
0100
,  // measure 37
0000
0000
0000
1200
0000
0000
0300
0021
0000
0000
0030
0200
0000
0000
0300
2020
,  // measure 38
0000
3000
0000
0130
0000
0201
0000
0000
0300
2002
0000
0000
0000
0003
0000
3200
,  // measure 39
0000
0000
0310
0000
0000
0000
2000
0000
0000
0000
3001
0000
0000
0000
0200
2000
0000
0000
3300
0000
0000
0000
0001
0000
0000
0000
0002
0000
0000
0000
0003
0000
,  // measure 40
0000
0210
0000
0000
0300
2002
0000
0000
0000
0000
0000
0000
3003
0020
0030
0000
,  // measure 41
0000
0000
0000
1200
0000
0000
0300
0012
0000
0000
0003
0120
0000
0000
0030
1002
,  // measure 42
0000
0000
0000
0103
0000
1200
0000
0000
0300
1002
0000
0000
0003
0000
0000
0200
,  // measure 43
0000
1300
0000
0020
0000
0031
0000
0200
0000
0310
0000
0002
0000
0013
0000
2000
,  // measure 44
0000
0000
3010
0000
0000
0000
0200
0000
0000
0000
0310
0000
0000
0000
0000
0000
0002
0200
0000
0003
0000
0000
0000
0000
0300
0000
0000
0000
0000
0000
0000
0000
,  // measure 45
0200
0000
1300
1000
0001
1000
0011
0021
,  // measure 46
0030
0000
0000
0000
0000
0000
0100
0000
0100
0000
1000
0000
0020
0000
0000
0030
,  // measure 47
1200
0000
0310
0100
0011
0000
0100
1000
,  // measure 48
1100
0000
0000
0110
0000
0000
1000
0000
0010
0000
0100
0000
2000
0000
3000
0210
,  // measure 49
0000
0300
0001
0010
0001
0100
0100
1200
,  // measure 50
0300
0000
0000
0000
0001
0000
1000
0000
1010
0000
0100
0000
0100
0000
0000
2002
,  // measure 51
0000
3003
0000
0100
0000
0100
0000
1000
0000
0001
0000
0120
0030
1200
0300
0001
,  // measure 52
0000
0001
0000
0110
0000
1000
0000
0100
0000
1000
0000
0012
0000
0000
0000
0103
,  // measure 53
0000
0000
0000
1000
0000
0010
0000
0020
0000
0000
0030
0000
0000
0100
0000
1100
,  // measure 54
0000
0000
0000
0110
0000
1000
0000
0002
0000
0000
0003
0220
0000
0000
0000
0030
,  // measure 55
0300
0000
0000
1000
0000
0001
0000
0100
0000
0100
1000
0010
0000
0010
0000
0001
,  // measure 56
0000
0000
1001
0000
0000
0010
0000
0011
0000
0000
0000
0220
0300
0000
0000
0130
,  // measure 57
0000
0000
0000
0100
0000
1000
0000
0011
0000
0000
0000
0100
0000
0100
0000
1100
,  // measure 58
0000
0000
0000
0000
0000
0000
0000
0000
0110
0000
0000
0000
0000
0000
0000
0000
0000
0000
0000
0000
1000
0000
0000
0000
0000
0000
0000
0000
0001
0000
0000
0000
0000
0000
0000
0000
1000
0000
0000
0000
0000
0000
0000
0000
0010
0000
0000
0000
0000
0000
0000
0000
0000
0000
0000
0000
0000
0000
0000
0000
0220
0000
0300
0030
,  // measure 59
1100
0000
0000
0000
0011
0000
0000
0000
0120
0000
0000
0030
1200
0000
0000
0000
,  // measure 60
0310
0000
0010
0000
0000
0000
2002
0003
3000
0001
0000
0100
0000
0011
0000
0000
,  // measure 61
0000
0011
0000
0000
0000
0110
0000
0000
0000
0100
0000
0100
0000
0101
0000
0000
,  // measure 62
0000
1010
0000
0000
0100
0000
0010
0000
0100
0000
0001
2000
0000
0000
3000
0000
,  // measure 63
0011
1100
0210
1300
,  // measure 64
0010
0101
0000
0100
0001
0010
1100
0000
,  // measure 65
1100
0000
0010
0100
0001
0000
0120
0000
,  // measure 66
0030
0000
0000
0000
0100
0000
0010
0000
0100
0000
1000
0020
0000
0000
0030
0000
,  // measure 67
0011
1100
0120
0130
,  // measure 68
1100
0000
0010
0000
0000
0000
0100
0000
0010
0000
0010
0000
1200
0000
0000
0300
,  // measure 69
1020
0000
0000
0000
1030
0000
0010
0000
0010
0000
0000
0000
2002
0000
3000
0003
,  // measure 70
0000
0000
0000
0000
0001
0000
0001
0000
1000
0000
0100
0010
0000
0000
0000
0000
,  // measure 71
0101
1010
0120
0130
,  // measure 72
0101
1100
0000
0120
1030
1000
0010
0010
,  // measure 73
0100
1000
0202
0003
0310
0100
0001
1000
,  // measure 74
0220
0000
0000
0300
1030
0000
0001
0000
0001
0000
0010
1000
0000
0000
0000
0000
,  // measure 75
0110
0011
1002
1003
,  // measure 76
0011
0011
0000
0200
0000
0320
0100
0032
,  // measure 77
1000
0203
0010
0302
0010
0203
0010
2300
,  // measure 78
0010
0000
0000
0000
0000
0000
0000
0000
3200
0000
0000
0000
0000
0000
0000
0000
0010
0000
0000
0000
0000
0000
0000
0000
0302
0000
0000
0000
0000
0000
0000
0000
1000
0000
0000
0000
0000
0000
0000
0000
0023
0000
0000
0000
0000
0000
0000
0000
0200
0000
0000
0000
0000
0000
0000
0300
1030
0000
0000
0000
0000
0000
0000
0000
,  // measure 79
1000
0000
1000
0000
0001
1000
0100
1000
0020
0000
0130
0010
1000
0000
0100
1000
,  // measure 80
0001
0000
0100
1000
0010
0100
0010
0200
0000
0000
0300
2002
3000
0003
0100
0010
,  // measure 81
0100
0000
0200
0000
0301
1000
0001
0000
1002
0000
0013
0010
0001
0000
1200
0000
,  // measure 82
1300
1000
0010
0000
0020
0000
0031
0000
1100
0000
0220
0300
0030
0000
1000
0000
,  // measure 83
1200
0000
0310
1000
0010
0000
0010
0000
0001
1000
0001
0000
0100
0000
0010
0000
,  // measure 84
0010
0001
1001
1000
0110
0011
0000
0100
,  // measure 85
1200
0300
0010
0120
0030
1000
1002
0003
,  // measure 86
1000
0000
0100
0000
1200
0000
0000
0300
2002
0000
0000
0000
0003
0100
3000
0100
,  // measure 87
0000
1000
0010
0100
0000
0000
0000
0110
0000
0000
1000
0100
0000
0011
0000
1100
,  // measure 88
0000
0010
0100
0010
0000
0000
1200
0000
0300
0100
0010
1000
0100
0001
0000
0100
,  // measure 89
0100
1000
0001
0000
0200
0000
0310
0001
0000
0110
0000
0110
0000
1000
0100
1000
,  // measure 90
0010
0100
0000
0110
0000
0000
0110
0000
0000
2000
0000
0000
3000
0100
0000
0001
,  // measure 91
0000
0001
0000
1100
0000
0110
0000
0022
0000
0000
0033
1000
0000
1000
0000
0010
,  // measure 92
0100
0000
0010
0000
0000
0000
1010
0000
0000
0000
0101
0000
0000
0000
0011
0000
0000
0000
0010
0000
0000
0000
0000
1000
0000
0000
0000
0000
0010
0000
0000
0000
,  // measure 93
0100
0001
0100
0011
0022
0003
0031
0000
,  // measure 94
0100
0000
0010
0000
0010
0000
0001
0000
2002
0000
0000
0000
0003
3000
1100
0000
,  // measure 95
1010
0000
0220
0300
0130
0000
0001
0012
,  // measure 96
0000
0000
0000
0000
0000
0000
0023
0200
0000
0000
0300
0030
1000
0000
0000
0000
0000
0000
0000
0000
0000
0000
0000
0000
0100
0000
0000
0000
0000
0000
1100
0000
0000
0000
0000
0000
0001
0000
0000
0000
0000
0000
0020
0000
0000
0000
0000
0000
,  // measure 97
0000
0130
0100
0001
0010
0000
2002
0000
,  // measure 98
0000
0000
3000
0000
0003
1100
0000
0101
,  // measure 99
0000
0220
0030
1300
0000
0010
2000
3000
,  // measure 100
2002
3000
0203
0000
0310
1100
0000
0110
,  // measure 101
0000
0000
0011
0000
0000
0000
1000
0000
0000
0020
0000
0000
0030
2002
0000
0000
,  // measure 102
0000
3000
0000
0000
0003
0000
0000
0000
0000
0000
0110
0000
0000
0000
1100
0000
,  // measure 103
0000
0000
0011
0000
0000
0000
0120
0000
0000
0000
0130
0000
0120
0000
0000
0030
,  // measure 104
2002
0003
0000
3000
0020
0000
0031
0000
0200
0000
1300
0000
0020
0000
0031
0000
,  // measure 105
2000
3002
0100
1003
0110
0000
0220
0300
,  // measure 106
1030
0000
1000
0000
0020
0000
0000
0030
1100
0000
0000
0000
0011
0000
0000
0000
,  // measure 107
0220
0300
2030
0000
3010
0200
0300
0220
,  // measure 108
0300
0000
0000
0000
0230
0000
0000
0000
0010
0000
0000
0000
1300
0000
0000
0000
0011
0000
0000
0000
0100
0000
0000
0000
0020
0200
0000
0030
0000
0000
0300
0000
,  // measure 109
0010
0000
0000
0000
0000
0000
1100
0000
0000
0000
0000
0000
0000
0000
0000
0000
0000
0000
0011
0000
0000
0000
0000
0000
0000
0000
0000
0000
0000
0000
2002
0000
0000
0000
0000
0000
3000
0020
0000
0000
0000
0000
0000
0000
0000
0000
0030
0000
,  // measure 110
0003
0000
0000
0000
0000
0000
0000
0000
0000
0000
0000
0000
0000
0000
0000
0000
0000
0000
0000
0000
0000
0000
0000
0000
0000
0000
0000
0000
0000
0000
0000
0000
0000
0000
0000
0000
0000
0000
0000
0000
0000
0000
0000
0000
0000
0000
0000
0000
0012
0000
0000
0000
0000
0000
0000
0000
0000
0000
0000
0000
0003
0000
0000
0000
0000
0000
0000
0000
0000
0000
0000
0000
0210
0000
0000
0000
0000
0000
0000
0000
0000
0000
0000
0000
0000
0000
0000
0000
0000
0000
0000
0000
0000
0000
0000
0000
0320
0000
0000
0000
0000
0000
0000
0000
0000
0000
0000
0000
0000
0000
0000
0000
0000
0000
0030
0000
0000
0000
0000
0000
2002
0000
0000
0000
0000
0000
0000
0000
0000
0000
0000
0000
0003
0000
0000
0000
0000
0000
0000
0000
0000
0000
0000
0000
3200
0000
0000
0000
0000
0000
0000
0000
0000
0000
0000
0000
0000
0000
0000
0000
0000
0000
0000
0000
0000
0000
0000
0000
0320
0000
0000
0000
0000
0000
0000
0000
0000
0000
0000
0000
0000
0000
0000
0000
0030
0000
0000
0000
0000
0000
0000
0000
,  // measure 111
2002
0000
0003
0000
0000
3000
0000
0000
;
