#VERSION:0.83;
#TITLE:You Rock My World;
#SUBTITLE:;
#ARTIST:Michael Jackson;
#TITLETRANSLIT:;
#SUBTITLETRANSLIT:;
#ARTISTTRANSLIT:;
#GENRE:;
#ORIGIN:;
#CREDIT:;
#BANNER:You Rock My World.png;
#BACKGROUND:You Rock My World-bg.png;
#PREVIEWVID:;
#JACKET:You Rock My World-jacket.png;
#CDIMAGE:;
#DISCIMAGE:;
#LYRICSPATH:;
#CDTITLE:;
#MUSIC:You Rock My World.mp3;
#OFFSET:0.713000;
#SAMPLESTART:83.800003;
#SAMPLELENGTH:12.000000;
#SELECTABLE:YES;
#BPMS:0.000=190.000;
#STOPS:;
#DELAYS:;
#WARPS:;
#TIMESIGNATURES:0.000=4=4;
#TICKCOUNTS:0.000=4;
#COMBOS:0.000=1;
#SPEEDS:0.000=1.000=0.000=0;
#SCROLLS:0.000=1.000;
#FAKES:;
#LABELS:0.000=Song Start,
553.000=Song End;
#BGCHANGES:;
#KEYSOUNDS:;
#ATTACKS:
;

//---------------dance-single - ----------------
#NOTEDATA:;
#CHARTNAME:;
#STEPSTYPE:dance-single;
#DESCRIPTION:;
#CHARTSTYLE:;
#DIFFICULTY:Easy;
#METER:6;
#RADARVALUES:0.297636,0.390059,0.163740,0.073401,0.104455,369.000000,340.000000,29.000000,13.000000,0.000000,0.000000,0.000000,0.000000,0.000000,0.297636,0.390059,0.163740,0.073401,0.104455,369.000000,340.000000,29.000000,13.000000,0.000000,0.000000,0.000000,0.000000,0.000000;
#CREDIT:;
#NOTES:
0000
0000
0000
0000
,
0000
0000
0000
0000
,
0000
0000
0000
0000
,
0000
0000
0000
0000
,
0000
0000
0000
0000
,
0000
0000
0000
0000
,
0000
0000
0000
0000
,
0000
0000
0000
0000
,
0000
0000
0000
0000
,
0000
0000
0000
0000
,
0000
0000
0000
0000
,
1000
0100
0010
0000
,
0000
0000
0000
0000
0000
0001
0000
0000
0000
0000
0000
0000
,
0001
0010
0100
0000
,
0000
0000
0000
0000
0000
1000
0000
0000
0000
0000
0000
0000
,
1000
0010
0100
0000
,
0000
0000
0000
0000
0000
0100
0000
0000
0000
0000
0000
0000
,
0100
0010
0100
0010
,
0001
0010
0100
0000
,
1000
0000
0000
0100
0000
0000
0100
0000
0000
0000
0000
0100
,
0000
0000
0000
0000
0000
0000
0010
0000
0000
0000
0000
0100
,
0000
0000
0001
0000
,
0001
0010
1000
0000
,
0000
0000
0000
0000
0000
0000
0100
0000
0000
0000
0000
0100
,
0000
0000
0000
0000
0000
0000
1000
0000
0000
0000
0000
1000
,
0000
0001
1000
0010
,
0100
0001
0001
0000
,
0000
0000
0000
0000
0000
0000
1000
0000
0000
0000
0000
1000
,
0000
0000
0000
0000
0000
0000
0010
0000
0000
0000
0000
0010
,
0000
0100
0010
0000
,
1000
0100
0001
0000
,
0000
0000
0000
0000
0000
0000
0010
0000
0000
0000
0000
0010
,
0000
0000
0000
0000
0000
0000
1000
0000
0000
0000
0000
1000
,
0000
0100
1000
0010
,
0100
0001
0001
0000
,
0000
0000
1000
0100
,
1000
0010
0100
0000
,
0000
0000
0001
0100
,
0001
0010
0100
0000
,
0000
0000
1000
1000
,
1000
0000
0001
0001
,
0001
0000
0100
0010
,
0100
0010
0001
0000
,
0000
0000
1000
0100
,
1000
0100
1000
0000
,
0000
0000
0010
0100
,
0010
0100
0010
0000
,
0000
0000
1000
1000
,
1000
0000
0001
0001
,
0001
0000
1000
0100
,
0100
1000
1000
0000
,
0000
0000
0002
0000
,
1003
0100
0010
0000
,
0200
0000
1300
0010
,
0100
0001
2000
0000
,
3200
0000
1300
0010
,
0100
0010
0002
0000
,
1003
1000
2000
0000
,
3200
0000
0320
0000
,
0030
0000
2000
0000
,
3010
0100
0001
0000
,
2000
0000
3100
0000
,
0010
0100
0002
0000
,
2003
0000
3100
0010
,
0100
0001
0200
0000
,
0310
0000
0000
0100
0000
0000
0100
0000
0000
0000
0000
1000
,
0000
0000
1000
0000
0000
0000
1000
0000
0000
0000
0000
0000
,
1000
0100
0010
0100
,
0010
0001
0001
0000
,
0001
0010
0100
1000
,
0100
1000
0010
0000
,
1000
0100
1000
0010
,
0100
0000
0000
0000
0000
0001
0000
0000
0000
0000
0000
0001
,
0000
0000
0001
0000
0000
0001
0000
0000
0000
0000
0000
1000
,
0000
0000
1000
0000
0000
0000
0000
0000
0000
0000
0000
0000
,
0100
0010
0100
0010
,
0001
0010
0010
0000
,
1000
1000
0100
0100
,
1000
0100
0010
0000
,
0001
0001
0010
0100
,
0010
0000
0000
0000
0000
0100
0000
0000
0000
0000
0000
1000
,
0000
0000
1000
0000
0000
1000
0000
0000
0000
0000
0000
0001
,
0000
0000
0001
0000
0000
0000
0000
0000
0000
0000
0000
0000
,
1000
1000
0100
0000
,
0010
0100
0100
0000
,
0001
0001
0100
0010
,
0100
0001
1000
0000
,
1000
0100
1000
0010
,
0100
0000
0000
0000
0000
0001
0000
0000
0000
0000
0000
1000
,
0000
0000
1000
0000
0000
0100
0000
0000
0000
0000
0000
1000
,
0000
0000
1000
0000
0000
0000
1000
0000
0000
0000
0000
0000
,
1001
0000
0100
0000
,
0110
0000
0001
0000
,
1001
0000
0100
0000
,
1100
0000
0010
0000
,
0110
0000
0001
0000
,
0011
0000
0100
0000
,
1100
0000
0010
0000
,
0110
0000
1000
0000
,
1100
0000
0001
0000
,
0101
0000
0010
0000
,
0110
0000
1000
0000
,
0101
0000
1000
0000
,
0110
0000
0001
0000
,
0101
0000
1000
0000
,
1100
0000
0010
0000
,
0110
0000
0001
0000
,
0101
0000
1000
0000
,
1100
0000
0010
0000
,
0110
0000
0001
0000
,
1001
0000
0100
0000
,
0110
0000
1000
0000
,
1100
0000
0100
0000
,
0101
0000
1000
0100
,
0010
0100
1000
0000
,
0001
0001
0001
0100
,
0100
0010
0010
0000
,
1000
0100
1000
0000
,
0010
0000
0110
0000
,
0001
0000
1001
0000
,
0100
0000
1100
0000
,
0010
0000
0110
0000
,
1000
0100
1000
0000
,
1000
0100
0010
0100
,
1000
0001
0100
0000
,
0001
0001
0100
0100
,
0010
0010
0100
0000
,
1000
0100
0010
0100
,
0100
0001
0010
0000
,
0100
0001
1000
1000
,
1001
0000
0001
0001
,
0101
0000
0010
0100
,
0010
0001
0001
0000
,
1000
1000
0010
0100
,
0001
0010
0001
0000
,
0100
0001
1000
0100
,
0010
0000
0000
0000
0000
0001
0000
0000
0000
0000
0000
1000
,
0000
0000
0100
0000
0000
1000
0000
0000
0000
0000
0000
1000
,
0000
0000
1000
0000
0000
0000
0000
0000
0000
0000
0000
0000
;

//---------------dance-single - ----------------
#NOTEDATA:;
#CHARTNAME:;
#STEPSTYPE:dance-single;
#DESCRIPTION:;
#CHARTSTYLE:;
#DIFFICULTY:Medium;
#METER:8;
#RADARVALUES:0.399268,0.425959,0.248433,0.079047,0.228671,495.000000,451.000000,44.000000,14.000000,0.000000,0.000000,0.000000,0.000000,0.000000,0.399268,0.425959,0.248433,0.079047,0.228671,495.000000,451.000000,44.000000,14.000000,0.000000,0.000000,0.000000,0.000000,0.000000;
#CREDIT:;
#NOTES:
0000
0000
0000
0000
,
0000
0000
0000
0000
,
1000
0100
0010
0000
,
0110
0000
0001
0010
,
0100
0010
0100
0000
,
1001
0000
0001
0010
,
0100
0010
0001
0000
,
1001
0000
0010
0000
,
0100
0010
0100
0010
,
0100
0000
0000
0000
0000
0000
0001
0000
0000
0000
0000
0001
,
1000
0100
1010
0000
,
0000
0000
0000
0000
0000
1001
0000
0000
0000
0000
0000
1000
,
0001
0010
0110
0000
,
0000
0000
0000
0000
0000
0110
0000
0000
0000
0000
0000
0100
,
0010
0100
0110
0000
,
0000
0000
0000
0000
0000
0110
0000
0000
0000
0000
0000
0100
,
0010
0100
1100
0000
,
0000
0000
0000
0000
0000
0110
0000
0000
0000
0000
0000
0100
,
0010
0000
0000
0001
0000
0000
0100
0000
0001
0000
0000
0101
,
0000
0000
0000
0000
0000
0000
0100
0000
0001
0000
0000
0101
,
0000
0010
1000
0000
,
0010
0000
0010
1000
0000
0000
0110
0000
0000
0000
0000
0000
,
0000
0000
0000
0000
0000
0000
0100
0000
0010
0000
0000
0010
,
0000
0000
0000
0000
0000
0000
1000
0000
0001
0000
0000
0001
,
0000
1000
0010
0000
,
0100
0000
0010
0100
0000
0000
0101
0000
0000
0000
0000
0000
,
0000
0000
0000
0000
0000
0000
0100
0000
0010
0000
0000
1010
,
0000
0000
0000
0000
0000
0000
0010
0000
0100
0000
0000
0100
,
0000
1000
0100
0000
,
1000
0000
1000
0100
0000
0000
1100
0000
0000
0000
0000
0000
,
0000
0000
0000
0000
0000
0000
0100
0000
0010
0000
0000
0011
,
0000
0000
0000
0000
0000
0000
0010
0000
0001
0000
0000
0001
,
0000
0010
0100
1000
,
0100
0000
1000
0000
2200
0000
0000
3300
,
0000
0000
0000
0000
0000
0100
0010
0000
0000
0010
0000
0000
,
0100
0001
0200
0000
,
0300
0000
0000
0000
0000
1000
0001
0000
0000
0010
0000
0000
,
0100
1000
0200
0000
,
0300
0000
0000
0000
0000
0100
1000
0000
0000
1000
0000
0000
,
1000
0000
0000
0000
0000
0010
0001
0000
0000
0001
0000
0000
,
0001
0000
0000
0000
0000
0100
0010
0000
0000
0100
0000
0000
,
0010
1000
0200
0000
,
0300
0000
0000
0000
0000
0100
0010
0000
0000
0010
0000
0000
,
0001
0001
0200
0000
,
0300
0000
0000
0000
0000
0001
0010
0000
0000
0010
0000
0000
,
0100
0101
0020
0000
,
0030
0000
0000
0000
0000
1000
0001
0000
0000
0001
0000
0000
,
0010
0000
0000
0000
0000
1000
0010
0000
0000
0010
0000
0000
,
0010
0000
0000
0000
0000
1000
0100
0000
0000
1000
0000
0000
,
0100
0100
0100
0000
,
0000
0000
0020
0000
,
1030
0010
1000
0000
,
0100
0001
0100
0010
,
1000
0100
1000
0000
,
0010
0000
0000
0000
0000
0000
0100
0000
0100
0001
0000
0000
,
0100
0000
0100
1000
0000
0000
0010
0000
0000
0000
0000
0100
,
0000
0000
0100
0000
0000
0000
0020
0000
0000
2030
0000
0000
,
3200
0320
0032
0003
,
0000
0000
0000
0000
0000
0000
1000
0000
0000
0000
0000
1000
,
0010
0100
0010
0000
,
0100
0100
0010
0001
,
0100
0010
1000
0000
,
0100
0000
1000
0001
,
0100
1000
0010
0000
,
0100
0000
0000
0010
0000
0000
0000
0000
0000
1000
0001
0000
,
0000
0001
0000
0000
0000
0000
1001
0000
0000
0000
0000
1000
,
0100
0100
1000
0010
,
0100
0000
0000
1000
0000
0000
1010
0000
0000
0000
0000
0100
,
0001
0001
0100
1000
,
0010
0000
0000
0100
0000
0000
0010
0000
0000
0000
0000
1000
,
0100
0100
1000
0010
,
0100
0000
0000
0010
0000
0000
0100
0000
0000
0100
0010
0000
,
0000
0010
0000
0000
0000
1000
0000
0000
0000
0000
0000
1000
,
0000
0000
1000
0000
0000
0000
0000
0000
0000
0000
0000
1000
,
0001
0100
0010
0100
,
1000
0000
0000
0100
0000
0000
0100
0000
0000
0000
0000
1000
,
0010
0100
0001
0100
,
0010
0000
0000
0100
0000
0000
0010
0000
0000
0000
0000
1000
,
0010
0100
0010
0100
,
0100
0000
0000
0100
0000
0000
0001
0000
0000
0010
0100
0000
,
0000
0100
0000
0000
0000
0001
0000
0000
0000
0000
0000
0100
,
0000
0000
0100
0000
0000
0000
0000
0000
0000
0000
0000
1000
,
0100
0010
0100
0100
,
0001
0000
0000
0100
0000
0000
0001
0000
0000
0000
0000
0100
,
0010
0010
0100
1000
,
0100
0000
0000
1000
0000
0000
0100
0000
0000
0000
0000
0010
,
0010
0100
0001
0100
,
0010
0000
0000
1000
0000
0000
0010
0000
0000
1000
0000
0010
,
0000
0000
0100
0000
0000
0020
0000
0000
0000
0030
0000
1000
,
0000
0000
0100
0000
0000
0000
0100
0000
0000
0100
0000
0000
,
0110
0000
1000
1000
,
1100
0000
0001
0001
,
0101
0000
0010
0010
,
0110
0000
1000
1000
,
1100
0000
0010
0100
,
1001
0000
0010
0001
,
1001
0000
0100
1000
,
1010
0000
0100
0010
,
1001
0000
0010
0100
,
1001
0000
1000
0100
,
0011
0000
0010
0001
,
1100
0000
0010
0100
,
1001
0000
1000
0010
,
0101
0000
0001
0010
,
1100
0000
0010
0000
,
0100
0000
0100
0000
,
0010
1000
0100
0010
,
1000
0100
0010
0000
,
1001
0010
0100
0000
,
0100
0010
0110
0000
,
1000
0001
1001
0000
,
0010
0100
0010
0110
,
0110
0000
0010
0100
,
0010
0000
0000
1000
0000
0000
0100
0000
0000
0000
0000
0001
,
1000
0100
0010
0100
,
0010
0001
1000
0000
,
0100
0100
0010
0010
,
0100
0010
0001
0000
,
1000
0001
0100
0010
,
1000
0100
0010
0100
,
1000
0010
0100
0000
,
0001
0000
0000
0001
0000
0000
0001
0000
0000
0000
0000
0100
,
1000
0100
0010
0100
,
0001
0000
0000
0100
0000
0000
0010
0000
0000
0000
0000
0001
,
1000
0100
0010
0100
,
0001
0000
0000
0100
0000
0000
1000
0000
0000
0000
0000
0100
,
0010
0100
0010
1000
,
0100
0010
0100
0001
,
1000
1000
0100
0100
,
1100
0100
0010
0010
,
0011
0010
0100
0010
,
0100
0000
0000
1000
0000
0000
0100
0000
0000
0000
0000
0001
,
1000
0100
0010
0001
,
1000
0000
0000
0001
0000
0000
1000
0000
0000
0000
0000
1000
,
0010
0100
0010
0100
,
1000
0000
0000
0010
0100
0000
0000
0000
0000
1000
0001
0000
,
0000
0001
0000
0000
0001
0000
0000
0000
0000
0000
0000
0010
,
0000
0000
0010
0000
0000
0000
0000
0000
0000
0000
0000
0000
;

//---------------dance-single - ----------------
#NOTEDATA:;
#CHARTNAME:;
#STEPSTYPE:dance-single;
#DESCRIPTION:;
#CHARTSTYLE:;
#DIFFICULTY:Hard;
#METER:12;
#RADARVALUES:0.536390,0.546082,0.457343,0.045170,0.367004,665.000000,584.000000,81.000000,8.000000,0.000000,0.000000,0.000000,0.000000,0.000000,0.536390,0.546082,0.457343,0.045170,0.367004,665.000000,584.000000,81.000000,8.000000,0.000000,0.000000,0.000000,0.000000,0.000000;
#CREDIT:;
#NOTES:
// measure 0
0000
0000
0000
1000
,  // measure 1
0101
1000
0101
0010
,  // measure 2
1100
0010
1100
0001
,  // measure 3
1000
0100
0010
0001
0010
0000
0000
0000
,  // measure 4
0010
0000
0010
0000
0001
0010
0001
0010
,  // measure 5
0100
1000
0100
1000
0100
0000
0000
0000
,  // measure 6
1000
1000
0110
0110
,  // measure 7
0100
0010
1000
0001
0100
0000
0000
0000
,  // measure 8
0001
0001
1001
0100
,  // measure 9
0100
0010
0100
0010
0100
0000
0000
0000
,  // measure 10
0100
0000
0000
0010
0000
0000
0100
0000
0000
0000
0000
1000
,  // measure 11
0001
0001
0101
0000
,  // measure 12
0000
0000
0000
0000
0000
1100
0000
0000
0000
0000
0000
0100
,  // measure 13
1000
0010
0100
0000
,  // measure 14
0000
0000
0000
0000
0000
0011
0000
0000
0000
0000
0000
0001
,  // measure 15
1000
0001
0101
0000
,  // measure 16
0000
0000
0000
0000
0000
1001
0000
0000
0000
0000
0000
1000
,  // measure 17
0001
0000
1000
0001
0000
0000
0100
0000
0000
0010
0000
0100
,  // measure 18
0010
0000
0000
0100
0000
0010
1000
0000
0000
0000
0000
0000
,  // measure 19
0000
0000
0000
0000
0000
0000
0100
0000
1000
0000
0000
1100
,  // measure 20
0000
0000
0000
0000
0000
0000
0100
0000
1000
0000
0000
1100
,  // measure 21
0000
0000
0000
0000
0010
0000
0100
0000
0000
0000
0000
1000
,  // measure 22
0001
0000
0001
1000
0000
1000
0001
0000
0000
0000
0000
0000
,  // measure 23
0100
0000
0000
0100
0000
0000
0010
0000
0100
0000
0000
0110
,  // measure 24
0000
0000
0000
0000
0000
0000
0001
0000
0100
0000
0000
0101
,  // measure 25
0000
0000
0000
0000
0000
1000
0001
0000
1000
0001
0000
0000
,  // measure 26
0100
0000
0100
1000
0000
1000
0010
0000
0000
0000
0000
0000
,  // measure 27
0000
0000
0000
0000
0000
0000
1000
0000
0100
0000
0000
1100
,  // measure 28
0000
0000
0000
0000
0000
0000
0010
0000
0100
0000
0000
0110
,  // measure 29
0000
0000
0000
0001
0000
0000
1000
0000
0000
0000
0000
0001
,  // measure 30
1000
0000
0100
1000
0000
0010
1000
0000
0000
0000
0000
0000
,  // measure 31
1000
0000
0000
0010
0000
0000
0100
0000
0001
0000
0000
0101
,  // measure 32
0000
0000
0000
0000
0000
0000
1000
0000
0001
0000
0000
1001
,  // measure 33
0000
0001
0110
0001
,  // measure 34
0110
1000
1100
0000
,  // measure 35
0000
0000
0000
0000
0000
0010
1000
0000
0010
1000
0000
0000
,  // measure 36
0010
0110
1001
0000
,  // measure 37
0000
0000
0000
0000
0000
0001
1000
0000
0001
1000
0000
0000
,  // measure 38
0001
0010
0110
0000
,  // measure 39
0000
0000
0000
0000
0000
1000
0100
0000
1000
0100
0000
0000
,  // measure 40
1100
0000
0000
0000
0000
0010
0100
0000
0100
0010
0000
0000
,  // measure 41
0110
0000
0000
0000
0000
1000
0001
0000
0001
1000
0000
0000
,  // measure 42
0010
0110
0110
0000
,  // measure 43
0000
0000
0000
0000
0000
1000
0100
0000
1000
0100
0000
0000
,  // measure 44
0010
0001
0101
0000
,  // measure 45
0000
0000
0000
0000
0000
0010
0100
0000
0010
0100
0000
0000
,  // measure 46
0010
1000
1100
0000
,  // measure 47
0000
0000
0000
0000
0000
0001
1000
0000
0001
1000
0000
0000
,  // measure 48
0110
0000
0000
0000
0000
0100
1000
0000
0100
1000
0000
0000
,  // measure 49
0110
0000
0000
0000
0000
1000
0001
0000
0001
0100
0000
0001
,  // measure 50
1000
0100
1100
0000
,  // measure 51
0000
0000
1100
0000
,  // measure 52
0110
0001
0010
0000
,  // measure 53
0100
0000
0000
0100
0000
0000
1000
0000
1000
0100
0000
0100
,  // measure 54
0010
0100
0002
0000
,  // measure 55
2003
0000
0000
0000
0000
0000
3100
0000
0100
0010
0000
0010
,  // measure 56
1000
0000
1000
0010
0000
0100
0001
0000
0100
0001
0000
1000
,  // measure 57
0000
1000
0000
0000
0000
0000
0020
0000
0000
0032
0000
0000
,  // measure 58
0203
0320
2030
3000
,  // measure 59
0000
0000
1100
0100
,  // measure 60
0010
0010
0100
0000
,  // measure 61
0001
0001
0010
0010
,  // measure 62
1000
0100
0010
0000
,  // measure 63
0101
0000
1000
1000
,  // measure 64
0010
0010
1200
1300
,  // measure 65
0100
0000
0000
0010
0000
0000
0100
0000
0000
0000
1000
0100
,  // measure 66
0000
0100
0000
0000
0000
0000
1100
0000
0000
0000
0000
0010
,  // measure 67
0100
0001
1001
0001
,  // measure 68
0100
0000
0000
0010
0000
0100
0010
0000
0000
0000
0000
0001
,  // measure 69
1000
0100
0100
0001
,  // measure 70
1000
0000
0000
0010
0000
0010
0100
0000
0000
0000
0000
1000
,  // measure 71
0001
0000
0000
0100
0000
0000
0010
0000
0000
0010
0000
0010
,  // measure 72
0001
0000
0001
0100
0000
0000
0010
0000
0000
1000
0000
0000
,  // measure 73
1000
0000
0000
0100
0000
0010
0100
0000
0000
0000
0000
0001
,  // measure 74
0000
0000
0101
0000
0000
0000
0000
0000
0000
0000
0000
1000
,  // measure 75
0100
0100
0110
0010
,  // measure 76
1000
0000
0010
0100
0000
1000
0100
0000
0000
0000
0000
0100
,  // measure 77
0010
0010
1000
0100
,  // measure 78
0110
0000
0010
0100
0000
0010
0001
0000
0000
0000
0000
0000
,  // measure 79
0101
0001
1000
0010
,  // measure 80
0100
0000
0000
0001
0000
1000
0001
0000
1000
0001
0000
0000
,  // measure 81
0010
0000
0000
0100
0000
0100
0010
0000
0000
0000
0000
1000
,  // measure 82
0000
0000
1100
0000
0000
0000
0000
0000
0000
0000
0000
1000
,  // measure 83
0001
0100
1100
0001
,  // measure 84
0001
0000
0000
1000
0000
0010
0100
0000
0000
0000
0000
0001
,  // measure 85
0100
0001
1000
0010
,  // measure 86
0110
0000
0000
0001
0000
0100
0001
0000
0000
0000
0000
1000
,  // measure 87
0100
0100
0010
0100
,  // measure 88
0010
0000
0000
0100
0000
1000
0010
0000
0000
0100
0000
0010
,  // measure 89
0001
0000
0000
0001
0000
0100
1000
0000
0000
0000
0000
0100
,  // measure 90
0000
0000
0000
0000
0110
0000
0000
0000
0000
0000
0000
0000
0100
0000
0000
0010
0000
0000
0100
0000
0000
0010
0000
0000
,  // measure 91
1001
0000
0000
0000
0010
0100
0010
0100
,  // measure 92
1001
0000
0000
0000
1000
0001
1000
0001
,  // measure 93
0110
0000
0000
0000
0001
1000
0001
1000
,  // measure 94
0110
0000
0000
0000
0001
0010
0001
0010
,  // measure 95
1100
0000
0000
0000
1000
0010
1000
0010
,  // measure 96
0101
0000
0000
0000
0100
0001
0100
0001
,  // measure 97
1010
0000
0000
0000
0001
0010
0001
0010
,  // measure 98
1100
0000
0000
0000
1000
0100
1000
0100
,  // measure 99
0011
0000
0000
0000
0010
1000
0010
1000
,  // measure 100
0101
0000
0000
0000
1000
0001
1000
0001
,  // measure 101
0110
0000
0000
0000
0100
0010
0100
0010
,  // measure 102
1001
0000
0000
0000
0100
0001
0100
0001
,  // measure 103
1010
0000
0000
0000
0010
0001
0010
0001
,  // measure 104
1100
0000
0000
0000
0010
1000
0010
1000
,  // measure 105
0101
0000
0000
0000
1000
0001
1000
0001
,  // measure 106
0110
0000
0000
0000
0001
1000
0001
1000
,  // measure 107
0110
0000
0000
0000
0100
0010
0100
0010
,  // measure 108
1001
0000
0000
0000
0001
1000
0001
1000
,  // measure 109
0110
0000
0000
0000
0010
0001
0010
0001
,  // measure 110
1100
0000
0000
0000
0010
1000
0010
1000
,  // measure 111
0101
0000
0000
0000
1000
0001
1000
0001
,  // measure 112
0110
0000
0000
0000
1000
0100
1000
0100
,  // measure 113
0011
0000
0000
0000
0010
0001
0010
0001
,  // measure 114
1100
0000
0000
0000
0000
0000
0010
0000
0000
0000
0000
1000
,  // measure 115
0001
0010
0110
0001
,  // measure 116
0100
0000
0000
0001
0000
0001
1000
0000
0000
0000
0000
0000
,  // measure 117
0100
0010
0010
1000
,  // measure 118
0100
0000
0100
0010
0000
0010
0100
0000
0000
0000
0000
0001
,  // measure 119
1000
0000
0000
1000
0000
0000
0100
0010
0000
0000
0000
1001
,  // measure 120
0000
0000
0000
0000
0000
0000
0010
0100
0000
0000
0000
0110
,  // measure 121
0000
0000
1000
0000
,  // measure 122
0100
0000
0100
1000
0000
1000
0010
0000
0000
0000
0000
0100
,  // measure 123
0001
0001
1001
0100
,  // measure 124
0010
0000
1000
0100
0000
0010
0100
0000
0000
0000
0000
0001
,  // measure 125
0010
0100
0001
1000
,  // measure 126
0100
0000
0000
0010
0000
1000
0010
0000
0000
0000
0000
0010
,  // measure 127
0100
0001
0100
0001
,  // measure 128
0010
0000
0000
0100
0000
1000
0000
0000
0000
0010
0000
0100
,  // measure 129
0000
0000
0000
0000
0001
0000
0000
0000
0000
0000
0000
0000
1000
0000
0000
0100
0000
0000
1000
0000
0000
0100
0000
0000
,  // measure 130
0110
0000
0000
0000
0010
1000
0010
1000
,  // measure 131
1100
0000
0010
0100
,  // measure 132
0010
0000
0000
0100
0000
0100
0001
0000
0000
0000
0000
1000
,  // measure 133
0100
0010
1000
0100
,  // measure 134
0010
0000
0000
0010
0000
0001
0010
0000
0000
0000
0000
0010
,  // measure 135
0100
0001
1000
0100
,  // measure 136
1000
0000
0100
0010
0000
1000
0010
0000
0000
1000
0000
0000
,  // measure 137
1000
0000
0000
0010
0000
0100
1000
0000
0000
0000
0000
1010
,  // measure 138
0000
0000
0010
0000
0000
0000
0000
0000
0000
0000
0000
0000
;
