#TITLE:The Boys of Summer;
#SUBTITLE:;
#ARTIST:DJ Sammy;
#TITLETRANSLIT:;
#SUBTITLETRANSLIT:;
#ARTISTTRANSLIT:;
#GENRE:Trance pop;
#CREDIT:L33tAliceIp;
#MUSIC:The Boys of Summer.ogg;
#BANNER:The Boys of Summer.png;
#BACKGROUND:The Boys of Summer-bg.png;
#CDTITLE:;
#SAMPLESTART:43.475;
#SAMPLELENGTH:15.000;
#SELECTABLE:YES;
#OFFSET:-7.099;
#BPMS:0.000=144.978;
#STOPS:;
#DISPLAYBPM:145.000;
#BGCHANGES:16.000=water1.avi=1.000=1=0=1===CrossFade==,
24.000=highway1.avi=1.000=0=0=1,
40.000=highway2.avi=1.000=0=0=1,
56.000=heart1.avi=1.000=0=0=1,
72.000=planet2.avi=1.000=0=0=1,
84.000=tropical1.avi=1.200=0=0=1,
88.000=sea1.avi=1.000=0=0=1,
104.000=surf1.avi=1.000=0=0=1,
120.000=sea1.avi=1.000=0=0=1,
136.000=water3.avi=1.000=0=0=1,
152.000=numbers1.avi=1.000=0=0=1,
184.000=water2.avi=1.400=0=0=1,
200.000=sea1.avi=1.000=0=0=1,
216.000=highway1.avi=1.000=0=0=1,
232.000=highway2.avi=1.000=0=0=1,
248.000=The Boys of Summer-bg.png=1.000=1=0=1===CrossFade==,
99999.000=-nosongbg-=1.000=0=0=0=StretchNoLoop====
;
#FGCHANGES:;

//--------------- dance-single - ----------------
#NOTES:
     dance-single:
     :
     Beginner:
     3:
     0.157,0.183,0.051,0,0:
0000
0000
0000
0000
,
0000
0000
0000
0000
,
0000
0000
0000
0000
,
0000
0000
0000
0000
,
1000
0000
0001
0000
,
0100
0000
0001
0000
,
1001
0000
1000
0000
,
0001
0000
0001
0000
,
0100
0000
0100
0000
,
0001
0000
0001
0000
,
1000
0000
1000
0000
,
0010
0000
0010
0000
,
1000
0000
1000
0000
,
0001
0000
0001
0000
,
1001
0000
0000
0000
,
0110
0000
0000
0000
,
1000
1000
1000
0000
,
0001
0000
0000
0000
,
0001
0000
1000
0000
,
0001
0000
1000
0000
,
0100
0000
1000
0000
,
0010
0010
0010
0000
,
1001
0000
0001
0000
,
1000
1000
1000
0000
,
0010
0000
0100
0000
,
0001
0001
0001
0000
,
1000
0000
0001
0000
,
1000
1000
1000
0000
,
0001
0000
0100
0000
,
0001
0001
0001
0000
,
1001
0000
1000
0000
,
0010
0010
0010
0000
,
1000
0000
0001
0000
,
0100
0100
0100
0000
,
0001
0000
1000
0000
,
0001
0000
1000
0000
,
0001
0000
0100
0000
,
0001
0000
1000
0000
,
0001
0001
0001
0000
,
1000
1000
1000
0000
,
0001
0001
0001
0000
,
1000
1000
1000
0000
,
0010
0010
0010
0000
,
1000
1000
1000
0000
,
0010
0010
0010
0000
,
1000
1000
1000
0000
,
0001
0000
0001
0000
,
1000
0000
1000
0000
,
0001
0000
0001
0000
,
0100
0000
0100
0000
,
0001
0000
0001
0000
,
1000
0000
1000
0000
,
0010
0000
0010
0000
,
1000
0000
1000
0000
,
1001
0000
0000
0000
,
0000
0000
0000
0000
,
0001
0000
0000
0000
,
1000
0000
0010
0000
,
1000
0000
0000
0000
,
0001
0000
0001
0000
,
0001
0000
0000
0000
,
1000
0000
0001
0000
,
1000
0000
0000
0000
;

//--------------- dance-single - ----------------
#NOTES:
     dance-single:
     :
     Easy:
     7:
     0.264,0.292,0.11,0.135,0:
0000
0000
0000
0000
,
0000
0000
0000
0000
,
0000
0000
0000
0000
,
0000
0000
0000
0000
,
1000
1000
1000
0000
,
0001
0001
0100
0001
,
1001
0000
0001
0000
,
1000
1000
0100
1000
,
0010
0000
0100
0000
,
0001
1000
0001
0100
,
0001
0000
0010
0000
,
1000
1000
0001
1000
,
0100
0000
1000
0000
,
0010
1000
0010
0000
,
0001
1000
0001
0000
,
1000
0100
1000
0000
,
0010
0010
1000
0001
,
2000
0000
3001
0000
,
0001
0100
0001
0000
,
0010
0010
0100
0000
,
1000
0010
1000
0000
,
0001
0001
1000
1000
,
1001
0001
1000
0100
,
2000
0010
3010
0000
,
0001
1000
0001
0100
,
0002
1000
1003
0000
,
1000
0010
1000
0001
,
0100
0001
0100
0000
,
1000
1000
0010
1000
,
0002
0000
0000
1000
0000
0000
1003
0000
,
1001
1000
0010
1000
,
0002
0100
0103
0000
,
1000
0001
0100
0001
,
2000
0010
3010
0000
,
0001
1000
0001
0100
,
0001
1000
0010
0000
,
2000
0000
0000
0001
0000
0000
3001
0000
,
0002
0000
0000
2000
0000
0000
3003
0000
,
1001
1000
0001
0100
,
0001
1000
0010
1000
,
1001
0001
0100
0010
,
1000
0100
1000
0001
,
0110
1000
0100
1000
,
0001
0100
0001
1000
,
0110
0001
1000
0001
,
1000
0100
1000
0001
,
1001
1000
0100
1000
,
0001
0100
0010
1000
,
1001
1000
0100
1000
,
0010
1000
0001
0100
,
0110
0001
1000
0100
,
1000
0001
1000
0100
,
0110
0001
1000
0100
,
1000
0010
1000
0001
,
2002
0000
0000
0000
,
3003
0000
0000
0000
,
2000
0000
3010
0000
,
0002
0000
0103
0000
,
1000
0010
1000
0000
,
0001
0100
0001
0000
,
2000
0000
3001
0000
,
0001
0000
1000
0001
,
2002
0000
0000
0000
,
3003
0000
0000
0000
;

//--------------- dance-single - ----------------
#NOTES:
     dance-single:
     :
     Medium:
     10:
     0.368,0.432,0.422,0.118,0:
0000
0000
0000
0000
,
0000
0000
0000
0000
,
0000
0000
0000
0000
,
0000
0000
0000
0000
,
1000
0010
0001
0010
,
1000
0100
1000
0001
,
1001
0000
0000
0001
0000
0000
1000
0000
,
0100
0000
1000
0010
0000
0000
1000
0000
,
1001
0000
0000
0100
0000
0000
1000
0000
,
0001
0000
1000
0010
0000
0000
0001
0000
,
1001
0000
0000
0100
0000
0100
1000
0000
,
1000
0000
0001
1000
0000
0000
0001
0000
,
1001
0000
0000
0100
0000
0000
1000
0000
,
1010
0011
1001
0100
,
0001
0000
1000
0100
0000
1000
0100
0000
,
0001
0000
0001
0100
0000
0001
0100
0000
,
0020
0000
1000
0000
1030
0000
0010
1000
,
0200
0000
0000
1300
0000
0000
0001
0000
,
1001
0000
0000
0001
0000
0100
0001
0000
,
2010
0001
3001
1000
,
0001
0000
1000
0100
1000
0000
0000
0000
,
1000
0001
1000
0000
1000
0100
1000
0000
,
1001
1001
0101
0101
,
0012
1000
0100
1003
,
1001
1001
1010
1010
,
1000
0001
1000
0000
1001
0000
0001
0000
,
0101
0000
0010
1000
0000
1000
0010
0000
,
2001
3100
0002
0103
,
1001
1000
0010
1000
,
0011
0000
0000
0101
0000
0000
1100
0000
,
1001
0000
1000
0001
1000
0000
0010
0000
,
1000
0000
0001
1000
0000
1000
0100
0000
,
0010
0000
1000
0020
0000
0000
1030
0000
,
1001
0110
1001
0001
,
1000
0000
0001
0100
0000
0100
0001
0000
,
2000
0010
3010
0000
,
1001
0000
0000
0110
0000
0000
0001
0000
,
1001
0000
0000
0110
0000
0000
0000
0000
,
1001
0000
1000
0000
0001
1000
0001
0000
,
0101
0000
0010
0000
1000
0010
1000
0000
,
1001
0000
0100
0000
1000
0010
1000
0000
,
1001
0000
0001
0000
1000
0001
1000
0000
,
1001
0000
0100
0000
1000
0010
1000
0000
,
1001
0000
0001
0000
0100
0001
0100
0000
,
1001
0000
0001
0000
0100
0001
0100
0000
,
1001
0000
0010
0000
1000
0010
1000
0000
,
1100
0000
0100
0000
0010
1000
0010
0000
,
1001
0000
0010
0000
0100
0010
0100
0000
,
0101
0000
0001
0000
1000
0001
1000
0000
,
1001
0000
0010
0000
1000
0100
1000
0000
,
1001
0000
0001
0000
1000
0100
1000
0000
,
0110
0000
0100
0000
1000
0010
1000
0000
,
1001
0000
0001
0000
0100
0001
0100
0000
,
1001
0000
0001
0000
1000
0001
1000
0001
,
2000
0000
0000
0000
,
3002
0000
1000
0000
,
2003
0000
0000
0000
,
3020
0000
1000
0000
,
1030
1000
0010
0010
,
1000
0001
0100
0001
,
1000
1000
0001
0001
,
1000
0010
1000
0001
,
2002
0000
0000
0000
,
0000
0000
0000
0000
,
3003
0000
0000
0000
;

//--------------- dance-single - ----------------
#NOTES:
     dance-single:
     :
     Hard:
     12:
     0.415,0.405,0.236,0.135,0.148:
0000
0000
0000
0000
,
0000
0000
0000
0000
,
0000
0000
0000
0000
,
0000
0000
0000
0000
,
1000
0000
0001
0100
0001
0000
1000
0010
,
1000
0000
0000
0000
0001
0000
1000
0000
0001
0000
0000
1000
0000
0000
0100
0000
,
1000
0100
1000
0100
0000
1000
0001
0000
,
1010
0000
1000
0001
0000
0001
1000
0000
,
0001
0100
0001
0100
0000
1000
0010
0000
,
1001
0000
0001
0100
0000
0100
0001
0000
,
1000
0001
1000
0001
0000
1000
0010
0000
,
1000
0000
0001
0100
0000
0100
0001
0000
,
1001
0000
0100
1000
0000
1000
0100
0000
,
1100
1010
1001
0001
,
0100
0001
0100
0001
0000
0000
1001
0000
,
1000
0100
1000
0100
0000
0000
1000
0001
,
1010
0000
0011
0000
1001
0000
0001
0100
,
0002
0000
0000
1003
0000
0000
1000
0001
,
1000
0001
1000
0001
0000
0001
0100
0000
,
1010
0000
1100
0000
1001
0000
1000
0001
,
1000
1000
0100
0000
,
1000
0100
0001
0100
1000
0010
1001
0000
,
1002
0100
1000
0103
,
2001
0100
0001
3100
,
1000
0000
0010
0001
1000
0000
0010
0000
,
1000
0001
1000
0000
1001
0000
0000
0000
,
1001
0000
0001
1000
0000
1000
0001
1000
,
0100
0010
0001
0110
,
1000
0000
0001
1000
0001
0000
0100
0000
,
1000
0001
1000
0001
0000
0001
1000
0000
,
2010
0100
0010
3100
,
0012
0100
0010
0103
,
1000
0000
0001
0100
0000
0100
0001
0000
,
1000
0010
0001
0000
1001
0000
0000
0000
,
1000
0001
0100
0002
0000
1000
1003
0000
,
1000
0010
1000
0000
0001
0000
0000
0000
,
1001
0000
1000
0100
0000
0100
1000
0000
,
1001
0000
0200
0002
0000
0000
0303
0000
,
1001
0000
0000
0001
0000
0000
0100
0000
0000
0001
0000
0000
1000
0000
0010
0000
,
1000
0000
0000
0100
0000
0000
1000
0000
0000
0001
0000
0000
0100
0000
0001
0000
,
1000
0000
0000
0010
0000
0000
1000
0000
0000
0001
0000
0000
0100
0000
0001
0000
,
0010
0000
0000
0100
0000
0000
0010
0000
0000
1000
0000
0000
0001
0000
1000
0000
,
0100
0000
0000
1000
0000
0000
0010
0000
0000
1000
0000
0000
0001
0000
0100
0000
,
0001
0000
0000
0010
0000
0000
0100
0000
0000
0010
0000
0000
1000
0000
1000
0000
,
0001
0000
0000
0100
0000
0000
0010
0000
0000
1000
0000
0000
0001
0000
0100
0000
,
0001
0000
0000
0100
0000
0000
0010
0000
0000
0100
0000
0000
1000
0000
1000
0000
,
0010
0000
0000
0100
0000
0000
1000
0000
0000
0100
0000
0000
0010
0000
0010
0000
,
0001
0000
0000
0100
0000
0000
0001
0000
0000
0100
0000
0000
0010
0000
0100
0000
,
0001
0000
0000
1000
0000
0000
0100
0000
0000
1000
0000
0000
0010
0000
1000
0000
,
0001
0000
0000
0100
0000
0000
0001
0000
0000
1000
0000
0000
0100
0000
1000
0000
,
0100
0000
0000
1000
0000
0000
0001
0000
0000
0100
0000
0000
0010
0000
0100
0000
,
1000
0000
0000
0001
0000
0000
0100
0000
0000
0001
0000
0000
1000
0000
0100
0000
,
1000
0000
0000
0001
0000
0000
0100
0000
0000
0001
0000
0000
1000
0000
0010
0000
,
1000
0000
0000
0100
0000
0000
1000
0000
0000
0001
0000
0000
1000
0000
0001
0000
,
1002
0000
1000
1000
0000
0000
1003
0000
,
2000
0000
0100
0000
0010
0000
3001
1000
,
0002
0100
0100
0103
,
1000
0000
0000
0001
0000
0000
1000
0000
0010
0000
1000
0000
,
0002
1000
1000
0103
,
2000
0100
0010
3001
,
0012
1000
0100
0013
,
1000
0000
0001
0000
1000
0000
0001
0100
,
2002
0000
0000
0000
,
0000
0000
0000
0000
,
3003
0000
0000
0000
;

//--------------- dance-single - ----------------
#NOTES:
     dance-single:
     :
     Challenge:
     14:
     0.553,0.594,0.338,0.186,0.304:
0000
0000
0000
0000
,
0000
0000
0000
0000
,
0000
0000
0000
0000
,
0000
0000
0000
0000
,
1000
0000
0000
0100
0000
0000
0010
0000
0001
0000
0000
0010
0000
0000
0100
0000
,
1000
0000
0000
0100
0000
0000
0010
0000
0001
0000
0000
0010
0000
0000
0100
0000
,
1000
0001
1000
0001
1000
0001
1000
0001
,
0100
0001
0100
0001
0100
0001
0100
0000
,
1000
0001
1000
0001
1000
0001
1000
0001
,
1000
0100
1000
0100
1000
0100
1000
0000
,
1000
0010
1000
0010
1000
0010
1000
0010
,
1000
0001
1000
0001
1000
0001
1000
0000
,
0001
0100
0001
0100
0001
0100
0001
0100
,
0110
0000
0000
1010
0000
0000
1000
0000
0001
0000
0100
0000
,
1000
0001
1000
0020
0000
1000
1000
1030
,
0100
1000
0010
2000
0000
0001
0001
3001
,
1001
0000
1100
0000
1010
0000
0001
1000
,
1001
0000
0000
1001
0000
0000
1000
0001
,
2000
0000
0010
0010
3000
0001
1000
0001
,
1100
0000
1010
0000
1100
0000
0001
1000
,
0001
0000
0001
0100
0002
0000
1003
0000
,
1000
0010
1000
0000
0001
0100
0001
0000
1000
0001
1000
0001
1000
0001
1000
0001
,
1000
0000
1000
0010
2000
0000
3001
0000
,
1001
0010
0100
1001
0000
0001
0100
0001
,
1001
0000
1000
0010
0002
0000
1003
0000
,
1000
0001
1000
0100
2000
0000
3010
0000
,
1001
0010
1000
0110
0000
0010
0010
1000
,
0001
1000
0000
0000
0100
0000
0000
0000
1000
0001
0000
0000
0100
0000
0000
0000
,
1001
0000
0020
1000
1030
0000
0100
0000
,
1001
1000
0100
1001
0001
0100
1001
0000
,
1001
0000
0010
1000
0002
0000
0103
0000
,
1001
0010
0100
1001
0000
0001
1001
0000
,
1000
0000
0001
0100
0000
0100
1000
0000
,
1000
0100
1000
0001
1001
0000
1001
0000
,
0002
0000
1000
1000
0000
0100
0103
0000
,
1001
1000
0100
0010
1001
0000
0110
0000
,
1002
0000
1000
1000
0000
1000
1003
0000
,
0001
0100
0001
0100
0001
0100
0001
0100
0001
0100
0001
0100
0001
0000
0000
0000
,
0102
0000
0000
0100
0000
0000
0100
0000
0000
0100
0000
0000
0100
0000
0103
0000
,
2001
0000
0000
0001
0000
0000
0001
0000
0000
0001
0000
0000
0001
0000
3001
0000
,
1020
0000
0000
1000
0000
0000
1000
0000
0000
1000
0000
0000
1000
0000
1030
0000
,
2100
0000
0000
0100
0000
0000
0100
0000
0000
0100
0000
0000
0100
0000
3100
0000
,
2001
0000
0000
0001
0000
0000
0001
0000
0000
0001
0000
0000
0001
0000
3001
0000
,
0012
0000
0000
0010
0000
0000
0010
0000
0000
0010
0000
0000
0010
0000
0013
0000
,
0102
0000
0000
0100
0000
0000
0100
0000
0000
0100
0000
0000
0100
0000
0103
0000
,
2001
0000
0000
0001
0000
0000
0001
0000
0000
0001
0000
0000
0001
0000
3001
0000
,
1000
0001
0000
0001
1000
0000
1000
0001
0000
0001
1000
0000
0001
0000
0100
0000
,
1000
0100
0000
0100
1000
0000
1000
0100
0000
0100
1000
0000
1000
0000
0001
0000
,
1000
0001
0000
0001
1000
0000
1000
0001
0000
0001
1000
0000
1000
0000
1000
0000
,
0010
1000
0000
1000
0010
0000
0010
1000
0000
1000
0010
0000
1000
0000
0001
0000
,
0001
0100
0000
0100
0001
0000
0001
0100
0000
0100
0001
0000
0001
0000
1000
0000
,
0010
0100
0000
0100
0010
0000
0010
0100
0000
0100
0010
0000
1000
0000
0001
0000
,
1000
0001
0000
0010
0100
0000
0100
0010
0000
0001
1000
0000
0001
0000
0100
0000
,
0001
0100
0000
0100
0001
0000
0010
1000
0000
1000
0010
0000
0001
0000
1000
0000
,
1002
0000
0000
0100
0000
0000
1003
0000
,
0001
0000
0100
0000
1000
0000
0000
0000
0001
0000
0000
0000
1000
0000
1000
0010
,
1000
0000
0001
0000
1000
0100
1000
0000
,
0010
0000
0000
1000
0000
0000
0010
0000
0000
0000
0000
0000
0001
0000
0000
0000
1000
0000
0000
0000
0100
0000
0000
0000
,
1001
0000
0001
0010
0000
0010
0001
0000
,
1000
0000
0001
0000
0000
0000
0001
0000
1000
0000
0000
0000
1000
0000
0010
1000
,
0010
0000
0001
0100
0010
0100
0001
0000
,
1000
0001
1000
0100
1000
0000
0001
1000
,
2002
0000
0000
0000
,
0000
0000
0000
0000
,
3003
0000
0000
0000
;
