#TITLE:Soak Up The Sun;
#SUBTITLE:;
#ARTIST:Sheryl Crow;
#TITLETRANSLIT:;
#SUBTITLETRANSLIT:;
#ARTISTTRANSLIT:;
#GENRE:;
#CREDIT:;
#BANNER:Soak Up The Sun.png;
#BACKGROUND:Soak Up The Sun-bg.png;
#LYRICSPATH:;
#CDTITLE:;
#MUSIC:Soak Up The Sun.ogg;
#OFFSET:-0.364000;
#SAMPLESTART:50.860001;
#SAMPLELENGTH:12.000000;
#SELECTABLE:YES;
#BPMS:0.000000=120.000000
,182.000000=115.163002
,183.000000=101.010002
,185.000000=98.847000
;
#STOPS:
;
#BGCHANGES:;
#KEYSOUNDS:;
#ATTACKS:;

//---------------dance-single - ----------------
#NOTES:
     dance-single:
     :
     Beginner:
     3:
     0.138642,0.216110,0.000000,0.170087,0.000000,97.000000,97.000000,0.000000,17.000000,0.000000,0.000000,0.138642,0.216110,0.000000,0.170087,0.000000,97.000000,97.000000,0.000000,17.000000,0.000000,0.000000:
0000
0000
0000
0000
,
0000
0000
0000
0000
,
0000
0000
1000
0000
,
1000
0000
0010
0000
,
0100
0000
0001
0000
,
0010
0000
0100
0000
,
0100
0000
0010
0000
,
0100
0000
0001
0000
,
0010
0000
0001
0000
,
1000
0000
0100
0000
,
1000
0000
0001
0000
,
1000
0000
1000
0000
,
1000
0000
0100
0000
,
1000
0000
0010
0000
,
0100
0000
0001
0000
,
0010
0000
1000
0000
,
0100
0000
0100
0000
,
1000
0000
0001
0000
,
0010
0000
1000
0000
,
0100
0000
1000
0000
,
0001
0001
0001
1000
,
1000
0100
0010
0100
,
0010
1000
0001
1000
,
0001
0010
0100
0010
,
0100
1000
0001
1000
,
0001
0002
0000
0000
,
0000
0000
0000
1003
,
0100
0200
0000
0000
,
0000
0000
0310
0010
,
0100
0200
0000
2300
,
0000
3200
0000
0302
,
0000
0023
0000
0000
,
0000
0000
1030
1000
,
1000
2000
0000
0000
,
0000
0000
3100
0000
,
0100
0020
0000
0000
,
0000
0000
0031
0001
,
1000
2000
0000
3200
,
0000
2300
0000
3020
,
0000
0230
0000
0000
,
0000
0000
0000
0000
,
0000
0320
0000
0000
,
0000
0000
0031
0001
,
0001
2000
0000
0000
,
0000
3000
0100
0000
,
0100
0100
0100
0100
,
1000
1000
0000
0000
,
0100
0200
0000
0000
,
0300
0000
0000
0000
;

//---------------dance-single - ----------------
#NOTES:
     dance-single:
     :
     Easy:
     4:
     0.164370,0.288147,0.030015,0.210107,0.000000,115.000000,112.000000,3.000000,21.000000,0.000000,0.000000,0.164370,0.288147,0.030015,0.210107,0.000000,115.000000,112.000000,3.000000,21.000000,0.000000,0.000000:
0000
0000
0000
0000
,
0000
0000
0000
0000
,
0000
0000
1000
1000
,
1000
0000
0100
0000
,
0100
0000
0010
0010
,
0010
0000
0001
0000
,
0001
0000
0100
0100
,
0100
0000
0010
0000
,
0010
0000
0001
0001
,
0001
0000
1000
0000
,
1000
0000
0100
0000
,
0010
0000
0100
0000
,
0001
0000
1000
1000
,
1000
0000
0100
0000
,
1000
0000
1000
1000
,
1000
0000
0010
0000
,
0100
0000
0001
0001
,
0001
0000
0010
0000
,
0100
0000
0001
0001
,
0001
0000
1000
0000
,
0100
0000
0010
0000
0010
0000
1000
0001
,
1000
0000
0100
0000
0100
0000
1000
0010
,
1000
0000
0001
0000
0010
0000
0100
1000
,
0100
0010
0001
1000
,
0100
0000
1000
0100
1000
0000
0010
0100
,
0010
2001
0000
0000
,
0000
0000
3100
0100
,
0100
0020
0000
0000
,
0000
0000
1030
1000
,
1000
0002
0000
2003
,
0000
3200
0000
0320
,
0000
0032
0000
0000
,
0000
0000
1003
1000
,
0010
0120
0000
0000
,
0000
0000
1030
1000
,
0010
0200
0000
0000
,
0000
0000
0301
0001
,
1000
2000
0000
3200
,
0000
2300
0000
3020
,
0000
0230
0000
0000
,
0000
0000
0000
0000
,
0301
0002
0000
0000
,
0000
0000
0013
0010
,
0100
0200
0000
0000
,
0000
0000
1300
1000
,
1000
0020
0000
2030
,
0000
3200
0000
0300
,
1000
2002
0000
0000
,
3003
0000
0000
0000
;

//---------------dance-single - ----------------
#NOTES:
     dance-single:
     :
     Medium:
     6:
     0.202961,0.336171,0.040020,0.280143,0.000000,142.000000,138.000000,4.000000,28.000000,0.000000,0.000000,0.202961,0.336171,0.040020,0.280143,0.000000,142.000000,138.000000,4.000000,28.000000,0.000000,0.000000:
0000
0000
0000
0000
,
0000
0000
0000
0000
,
0000
0000
1000
0100
,
1000
0100
0000
0010
0000
0002
0000
0000
,
0003
0000
0000
0000
0100
0000
0010
0100
,
0000
0100
0000
0010
0000
0100
0000
0200
,
0000
0300
0001
1000
,
0100
1000
0000
0010
0000
0220
0000
0000
,
0330
0000
1000
1000
,
0010
0010
0100
0100
,
0001
1000
0000
1000
,
0000
0100
0100
0000
,
0010
0000
0010
0000
0100
0000
0010
1000
,
0000
1000
0000
1000
0000
0200
0000
0000
,
0300
0000
0000
0000
1000
0000
0001
1000
,
0000
0001
0000
0100
0000
0020
0000
0200
,
0330
0000
0000
0000
1000
0000
0100
1000
,
0000
0010
0000
0100
0000
0001
0000
0000
,
0000
0000
0000
0000
0100
0000
0010
0010
,
0000
0100
0000
0100
0000
0001
0002
0000
,
0003
0000
1000
0000
0100
1000
0100
0000
,
0010
0100
0010
0000
1000
0001
1000
0000
,
1001
0000
0100
0001
0100
0000
0010
0100
,
0010
0000
1000
0000
0100
0000
1000
0100
,
1000
0000
0001
0100
0001
0000
0010
0100
,
0010
1002
0000
0000
,
0000
0000
0000
0000
1003
0000
0010
0100
,
0010
2000
0000
0000
0000
0000
0000
0000
,
0000
0000
0000
0100
3100
0000
0010
0100
,
0010
0020
0000
0000
0000
0000
2030
0000
,
0000
3200
0000
0320
,
0000
0032
0000
0000
,
0000
0000
0000
1003
1000
0000
0100
0000
,
0010
1200
0000
0000
,
0000
0000
0310
0001
,
1000
0100
0020
0000
0000
0000
0000
0000
,
0000
0000
0000
1000
1030
0000
0001
0000
,
0100
0000
0020
0000
0000
0030
2000
0000
,
0000
3000
0002
0000
0000
0000
2003
0000
,
0000
3200
0000
0000
,
0000
0000
0000
0000
,
0000
0320
0000
0000
,
0000
0000
0000
0000
1030
0000
1000
0100
,
1000
0010
0200
0000
0000
0000
0000
0000
,
0000
0000
0000
0001
0301
0000
0010
0000
,
0100
2000
0000
3200
,
0000
2300
0000
0000
,
3100
0010
0200
0000
0000
0000
0000
0000
,
0300
0000
0000
0000
;

//---------------dance-single - ----------------
#NOTES:
     dance-single:
     :
     Hard:
     8:
     0.261562,0.384196,0.160082,0.330168,0.000000,183.000000,167.000000,16.000000,33.000000,0.000000,0.000000,0.261562,0.384196,0.160082,0.330168,0.000000,183.000000,167.000000,16.000000,33.000000,0.000000,0.000000:
// measure 0
0000
0000
0000
0000
,  // measure 1
0000
0000
0000
0000
,  // measure 2
0000
0000
1000
0001
,  // measure 3
0100
0110
0000
0010
0000
0220
0000
0000
,  // measure 4
0330
0000
0000
0000
0100
0000
1000
0010
,  // measure 5
0000
0100
0000
0001
0000
0010
0000
0022
,  // measure 6
0000
0033
1000
0001
,  // measure 7
0100
0010
0000
1100
0000
0202
0000
0000
,  // measure 8
0303
0000
0000
0000
1000
0100
1000
0010
,  // measure 9
0000
0100
0000
0001
0000
1000
0000
1000
,  // measure 10
0000
0000
1000
0100
0010
0001
0000
0100
,  // measure 11
0000
0100
0000
0010
0000
0100
1000
0000
,  // measure 12
1000
0000
0000
0000
0100
0000
0010
0100
,  // measure 13
0000
1000
0000
0101
0000
2000
0000
0000
,  // measure 14
3000
0000
0000
0000
0100
0000
0010
0100
,  // measure 15
0000
1000
0000
0110
0000
0001
0000
0002
,  // measure 16
0000
0000
0003
1000
1000
0000
0001
0100
,  // measure 17
0000
0001
0000
0010
0000
0220
0000
0000
,  // measure 18
0330
0000
0000
0000
1000
0000
0010
0100
,  // measure 19
0000
0001
0000
1100
0000
0002
0200
0000
,  // measure 20
0303
0000
1000
0100
1000
0100
0010
0100
,  // measure 21
0010
0001
0010
0001
0010
0001
0100
0010
,  // measure 22
0100
0000
0010
1000
0100
1000
0010
1000
,  // measure 23
0100
1000
0010
0100
0001
0100
0010
1000
,  // measure 24
0100
0000
0001
1000
0001
1000
0001
1000
,  // measure 25
0100
1200
0000
0000
,  // measure 26
0000
0000
0000
1300
0100
1000
0010
0100
,  // measure 27
0001
0002
0000
0000
0000
0000
0000
0000
,  // measure 28
0000
0000
0000
1003
0100
0010
0100
1000
,  // measure 29
0100
0200
0000
0000
0000
0000
0320
0000
,  // measure 30
0000
2030
0000
3002
,  // measure 31
0000
0203
0000
0000
,  // measure 32
0000
0000
0000
0310
0001
0010
0100
0001
,  // measure 33
0100
0002
0000
0000
,  // measure 34
0000
0000
0000
1003
1001
0000
0100
0010
,  // measure 35
1000
0100
0120
0000
0000
0000
0000
0000
,  // measure 36
0000
0000
0000
0001
0031
0001
0100
1000
,  // measure 37
1000
0200
0000
0320
,  // measure 38
0000
2030
0000
3200
,  // measure 39
0000
2300
0000
0000
,  // measure 40
0000
0000
0000
0000
,  // measure 41
0000
3020
0000
0000
,  // measure 42
0000
0000
0000
1030
0100
0010
0001
0010
,  // measure 43
0100
2000
0000
0000
0000
0000
0000
0000
,  // measure 44
0000
0000
0000
0001
3001
0100
0100
0010
,  // measure 45
1000
0000
2010
0000
0000
3000
0201
0000
,  // measure 46
0000
0300
1020
0000
0000
0000
0000
0031
,  // measure 47
1000
0001
0100
0220
0000
0000
0000
0000
,  // measure 48
0330
0000
0000
0000
;
