#TITLE:Radio Rockin';
#SUBTITLE:;
#ARTIST:Brisk & Fade;
#TITLETRANSLIT:;
#SUBTITLETRANSLIT:;
#ARTISTTRANSLIT:;
#GENRE:Hardcore;
#CREDIT:;
#MUSIC:Radio Rockin.ogg;
#BANNER:bn.png;
#BACKGROUND:bg.png;
#CDTITLE:;
#SAMPLESTART:60.435;
#SAMPLELENGTH:15.500;
#SELECTABLE:YES;
#OFFSET:-0.421;
#BPMS:0.000=175.773
,112.000=87.887
,144.000=175.773
,232.000=170.000
,233.000=176.000
,234.000=156.000
,234.500=172.000
,235.000=196.000
,235.500=172.500
,236.500=170.000
,237.000=160.000
;
#STOPS:;
#DISPLAYBPM:88.000:176.000;
#BGCHANGES:;
#FGCHANGES:;

//--------------- dance-single - ----------------
#NOTES:
     dance-single:
     :
     Beginner:
     5:
     0.320362,0.411043,0.255075,0.031884,0,211,187,24,3,0,0,0.320362,0.411043,0.255075,0.031884,0,211,187,24,3,0,0:
0000
0000
0000
0000
,
1000
0001
1000
0001
,
0100
0010
0100
0010
,
1000
0100
1000
0100
,
0010
0001
0010
0001
,
0100
0001
0100
0001
,
1000
0010
1000
0010
,
1000
0001
1000
0001
,
1001
0000
0110
0000
,
0001
1000
0100
0000
,
0100
0010
0001
0000
,
0001
0100
0010
0000
,
1000
0100
0010
0001
,
0100
0010
1000
0001
,
0010
0100
1000
0001
,
1000
1000
1000
0000
,
0110
1001
0001
1000
,
0100
0010
0001
1000
,
1100
0101
0100
0100
,
0010
0010
0001
1000
,
1001
0110
0001
1000
,
0100
0010
0001
1000
,
0011
1100
0100
0010
,
0100
0010
0100
0010
,
0002
0000
0000
0000
,
0000
0000
0000
0000
,
0000
0000
0000
0000
,
0000
0000
0000
0000
,
1003
0000
0100
0000
,
0010
0000
0001
0000
,
1000
0000
0001
0000
,
1000
0000
0001
0000
,
1001
0000
0100
0000
,
0010
0000
0100
0000
,
0010
0010
0010
0010
,
0010
0110
1001
0110
,
0001
1000
0100
0010
,
0001
0100
0001
1000
,
0100
0010
0010
0010
,
0001
0001
0001
0001
,
0100
0000
0010
1000
,
1010
0000
0001
0000
,
0100
0000
0010
0001
,
0011
0000
0100
0000
,
1001
0000
0100
1000
,
0100
0010
0001
0001
,
0100
0100
0001
0100
,
0001
0010
0100
1000
,
0001
0001
1000
1000
,
0100
0100
0010
0010
,
0001
1000
0001
1000
,
1001
0110
1001
0000
,
1001
1001
0001
0100
,
0010
1000
0001
1000
,
0001
0010
0100
1000
,
0001
1000
0100
0000
,
1001
0100
0010
0001
,
0100
0100
0010
0010
,
2002
0000
0000
0000
,
0000
0000
3003
0000
;

//--------------- dance-single - ----------------
#NOTES:
     dance-single:
     :
     Easy:
     9:
     0.466119,0.581093,0.255075,0.074397,0.047827,307,283,24,7,0,0,0.466119,0.581093,0.255075,0.074397,0.047827,307,283,24,7,0,0:
0000
0000
0000
0000
,
0000
0000
0000
0000
,
0101
0000
1000
0001
0000
0001
1000
0000
,
0001
0000
0100
0001
0000
0001
0100
0000
,
0001
0000
1000
0001
0000
0001
0000
1000
,
0001
0000
0001
0100
0000
0001
0000
1000
,
0002
0000
0000
0103
0000
0100
0000
0010
,
1000
0000
0000
0001
0000
0000
1000
0000
0010
0000
0100
0000
,
0001
0000
0001
1000
0000
0001
1000
0000
,
1100
0000
0010
0001
0000
1000
0100
0000
,
0011
0000
0010
0100
0000
0001
1000
0000
,
1001
0000
0100
0001
0000
1000
0100
0000
,
0002
0000
0100
0100
0000
0010
0000
1000
,
2003
0000
0100
0100
0000
0001
0000
0001
,
3001
0000
1000
0001
0000
1000
0000
1000
,
0001
1000
0010
1000
0001
0000
0000
0000
,
1000
0000
0100
0000
0010
0001
0010
0000
,
0001
0000
0100
0000
0010
0100
0110
0000
,
0001
0000
1000
0000
0100
0010
0110
0000
,
0001
0000
1000
0000
0100
0010
0110
0000
,
0001
0000
0100
0000
0001
1000
1001
0000
,
0100
0000
0010
0000
0001
0010
0011
0000
,
0100
0000
1000
0000
0001
1000
1001
0000
,
0100
0010
0100
0010
0100
0010
0100
0000
,
0220
0000
0000
0000
,
0000
0000
0000
0000
,
0000
0000
0000
0000
,
0000
0000
0000
0000
,
0330
1000
0100
1000
,
0001
1000
0100
1000
,
0001
0000
0000
0000
1000
0000
0000
0000
0100
0000
0000
0100
0000
0000
0000
0000
,
0010
0000
0000
0000
0001
0000
0000
0000
1000
0000
0000
1000
0000
0000
0000
0000
,
1001
0000
0000
0000
0100
0000
0000
0000
0010
0000
0000
0100
0000
0100
0000
0000
,
0000
0000
0000
0000
0001
0000
0000
0000
1000
0000
0000
0100
0000
0100
0000
0000
,
0011
0100
1100
0001
,
1001
0000
0110
0000
0011
0101
0011
0000
,
1001
0000
1000
0000
0001
0100
0001
0100
,
0001
0000
1000
0000
0010
0100
0010
0100
,
0010
0000
1000
0000
0001
1000
0100
1000
,
0010
0000
0001
0000
0010
0100
1000
0001
,
0100
0000
0010
0000
1000
0001
0100
0001
,
1000
0000
0100
0010
0000
0010
0000
0010
,
0100
0000
0001
0000
1000
0010
0100
0010
,
1000
0000
0001
0100
0000
0100
0000
0100
,
0101
0000
1000
0000
0100
1000
0100
0010
,
0100
0000
0001
0000
0100
0010
1000
0010
,
0100
0000
0000
0000
0100
0000
0000
0000
0001
0000
0000
1000
0000
0000
1000
0000
,
0100
0000
0010
0001
0000
1000
0000
0000
,
1000
0100
1000
0100
0010
0001
0010
0001
,
0010
0100
0010
0100
0001
0010
0001
0010
,
0100
0100
1000
0000
0001
0001
0100
0100
,
0001
1000
0001
1000
1001
0000
0000
0000
,
1100
0000
0001
0000
0100
0001
0100
0000
,
0010
0000
1000
0000
0100
0010
0100
0000
,
0001
0000
0100
0000
0010
0100
0010
0000
,
1000
0100
0010
0001
0010
0100
1000
0000
,
0001
1000
0001
0000
0100
1000
0100
0000
,
0010
0001
0010
0000
0100
1000
0100
0000
,
1000
0000
0001
0000
0100
0010
1000
0001
,
0000
1000
0100
0000
0220
0000
0000
0000
,
0000
0330
0000
0000
;

//--------------- dance-single - ----------------
#NOTES:
     dance-single:
     :
     Medium:
     11:
     0.554181,0.643001,0.244447,0.053141,0.154108,365,342,23,5,0,0,0.554181,0.643001,0.244447,0.053141,0.154108,365,342,23,5,0,0:
0000
0000
0000
0000
,
0000
0000
0000
0000
,
1001
1100
1001
0101
,
0001
1000
0001
0000
1000
0100
1000
0000
,
0001
0010
0100
1000
0100
0010
0001
0000
,
0100
0010
1000
0000
0100
1000
0001
0000
,
0100
0010
1000
0000
0010
0100
0001
0000
,
0100
0010
1000
0000
0001
1000
0001
0100
,
0001
1000
0001
0100
0001
1000
0001
0000
,
0001
1000
0100
1000
0001
0010
0100
0000
,
1000
0001
0100
0010
1000
0001
1000
0000
,
0001
0100
0010
1000
0001
0100
0001
0000
,
0100
0000
1000
0001
0000
0001
0000
0001
,
1000
0000
0100
0010
0000
0001
0000
1000
,
0100
0000
0001
0010
0000
0100
0000
1000
,
0100
0010
0001
1000
0001
0000
0100
0000
,
0001
0100
0001
0100
0001
1000
0001
1000
,
0001
0100
0001
1000
0001
0000
0100
0000
,
1000
0001
1000
0100
1000
0001
0010
0100
,
1000
0001
0100
0010
0010
0000
0100
0000
,
0001
1000
0001
0100
0010
1000
0001
0010
,
0100
1000
0001
0100
0001
0000
0100
0000
,
0001
1000
0001
1000
0001
0100
0001
0010
,
0100
1000
0100
0010
0001
0100
0001
0010
,
2002
0000
0000
0000
,
0000
0000
0000
0000
,
0000
0000
0000
0000
,
0000
0000
0000
0000
0000
0000
0000
0003
,
3001
0000
0000
0000
0000
0000
0000
0000
0001
0000
0000
0010
0000
0000
0100
0000
1000
0000
0000
0000
1000
0000
0100
0000
0000
0000
0020
0000
0000
0000
0000
0000
,
0000
0000
0000
0000
0000
0000
0030
0000
0001
0000
0000
0010
0000
0000
0001
0000
0010
0000
0000
0000
0100
0000
1000
0000
0000
0000
1000
0000
0000
0000
0000
0000
,
0000
0000
0000
1000
0001
0000
0000
0001
1000
0000
0000
0001
0000
0000
0000
0000
,
1100
0000
0000
0001
1000
0000
0000
1000
0001
0000
0000
0001
0000
0000
0000
0000
,
1000
0000
0000
0000
0000
0000
0000
0000
0001
0000
0000
0010
0000
0000
0100
0000
0010
0000
0000
0000
0100
0000
0010
0000
0000
0000
0001
0000
0000
0000
0000
0000
,
0000
0000
0000
0000
0000
0000
0000
0000
1000
0000
0000
0100
0000
0000
0010
0000
0001
0000
0000
0000
0100
0000
0010
0000
0000
0000
0100
0000
0000
0000
0010
0000
,
1000
0000
0000
0001
0100
0000
0000
0100
0010
0000
0000
0001
0100
0000
0000
0100
,
0010
0000
0000
0001
1000
0000
0000
0100
1100
0000
0110
0000
1001
0000
0000
0000
,
1100
0000
0001
0100
0001
1000
0100
0010
,
0001
1000
0100
0010
0001
1000
0001
0010
,
0100
1000
0100
0010
0100
1000
0001
0000
,
0100
0010
1000
0000
0100
0010
0001
0000
,
0011
0000
1001
0000
0100
1000
0001
0000
,
1001
0000
0101
0000
0100
1000
0001
0000
,
0011
0000
1001
0000
0001
0100
0001
1000
,
0001
0000
1000
0100
1000
0000
0001
0000
,
0100
0000
0001
0000
0001
0100
0001
1000
,
0100
0000
0100
1000
0000
0100
1000
0000
,
0001
0100
0001
1000
0100
0010
0001
1000
,
0001
0000
0001
1000
0000
0100
0010
0000
,
0010
0001
0100
0000
0001
0100
0001
0000
,
1000
0100
1000
0000
0001
0010
0100
0000
,
1000
0010
1000
0000
0001
0010
0100
1000
,
0001
0100
0010
1000
0001
0000
0100
0000
,
1100
0000
1001
0000
0001
0100
0001
0000
,
1001
0000
1100
0000
0001
0100
0001
0000
,
0011
0000
1001
0000
0100
1000
0100
0000
,
0001
1000
0001
0100
0001
0001
0001
0000
,
0100
1000
0100
0000
0001
0010
0001
0000
,
0100
1000
0100
0000
0001
0100
0010
0000
,
0100
0000
1000
0000
0001
1000
0001
1000
,
0000
0001
1000
0000
2002
0000
0000
0000
,
0000
3003
0000
0000
;

//--------------- dance-single - ----------------
#NOTES:
     dance-single:
     :
     Hard:
     16:
     0.76978,1.318153,0.223191,0.074397,0.584547,507,486,21,7,0,0,0.76978,1.318153,0.223191,0.074397,0.584547,507,486,21,7,0,0:
0000
0000
0000
0000
,
0000
0000
0000
0000
,
1001
1000
0001
0100
0001
0100
0001
1000
,
0001
1000
0001
0100
0001
1000
0001
0100
,
0001
0010
0001
1000
0001
0100
0001
0000
,
0010
1000
0010
0100
0001
1000
0100
0000
,
0010
0001
0100
1000
0100
0001
1000
0000
,
0001
0100
0001
1000
0100
0010
0001
0010
,
0100
1000
0100
0010
0001
0010
0100
1000
,
0001
0100
0010
1000
0100
0010
0001
0010
,
0100
1000
0001
0010
0100
1000
0001
0001
,
0001
0100
0010
1000
0001
0010
0100
0100
,
0100
1000
0001
0010
0100
1000
0001
0001
,
0001
0000
0010
0000
0100
0000
1000
0010
1000
0000
0001
0000
1000
0010
1000
0010
,
1000
0000
0100
0000
1000
0100
1000
0100
0010
0000
0001
0000
1000
0100
0010
0001
,
1000
0010
1000
0010
0100
0001
0100
0010
1000
0000
0000
0000
1100
0000
0000
0000
,
1001
0000
1000
0000
0001
0000
1000
0100
0010
0001
0100
0000
0010
0000
1000
0000
,
0010
0000
0100
0000
1000
0000
0001
0100
0010
1000
0001
0000
0100
0000
0010
0000
,
1000
0000
0010
0000
0100
0000
0001
0010
0100
0010
0100
0000
1000
0000
0100
0000
,
0001
0000
0100
0000
1000
0000
0001
0100
0001
0100
0001
0000
1000
0000
0010
0000
,
0100
0000
0001
0000
0100
0000
0010
0100
0010
0100
0001
0000
0100
0000
0010
0000
,
1000
0000
0100
0000
0010
0000
0001
0010
0100
1000
0100
0000
0110
0000
0000
0000
,
0100
0000
1000
0000
0001
0000
1000
0010
1000
0010
1000
0000
1001
0000
1000
0000
,
0001
0100
0101
0001
1000
0010
1001
0000
,
2002
0000
0000
0000
,
0000
0000
0000
0000
,
0000
0000
0000
0000
,
0000
0000
0000
0000
,
3003
0000
0000
0000
0000
0000
0000
0000
0010
0000
0000
0010
0000
0000
0001
0000
0010
0000
0000
0000
0100
0000
1000
0000
0000
0000
0020
0000
0000
0000
0000
0000
,
0000
0000
0000
0000
0000
0000
0030
0000
1000
0000
0000
0010
0000
0000
0100
0000
0010
0000
0000
0000
1000
0000
0100
0000
0000
0000
0200
0000
0000
0000
0000
0000
,
0000
0000
0000
0310
0001
0000
0000
0001
0100
0000
0000
0101
0000
0000
0000
0000
,
1000
0000
0000
0001
0100
0000
0000
0100
0010
0000
0000
1000
0000
0000
0000
0000
,
0001
0000
0000
0000
0000
0000
0000
0000
0010
0000
0000
0100
0000
0000
0010
0000
0100
0000
0000
0000
0010
0000
0100
0000
0000
0000
1000
0000
0000
0000
0000
0000
,
0000
0000
0000
0000
0000
0000
0000
0000
1000
0000
0000
0100
0000
0000
0010
0000
0001
0000
0000
0000
0100
0000
0010
0000
0000
0000
0100
0000
0000
0000
0010
0000
,
1010
0000
0000
0000
0000
0000
0000
0000
0001
0000
0010
0000
0100
0000
1000
0000
0100
0000
0010
0000
0001
0000
1000
0000
0001
0010
0100
1000
0001
0100
0010
0100
,
0001
0100
0010
1000
0100
0010
0001
0010
0100
1000
0001
0100
0010
1000
0001
0000
0011
0000
0000
0000
0110
0000
0000
0000
1100
0000
0000
0000
0000
0000
0000
0000
,
1100
0000
1000
0000
0001
0000
0100
0001
0100
0010
1000
0000
0100
0000
0010
0000
,
0100
0000
0010
0000
0001
0000
1000
0100
0010
0001
1000
0000
0001
0000
1000
0000
,
0100
0000
0010
0000
0001
0000
0010
0100
1000
0100
1000
0000
0001
0000
0010
0000
,
0001
0000
1000
0000
0010
0000
0100
0001
1000
0100
1000
0000
0100
0000
0010
0000
,
0001
0000
0100
0000
0010
0000
1000
0100
1000
0010
0100
0000
0001
0000
0100
0000
,
0001
0000
0010
0000
0100
0000
1000
0001
0100
0010
1000
0000
0100
0000
1000
0000
,
0001
0000
0010
0000
0100
0000
0010
0001
1000
0100
1000
0000
0001
0000
0100
0001
,
0100
0000
0001
0000
0100
0000
0010
1000
0010
0100
0001
0000
1000
0000
0001
0000
,
0101
0000
0000
0000
1100
0000
0000
0000
0002
0000
0003
1000
0000
0000
0001
0000
,
0010
0000
1000
0000
0100
0000
0010
0000
0001
1000
0010
0000
0100
0000
0001
0000
,
0100
0000
0000
0000
1100
0000
0000
0000
0001
0000
0000
0100
0000
0000
0001
0000
,
0100
0010
1000
0010
0100
0010
1000
0001
,
0100
0000
0010
0000
1000
0000
0001
0000
0010
0000
0100
0000
1000
0000
0001
0100
,
0001
0000
0010
0000
0100
0000
0010
0100
0010
0000
0001
0000
0001
0010
0100
1000
,
0100
0000
0010
0000
0001
0100
0010
1000
0100
0000
0010
0000
0010
0001
0010
0001
,
1000
0100
1000
0100
0010
0001
0100
0010
1000
0000
0000
0000
0100
0000
0000
0000
,
0100
0000
1000
0000
0100
0000
0010
0001
0010
0000
0100
0000
1000
0000
0100
0010
,
0001
0000
0100
0000
0010
0000
1000
0100
0010
0000
0001
0000
0100
0000
0010
1000
,
0010
0000
0100
0000
0001
0000
0010
0100
0010
0000
0100
0000
0010
0000
0001
0010
,
0001
0000
0100
0000
0001
0000
0010
0001
0010
0000
1001
0000
1001
0000
0000
0000
,
0100
0010
0100
1000
0001
0100
0010
1000
,
0010
0000
0100
0000
0001
0000
1000
0100
0010
0001
0100
0000
0010
0000
1000
0000
,
0001
0000
0101
0000
0001
1000
0100
1000
,
0000
0001
1000
0000
2002
0000
0000
0000
,
0000
3003
0000
0000
;

//--------------- dance-single - stamina ----------------
#NOTES:
     dance-single:
     stamina:
     Edit:
     19:
     1.138727,1.896854,0.095653,0.053141,1.87055,750,741,9,5,0,0,1.138727,1.896854,0.095653,0.053141,1.87055,750,741,9,5,0,0:
0000
0000
0000
0000
,
0000
0000
0000
0000
,
1000
0001
0100
0010
1000
0100
0010
0100
1000
0001
0010
0100
1000
0100
0010
0001
,
0100
0010
1000
0001
0100
0010
1000
0100
0010
0100
1000
0100
0010
0100
1000
0001
,
0100
0010
1000
0100
0010
0100
1000
0001
0100
0010
1000
0100
0010
0100
1000
0001
,
0010
0100
1000
0100
0010
0001
0100
0010
1000
0100
0010
0001
0100
0010
1000
0100
,
1000
0001
0010
0100
1000
0100
0010
0001
0100
0010
0100
0001
0010
0100
1000
0100
,
0010
0001
0100
0010
0100
0001
0010
0100
1000
0100
0010
0001
0100
0010
0100
0001
,
0010
0100
1000
0001
0100
0010
1000
0100
0010
0001
0010
0100
1000
0001
0100
0010
,
1000
0100
0010
0001
0100
0010
1000
0001
0010
0001
0100
0010
1000
0100
1000
0001
,
0010
0100
1000
0100
0010
0001
0100
0010
0100
0001
0010
0100
1000
0100
0010
0001
,
0100
0010
1000
0100
0010
0100
1000
0001
0100
0010
1000
0100
0010
0100
1000
0001
,
0100
0010
1000
0100
0010
0001
0010
0100
1000
0100
0010
0100
1000
0001
0100
0010
,
1000
0100
0010
0001
1000
0000
0010
0100
0001
0000
0100
0000
0010
1000
0010
1000
,
0010
0000
0100
0000
0001
0100
0010
1000
0100
0000
0010
0000
0001
0100
0010
1000
,
0100
0000
0010
0001
0100
0010
1000
0100
0010
0000
0000
0000
0000
0000
0000
0000
,
0100
0010
0100
1000
0001
0100
0010
1000
0100
0010
0001
0010
0100
1000
0001
0100
,
0010
1000
0100
0010
0100
1000
0001
0100
0010
1000
0100
0010
0100
1000
0001
0010
,
0100
1000
0100
0010
0100
1000
0001
0100
0010
1000
0100
0010
0001
0010
0100
1000
,
0001
0100
0010
0100
0001
0100
0010
0100
0001
0010
0100
1000
0100
0000
0010
0000
,
0001
1000
0100
0010
0100
1000
0001
0010
0100
1000
0100
0010
0001
0100
0010
1000
,
0100
0010
0100
1000
0001
0100
0010
1000
0100
0010
0001
0010
0100
1000
0001
0100
,
0010
1000
0100
0010
0100
1000
0001
0010
0100
1000
0100
0010
0001
0100
0010
0100
,
0001
0000
1000
0000
0010
0000
0100
0000
0001
0000
1000
0000
0100
0000
0010
0000
0100
0000
1000
0000
0001
0000
0100
0000
0010
0000
0000
0000
0000
0000
1000
0000
0000
0000
0000
0000
0010
0000
0000
0001
0000
0000
0010
0000
0000
0100
0000
0000
,
4000
0000
0000
0000
,
0000
0000
0000
0000
,
0000
0000
0000
0000
,
0000
0000
0000
0000
,
3100
0000
0000
0000
0000
0000
0000
0000
0001
0000
0000
0010
0000
0000
0100
0000
1000
0000
0000
0000
0100
0000
0010
0000
0000
0000
0020
0000
0000
0000
0000
0000
,
0000
0000
0000
0000
0000
0000
0030
0000
0001
0000
0000
0010
0000
0000
0001
0000
0010
0000
0000
0000
0100
0000
1000
0000
0000
0000
0200
0000
0000
0000
0000
0000
,
0000
0000
0000
0310
0001
0000
0000
0001
1000
0000
0000
0001
0000
0000
0000
0000
,
1000
0000
0000
0001
0100
0000
0000
0100
0001
0000
0000
0011
0000
0000
0000
0000
,
1000
0000
0000
0000
0000
0000
0000
0000
0001
0000
0000
0010
0000
0000
0100
0000
1000
0000
0000
0000
0100
0000
0010
0000
0000
0000
0110
0000
0000
0000
0000
0000
,
0000
0000
0000
0000
0000
0000
0000
0000
0010
0000
0000
0100
0000
0000
0010
0000
0001
0000
0000
0000
0010
0000
0100
0000
0000
0000
1000
0000
0000
0000
0010
0000
,
0100
0000
0000
0000
0000
0000
0001
0000
1000
0100
0010
0100
1000
0001
0100
0010
0100
0010
1000
0100
0010
0001
0010
0100
0010
0100
1000
0001
0100
0010
1000
0100
,
0010
0100
1000
0001
0010
0100
1000
0100
0010
0001
0010
0100
1000
0001
0100
0010
1000
0100
0010
0100
1000
0001
0100
0010
1000
0100
0010
0001
0010
0100
1000
0100
,
1000
0000
0000
0000
0100
1000
0100
0010
0001
0010
0100
1000
0100
0010
0001
1000
,
0010
0100
0001
0010
0100
1000
0100
0010
0001
1000
0010
0100
0001
0010
0100
1000
,
0100
0010
0001
1000
0010
0100
0010
1000
0100
0010
0001
0010
0100
1000
0010
0100
,
0010
1000
0100
0010
0001
0010
0100
1000
0010
0100
0001
1000
0100
0010
0001
0010
,
0100
1000
0010
0100
0010
1000
0100
1000
0010
0100
0010
1000
0100
1000
0001
0010
,
0001
1000
0010
0100
0010
1000
0001
0010
0100
0010
0001
1000
0010
0100
0001
0010
,
0100
1000
0010
0100
0001
1000
0010
0100
0001
1000
0010
0100
0001
0010
0100
1000
,
0010
0100
0001
1000
0100
0010
0001
1000
0010
0100
0001
0010
0100
1000
0010
0100
,
0101
0000
0010
0000
0100
1000
0010
0100
0001
1000
0010
0100
0001
1000
0100
0010
,
0001
0010
0100
1000
0010
0100
0001
1000
0100
0010
0001
0010
0100
1000
0010
0100
,
0010
1000
0100
0010
0001
0010
0100
1000
0010
0100
0010
1000
0100
0010
0001
1000
,
0010
0100
0010
1000
0001
0010
0001
1000
0010
0100
0010
1000
0100
0010
0001
0010
,
0100
1000
0010
0100
0010
1000
0100
0010
0001
0010
0100
1000
0001
0100
0010
1000
,
0010
0000
0100
0000
0001
0000
0100
0010
1000
0000
0001
0000
0010
0100
1000
0000
,
1000
0000
0100
0000
0010
0001
0010
0000
0100
0000
1000
0000
0010
0100
0001
0100
,
0001
0000
0100
0010
1000
0010
0100
0001
1000
0000
0000
0000
2000
0000
0000
0000
,
3001
0000
0100
0000
0010
0000
1000
0010
0100
0001
0010
0000
0011
0000
1000
0010
,
0100
0001
0010
0000
0011
0000
0001
1000
0010
0100
0010
0000
0110
0000
0100
0001
,
0100
0000
0010
0000
1010
0000
1000
0001
0100
0010
1000
0000
0001
0000
1000
0010
,
0100
0000
0001
0000
0010
0000
0100
1000
1100
0000
0010
0000
0010
0000
0000
0000
,
0010
0000
0001
0000
1000
0000
0010
0100
0001
0000
0010
0000
0100
0000
1000
0010
,
0100
0000
0001
0000
0010
0000
0100
1000
0010
0000
0100
0000
0001
0000
0010
0000
,
0100
0000
0010
0000
0010
0100
1000
0100
,
0000
0010
0001
0000
2002
0000
0000
0000
,
0000
3003
0000
0000
;
