#TITLE:Point of View;
#SUBTITLE:;
#ARTIST:DB Boulevard;
#TITLETRANSLIT:;
#SUBTITLETRANSLIT:;
#ARTISTTRANSLIT:;
#GENRE:House;
#CREDIT:L33tAliceIp;
#MUSIC:Point of View.ogg;
#BANNER:bn.png;
#BACKGROUND:bg.png;
#CDTITLE:Dance;
#SAMPLESTART:48.369;
#SAMPLELENGTH:16.500;
#SELECTABLE:YES;
#OFFSET:-0.098;
#BPMS:0.000=129.000;
#STOPS:;
#BGCHANGES:16.000=cube12a.avi=1.000=1=0=1===CrossFade==,
24.000=cube1.avi=1.000=0=0=1,
40.000=cube7.avi=1.000=0=0=1,
56.000=geometry1.avi=1.200=0=0=1,
72.000=ring5.avi=1.000=0=0=1,
88.000=star3.avi=1.000=0=0=1,
104.000=cube1.avi=1.000=0=0=1,
120.000=rotation5.avi=1.000=0=0=1,
136.000=numbers1.avi=1.000=0=0=1,
144.000=text5.avi=1.000=0=0=1,
152.000=geometry1.avi=1.000=0=0=1,
160.000=rotation5.avi=1.000=0=0=1,
168.000=ring9.avi=1.000=0=0=1,
176.000=ring5.avi=1.200=0=0=1,
184.000=cube12a.avi=1.000=0=0=1,
192.000=rotation5.avi=1.000=0=0=1,
200.000=water3.avi=0.800=0=0=1,
224.000=Point of View-jacket.png=0.600=1=0=1===CrossFade==,
99999.000=-nosongbg-=1.000=0=0=0=StretchNoLoop====
;
#FGCHANGES:;

//--------------- dance-single - ----------------
#NOTES:
     dance-single:
     :
     Beginner:
     2:
     0.121,0.178,0.145,0,0:
0000
0000
0000
0000
,
0000
0000
0000
0000
,
0000
0000
0000
0000
,
0000
0000
0000
0000
,
1000
0000
1000
0000
,
0001
0000
0000
0000
,
0100
0000
0100
0000
,
0001
0000
0000
0000
,
1000
0000
1000
0000
,
0001
0000
0000
0000
,
0100
0000
0100
0000
,
0001
0000
0000
0000
,
0001
0000
0001
0000
,
0100
0000
0000
0000
,
1001
0000
0000
0000
,
1000
0000
1000
0000
,
0100
0000
0000
0000
,
1000
0000
1000
0000
,
1001
0000
0000
0000
,
1000
0000
1000
0000
,
0001
0000
0000
0000
,
0100
0000
0100
0000
,
1001
0000
0000
0000
,
0000
0001
0001
0000
,
1000
0000
1000
1000
,
0000
0001
0001
0000
,
1001
0000
0000
0000
,
1000
0000
1000
0000
,
1001
0000
0000
0000
,
0001
0000
0001
0000
,
1001
0000
0000
0000
,
0100
0000
0100
0000
,
0110
0000
0000
0000
,
0010
0000
0010
0000
,
0110
0000
0000
0000
,
1000
0000
0001
0000
,
1000
0000
0000
0000
,
0001
0000
1000
0000
,
0001
0000
0000
0000
,
0110
0000
0000
0000
,
1000
0000
0001
0000
,
1000
0000
0001
0000
,
1001
0000
0000
0000
,
1000
1000
1000
0000
,
1001
0000
0000
0000
,
0001
0000
1000
0000
,
1001
0000
0000
0000
,
1000
0000
1000
0000
,
0001
0000
0001
0000
,
0100
0000
0100
0000
,
0110
0000
0000
0000
,
0000
0000
0000
0000
,
1001
0000
0000
0000
,
0000
0000
0000
0000
,
0110
0000
0000
0000
,
0000
0000
0000
0000
,
1001
0000
0000
0000
;

//--------------- dance-single - ----------------
#NOTES:
     dance-single:
     :
     Easy:
     6:
     0.206,0.259,0.109,0.145,0:
0000
0000
0000
0000
,
0000
0000
0000
0000
,
0000
0000
0000
0000
,
0000
0000
0000
0000
,
1000
0000
0001
0100
,
0001
0000
1000
0100
,
1001
0000
1000
0010
,
1000
0000
0001
0100
,
0001
0000
1000
0001
,
1000
0000
0010
1000
,
1001
0000
0100
0000
,
0001
0001
1000
0100
,
1000
0000
0010
0000
,
1000
1000
0001
0100
,
0001
0000
0010
0000
,
1000
1000
0001
0001
,
0100
0000
0010
0000
,
1000
1000
0010
0010
,
1001
0000
0100
0000
,
0001
0001
1000
0100
,
1000
0000
0001
0000
,
1000
1000
0010
0010
,
2000
0000
0000
3000
,
0002
0000
0000
0003
,
2000
0000
0000
3000
,
0002
0000
0000
0003
,
1001
0000
1000
0000
,
0001
0001
1000
0100
,
1000
0000
0010
0000
,
0010
0010
1000
0001
,
0100
0000
0001
0000
,
1000
0001
0001
1000
,
0100
0000
0010
0000
,
1000
1000
1000
0010
,
2002
0000
3003
0000
,
0001
0000
1000
0000
,
0001
0001
1000
0000
,
1000
1000
0001
0000
,
0110
0000
0001
0000
,
1000
0010
1000
0000
,
0001
0001
0001
0000
,
1000
0100
1000
0001
,
1001
0000
1000
0000
,
0001
0001
1000
1000
,
2002
0000
3003
0000
,
0001
1000
0100
0000
,
1000
0010
1000
0000
,
0001
1000
0001
0000
,
1000
1000
0001
0001
,
1000
0100
1000
0001
,
2002
0000
0000
0000
,
3003
0000
0000
0000
,
0220
0000
0000
0000
,
0330
0000
0000
0000
,
2002
0000
0000
0000
,
3003
0000
0000
0000
,
0220
0000
0000
0000
,
0330
0000
0000
0000
;

//--------------- dance-single - ----------------
#NOTES:
     dance-single:
     :
     Medium:
     9:
     0.314,0.34,0.136,0.218,0.005:
0000
0000
0000
0000
,
0000
0000
0000
0000
,
0000
0000
0000
0000
,
0000
0000
0000
0000
,
1000
0001
0100
0100
,
0001
1000
0100
0100
,
1001
0000
1000
0000
0010
0000
1000
0010
,
1000
0000
0001
0000
0100
0000
0001
0100
,
0001
0000
1000
0000
0001
0000
1000
0001
,
1000
0000
0010
0000
1000
0000
0001
1000
,
0002
1000
1000
1003
,
2000
0001
0001
3001
,
1000
0000
0001
0000
1000
0000
0010
1000
,
0010
0000
1000
0000
0001
0000
0100
0001
,
0200
0010
0010
0310
,
0010
0000
0000
1000
0000
0000
0001
0000
1000
0000
0000
0000
1001
0000
0000
0000
,
0001
1000
0100
1000
,
0001
0000
1000
0001
1000
0000
0001
0000
,
2000
0010
0010
3010
,
0002
0100
0100
0103
,
1001
0000
0001
1000
0000
0000
1001
0000
,
1000
0000
0001
0100
0000
0000
0001
0000
,
1002
0000
1000
1003
,
2000
0000
0001
3001
,
0002
0000
1000
1003
,
2000
0000
0001
3001
,
1001
0001
1000
0100
,
1000
0010
0000
0010
1000
0000
0001
0000
,
1001
1000
0001
0100
,
0001
0100
0000
0100
0001
0000
1000
0000
,
1001
1000
0010
1000
,
0001
1000
0000
1000
0000
1000
0100
0000
,
1001
0001
1000
0001
,
0001
1000
0000
0002
0000
0000
1003
0000
,
1001
0000
0001
0000
1000
0100
1000
0000
,
0010
0000
1000
0000
0001
0000
1000
0001
,
2000
0010
0010
3010
,
0200
0000
0010
0310
,
1001
0000
0001
0000
1000
0010
1000
0000
,
0001
1000
0001
0100
,
0001
1000
0000
1000
0000
0000
0001
0000
,
1000
0001
0000
0002
0000
0000
0103
0000
,
1000
0001
1000
0000
0001
0000
0100
0000
,
0001
1000
0001
0000
1000
0010
1000
0010
,
2000
0001
0100
3001
,
0002
1000
0100
1003
,
1000
0001
1000
0000
0010
0000
0010
0000
,
1000
0100
1000
0000
0001
0000
0001
0000
,
1000
0001
0000
0001
0000
0000
1000
0000
,
0001
1000
0000
2000
0000
0000
3001
0000
,
2002
0000
0000
0000
,
0000
0000
3003
0000
,
0220
0000
0000
0000
,
0000
0000
0330
0000
,
2002
0000
0000
0000
,
0000
0000
3003
0000
,
0220
0000
0000
0000
,
0000
0000
0330
0000
;

//--------------- dance-single - ----------------
#NOTES:
     dance-single:
     :
     Hard:
     11:
     0.376,0.444,0.2,0.136,0.023:
0000
0000
0000
0000
,
0000
0000
0000
0000
,
0000
0000
0000
0000
,
0000
0000
0000
0000
,
0010
0000
1000
0001
1000
0000
0001
0000
,
0100
0000
0001
0100
0100
0000
1000
0000
,
1001
0000
1000
0010
1000
0000
0010
0000
,
1000
0000
0010
0000
0000
0000
0010
0000
0001
0000
0000
0001
0100
0000
0000
0000
,
1001
0000
1000
0001
1000
0000
0100
0000
,
1000
0000
0010
0000
0000
0000
0010
0000
1000
0000
0000
0001
1000
0000
0000
0000
,
1002
0100
1000
0103
,
2001
0100
0001
3100
,
0001
1000
0001
1000
0100
0000
1000
0000
,
1000
0010
1000
0010
0001
0000
1000
0000
,
0102
0010
0100
0013
,
1000
0000
0000
0001
0000
0000
0100
0000
0001
0000
0000
1000
0000
0000
0100
0000
,
0000
1000
0001
1000
0001
0000
1001
0000
,
1000
0010
1000
0010
1000
0000
0001
0000
,
2001
0000
0100
0000
0001
0000
3100
0100
,
1000
0000
0001
0000
1000
0000
0010
1000
,
0010
0000
0001
1000
0000
1000
0100
0000
,
1000
0000
0000
0000
0001
0000
1000
0000
0000
0000
0000
1000
0001
0000
0000
0000
,
1002
0100
1000
0100
,
1000
0010
1000
1003
,
2001
0100
0001
0010
,
0001
0100
0001
3001
,
1001
0000
1000
0000
0001
0100
0000
0100
,
0000
0001
1000
0001
1000
0000
0010
0000
,
1001
0000
1000
0000
0001
1000
0000
1000
,
0000
1000
0100
1000
0100
0000
0001
0000
,
1001
0000
1000
0000
0010
0000
1000
0001
,
1000
0001
0000
0200
0000
0000
0301
0000
,
1001
0000
1000
0000
0010
0000
1000
0001
,
1000
0001
0000
0200
0000
0001
0301
0000
,
1001
0000
1000
0000
0010
1000
0010
0000
,
1000
0000
0001
0000
0100
0001
0100
0000
,
0001
1000
0001
0000
1000
0010
1000
0000
,
1000
0001
1000
0001
0100
0000
1001
0000
,
1000
0000
0010
0000
1000
0010
1000
0000
,
0001
1000
0001
1000
0100
0000
0100
0000
,
0001
1000
0001
1000
0000
0000
1001
0000
,
1000
0001
1000
0002
0000
0010
0013
0000
,
1000
0001
1000
0001
1000
0001
1000
0000
,
1000
0010
0010
1000
1000
0010
0010
0001
,
2001
0100
0001
3010
,
1002
0100
1000
0013
,
1000
0001
1000
0000
0100
1000
0100
0000
,
1000
0010
1000
0010
0001
0000
0001
0000
,
1000
0001
0000
0001
0000
0100
0001
0000
,
1000
0001
0000
0001
0000
1000
0001
0000
,
2001
0000
0001
0000
,
0001
0000
3001
0000
,
0120
0000
0100
0000
,
0100
0000
0130
0000
,
1002
0000
1000
0000
,
1000
0000
1003
0000
,
0210
0000
0010
0000
,
0010
0000
0310
0000
;

//--------------- dance-single - ----------------
#NOTES:
     dance-single:
     :
     Challenge:
     13:
     0.462,0.548,0.145,0.109,0.05:
0000
0000
0000
0000
,
0000
0000
0000
0000
,
0000
0000
0000
0000
,
0000
0000
0000
0000
,
1000
0001
1000
0001
0100
0000
0100
0000
,
0001
0000
1000
0000
0001
0000
1000
0000
0100
0000
0000
1000
0100
0000
0000
0000
,
1000
0001
1000
0010
1000
0000
0001
1000
,
0100
1000
0001
1000
0001
0000
0110
0000
,
1000
0001
0100
0001
1000
0000
1000
0010
,
1000
0000
0001
0000
1000
0000
0001
0000
1000
0000
0000
0001
0100
0000
0000
0000
,
1001
0000
0001
0000
1000
0100
1000
0001
,
1000
0010
1000
0001
1000
0000
0001
0000
,
0100
0001
0100
0001
1000
0000
1000
0010
,
1000
0001
1000
0001
1000
0000
0101
0000
,
1001
0000
1000
0100
1000
0000
0001
1000
,
0001
0000
0000
0001
0000
0000
0100
0000
1000
0000
0000
1000
0000
0000
0100
0000
,
0001
0100
0001
1000
0001
0000
1000
0010
,
1000
0000
0001
0000
1000
0000
0001
0000
1000
0000
0000
0100
0001
0000
0000
0000
,
1001
0000
1000
0000
0010
1000
0010
1000
,
0000
0001
0100
0001
0100
0000
0001
1000
,
0020
0000
1000
2030
0000
0001
3001
0000
,
1000
0000
0100
0000
0010
0000
0001
0000
0000
0000
0000
1000
0100
0000
0000
0000
,
1002
0000
0000
1000
1000
0000
1000
0000
,
0000
1000
0000
1000
1000
0000
1003
0000
,
2001
0000
0000
0001
0001
0000
0001
0000
,
0000
0001
0000
0001
0001
0000
3001
0000
,
1000
0000
0010
1000
0010
0000
1000
0000
0001
0000
0100
0000
0001
0000
1000
0000
,
0010
1000
0001
0100
0001
1000
0001
0000
,
1000
0001
1000
0010
1000
0001
0100
0001
,
1000
0010
1000
0001
0100
0001
0100
0000
,
1000
0000
0010
0100
0010
0000
0001
0000
0100
0000
0001
0000
1000
0000
0010
0000
,
1000
0001
0000
0001
0000
0001
0100
0000
,
1000
0001
1000
0100
1000
0000
0001
1000
,
0001
0000
0010
0000
0000
0000
0100
0000
0000
0000
1000
0100
1000
0000
0000
0000
,
1001
0001
1000
0100
1000
0001
0010
1000
,
0100
1000
0001
0100
0001
0100
1000
0000
,
0001
1000
0001
1000
0100
1000
0100
1000
,
0010
1000
0010
1000
0001
1000
0001
0000
,
1000
0001
0100
0001
2000
0000
3010
0000
,
0001
1000
0001
1000
0002
0000
0103
0000
,
1000
0001
1000
0001
0000
1000
0100
1000
,
0001
0000
0100
0000
0001
0000
1000
0000
0000
0000
0010
0001
0010
0000
0000
0000
,
1001
0001
1000
0100
1000
0001
1000
0001
,
0100
0001
0100
0100
0001
0001
1010
1100
,
1002
0100
1000
1003
,
1000
0001
1000
0100
1000
0000
0001
0000
,
1000
0010
1000
0010
0001
0000
1000
0001
,
1000
0100
1000
0001
1000
0000
0001
0000
,
1000
0001
1000
0002
0000
0010
0010
0013
,
1000
0000
0100
0000
1000
0000
0100
0000
0000
0000
1000
0100
1000
0000
0000
0000
,
1002
1000
0100
0100
,
1000
1000
0100
0103
,
2001
0001
0100
0100
,
0001
0001
0100
3100
,
1002
1000
0010
0010
,
1000
1000
0010
0013
,
2001
0001
0010
0010
,
0001
0001
3010
0000
;
