#TITLE:NEVER ENDING STORY;
#SUBTITLE:;
#ARTIST:CREAMY;
#TITLETRANSLIT:;
#SUBTITLETRANSLIT:;
#ARTISTTRANSLIT:;
#GENRE:Europop;
#CREDIT:TiKAL;
#MUSIC:neverending.ogg;
#BANNER:bn.png;
#BACKGROUND:bg.png;
#CDTITLE:cdtitle.png;
#SAMPLESTART:41.960;
#SAMPLELENGTH:15.000;
#SELECTABLE:YES;
#OFFSET:-0.227;
#BPMS:0.000=132.090;
#STOPS:;
#BGCHANGES:;
#FGCHANGES:;

//--------------- dance-single - TiKAL ----------------
#NOTES:
     dance-single:
     TiKAL:
     Beginner:
     1:
     0,0,0,0,0:
0000
0000
0000
0000
,
0000
0000
0000
0000
,
0000
0000
0000
0000
,
0000
0000
0000
0000
,
1001
0000
0000
0000
,
0000
0000
0000
0000
,
0000
0000
0000
0000
,
0000
0000
0000
0000
,
1000
0000
0000
0000
,
0000
0000
0000
0000
,
0001
0000
0000
0000
,
1000
0000
0000
0000
,
0001
0000
0000
0000
,
0000
0000
0000
0000
,
1000
0000
0000
0000
,
0001
0000
0000
0000
,
0100
0000
0000
0000
,
0000
0000
0000
0000
,
0010
0000
0000
0000
,
0000
0000
0000
0000
,
0100
0000
0000
0000
,
0000
0000
0000
0000
,
0010
0000
0000
0000
,
1000
0000
0000
0000
,
1001
0000
0000
0000
,
0000
0000
0000
0000
,
0001
0000
0000
0000
,
1000
0000
0000
0000
,
1001
0000
0000
0000
,
0000
0000
0000
0000
,
1000
0000
0000
0000
,
0001
0000
0000
0000
,
1000
0000
0000
0000
,
0000
0000
0000
0000
,
0001
0000
0000
0000
,
1000
0000
0000
0000
,
0001
0000
0000
0000
,
0000
0000
0000
0000
,
1000
0000
0000
0000
,
0001
0000
0000
0000
,
0100
0000
0000
0000
,
0000
0000
0000
0000
,
0010
0000
0000
0000
,
0000
0000
0000
0000
,
0100
0000
0000
0000
,
0000
0000
0000
0000
,
0010
0000
0000
0000
,
1000
0000
0000
0000
,
1001
0000
0000
0000
,
0000
0000
0000
0000
,
0001
0000
0000
0000
,
1000
0000
0000
0000
,
1001
0000
0000
0000
,
0000
0000
0000
0000
,
1000
0000
0000
0000
,
0001
0000
0000
0000
,
1001
0000
0000
0000
;

//--------------- dance-single - TiKAL ----------------
#NOTES:
     dance-single:
     TiKAL:
     Easy:
     3:
     0.096943,0.178132,0.049481,0.1131,0,96,89,7,16,0,0,0.096943,0.178132,0.049481,0.1131,0,96,89,7,16,0,0:
0000
0000
0000
0000
,
0000
0000
0000
0000
,
0000
0000
0000
0000
,
0000
0000
0000
0000
,
0001
0000
0000
0000
,
1000
0000
0000
0000
,
0001
0000
0000
0000
,
1000
0000
0000
0000
,
0001
0000
0001
0000
,
0000
0000
0010
0000
,
0200
0000
0000
0300
,
2000
0000
0000
3000
,
0001
0000
0001
0000
,
0000
0000
0100
0000
,
0020
0000
0000
0030
,
2000
0000
0000
3000
,
0001
0000
0000
0000
,
1000
0000
0000
0000
,
0001
0000
0000
0000
,
1000
0000
0000
0000
,
0010
0000
0000
0000
,
0100
0000
0000
0000
,
0001
0000
0010
0000
,
0100
0000
1000
0000
,
2002
0000
0000
0000
,
3003
0000
0000
0000
,
0001
0000
0001
0000
,
1000
0000
1000
0000
,
2002
0000
0000
0000
,
3003
0000
0000
0000
,
0100
0000
0100
0000
,
0010
0000
0010
0000
,
1000
0000
1000
0000
,
0000
0000
0100
0000
,
0020
0000
0000
0030
,
0002
0000
0000
0003
,
1000
0000
1000
0000
,
0000
0000
0010
0000
,
0200
0000
0000
0300
,
0002
0000
0000
0003
,
1000
0000
0000
0000
,
0001
0000
0000
0000
,
1000
0000
0000
0000
,
0001
0000
0000
0000
,
0100
0000
0000
0000
,
0010
0000
0000
0000
,
1000
0000
0100
0000
,
0010
0000
0001
0000
,
2002
0000
0000
0000
,
3003
0000
0000
0000
,
1000
0000
1000
0000
,
0001
0000
0001
0000
,
2002
0000
0000
0000
,
3003
0000
0000
0000
,
0010
0000
0010
0000
,
0100
0000
0100
0000
,
1001
0000
0000
0000
;

//--------------- dance-single - TiKAL ----------------
#NOTES:
     dance-single:
     TiKAL:
     Medium:
     6:
     0.218121,0.268612,0.091894,0.155512,0,216,203,13,22,0,0,0.218121,0.268612,0.091894,0.155512,0,216,203,13,22,0,0:
0000
0000
0000
0000
,
0000
0000
0000
0000
,
0000
0000
0000
0000
,
0000
0000
0000
0000
,
0001
0000
0001
0000
,
0010
0000
0010
0000
,
0100
0000
0100
0000
,
1000
0000
1000
0000
,
0002
0000
2003
0000
,
3010
0000
0000
0000
0100
0001
0100
0001
,
2000
0000
3001
0001
,
0100
0100
0010
0010
,
2000
0000
3002
0000
,
0103
0000
0000
0000
0010
1000
0010
1000
,
0002
0000
0013
0010
,
0100
0100
1000
1000
,
0001
0000
0001
0000
,
1000
0000
1000
0000
,
0010
0000
0010
0000
,
0100
0000
0100
0000
,
0001
0000
0001
0000
,
1000
0000
1000
0000
,
0010
0100
0010
0100
,
0001
1000
0001
1000
,
1001
0000
0110
0000
,
1000
0000
0001
0010
,
0100
0100
1000
1000
,
0001
0001
1000
0001
,
1001
0000
0110
0000
,
0001
0000
1000
0001
,
0100
0100
0010
0010
,
1000
1000
0001
0001
,
2000
0000
3002
0000
,
0103
0000
0000
0000
0010
1000
0010
1000
,
0002
0000
1003
1000
,
0010
0010
0100
0100
,
0002
0000
2003
0000
,
3010
0000
0000
0000
0100
0001
0100
0001
,
2000
0000
3100
0100
,
0010
0010
0001
0001
,
1000
0000
1000
0000
,
0001
0000
0001
0000
,
0100
0000
0100
0000
,
0010
0000
0010
0000
,
1000
0000
1000
0000
,
0001
0000
0001
0000
,
0100
0010
0100
0010
,
1000
0001
1000
0001
,
1001
0000
0110
0000
,
0001
0000
1000
0100
,
0010
0010
0001
0001
,
1000
1000
0001
1000
,
1001
0000
0110
0000
,
1000
0000
0001
1000
,
0010
0010
0100
0100
,
0001
0001
1000
1000
,
2002
0000
0000
0000
,
0000
0000
0000
0000
,
0000
0000
0000
0000
,
0000
0000
0000
0000
,
3003
0000
0000
0000
;

//--------------- dance-single - TiKAL ----------------
#NOTES:
     dance-single:
     TiKAL:
     Hard:
     11:
     0.427154,0.45664,0.05655,0.381712,0.08129,423,415,8,54,0,0,0.427154,0.45664,0.05655,0.381712,0.08129,423,415,8,54,0,0:
0000
0000
0000
0000
,
0000
0000
0000
0000
,
0000
0000
0000
0000
,
0000
0000
0000
0000
,
0001
0100
0000
0000
0010
1000
0000
0000
,
0100
1000
0000
0000
0001
0010
0000
0000
,
0001
0100
0000
0000
0010
1000
0000
0000
,
0001
1000
0000
0000
0100
0010
0000
0000
,
0001
0000
0000
0002
2000
0000
0000
0000
,
3003
0000
1000
0010
0100
0001
0010
0100
,
2000
0000
0000
0010
0000
3010
0100
0002
,
0000
0013
0100
2000
0000
0001
3001
0000
,
1000
0000
0000
2000
0002
0000
0000
0000
,
3003
0000
0001
1000
0100
0010
0100
1000
,
0020
0000
0000
0100
0000
0130
0001
2000
,
0000
3100
0010
0002
0000
1000
1003
0000
,
1001
0000
1000
0010
0100
0001
0010
0001
,
0000
0011
0000
1100
0000
1000
0001
0000
,
1000
0000
0001
0010
0100
1000
0002
2000
,
0000
3003
0001
0100
0010
1000
0100
0010
,
0001
1000
0100
1000
0000
0100
1000
0100
,
0000
0011
0000
0001
1000
0010
1000
0001
,
0200
0320
2030
3002
,
2003
3200
0320
0032
,
1003
0010
1000
0001
0100
0010
0100
0001
,
0010
0100
1000
0001
0100
0001
0010
0100
,
1000
0001
0100
0001
1000
0010
1000
0100
,
0010
0100
1000
0001
1000
0001
0010
0100
,
1000
0010
0100
0001
0010
0001
1000
0100
,
1000
0010
0100
0001
1000
0100
1000
0010
,
0100
0001
0010
0100
1000
0001
0100
0001
,
1000
0010
1000
0100
0010
0001
0100
0010
,
1000
0000
0000
2000
0002
0000
0000
0000
,
3003
0000
0001
0100
0010
1000
0100
0010
,
0002
0000
0000
0100
0000
0103
0010
2000
,
0000
3100
0010
0002
0000
1000
1003
0000
,
0001
0000
0000
0002
2000
0000
0000
0000
,
3003
0000
1000
0001
0010
0100
0010
0001
,
0200
0000
0000
0010
0000
0310
1000
0002
,
0000
0013
0100
2000
0000
0001
3001
0000
,
1001
0000
0001
0100
0010
1000
0100
1000
,
0000
1100
0000
0011
0000
0001
1000
0000
,
0001
0000
1000
0100
0010
0001
2000
0002
,
0000
3003
1000
0010
0100
0001
0010
0100
,
1000
0001
0010
0001
0000
0010
0001
0010
,
0000
1100
0000
1000
0001
0100
0001
1000
,
0020
0230
0302
2003
,
3002
0023
0230
2300
,
3001
0010
0100
0010
0001
1000
0100
1000
,
0010
0100
0010
1000
0001
0010
0100
1000
,
0001
0100
0001
1000
0010
1000
0100
0010
,
0100
1000
0001
0100
0010
1000
0001
0100
,
0010
1000
0100
0010
0100
1000
0001
0010
,
0001
0100
0010
1000
0001
1000
0100
0010
,
0001
1000
0001
0100
0010
0100
0010
1000
,
0100
0010
0001
1000
0010
1000
0001
0010
,
0001
0000
0001
0000
,
0001
0000
0001
0000
,
1000
0000
1000
0000
,
1000
0000
1000
0000
,
0001
0000
0000
0000
;
