#TITLE:MUSIC;
#SUBTITLE:;
#ARTIST:DJ EVIL & DJ SIN;
#TITLETRANSLIT:;
#SUBTITLETRANSLIT:;
#ARTISTTRANSLIT:;
#GENRE:Happy hardcore;
#CREDIT:TiKAL;
#BANNER:bn.png;
#BACKGROUND:bg.png;
#LYRICSPATH:;
#CDTITLE:cdtitle.png;
#MUSIC:music.ogg;
#OFFSET:-0.013878;
#SAMPLESTART:33.361000;
#SAMPLELENGTH:15.000000;
#SELECTABLE:YES;
#BPMS:0.000000=172.723007
;
#STOPS:
;
#BGCHANGES:;
#KEYSOUNDS:;
#ATTACKS:;

//---------------dance-single - ----------------
#NOTES:
     dance-single:
     :
     Challenge:
     17:
     0.868845,0.947375,0.248540,0.065790,0.906439,832.000000,798.000000,34.000000,9.000000,8.000000,0.000000,0.868845,0.947375,0.248540,0.065790,0.906439,832.000000,798.000000,34.000000,9.000000,8.000000,0.000000:
0000
0000
0000
0000
,
0000
0000
0000
0000
,
0000
0000
0000
0000
,
0000
0000
0000
0000
,
0001
0010
0000
0010
0000
0010
0000
0010
,
0100
1000
0000
1000
0000
1000
0000
1000
,
0001
0010
0100
0000
0100
1000
0010
0000
,
0100
0001
0010
0001
1000
0010
0100
0000
,
0001
0000
0100
0000
0010
0000
0000
1000
0000
0000
0100
0000
0000
0000
1000
0000
,
0000
0000
0001
0000
0000
0010
0000
0000
0100
0000
0000
1000
0000
0000
0001
0000
,
0000
0000
1000
0000
0000
0010
0000
0000
1000
0000
0000
0001
0000
0000
0100
0000
,
0000
0000
0001
0000
0000
0010
0000
0000
0100
0000
0100
0000
1000
0000
0000
0000
,
0010
0000
1000
0000
0010
0000
0000
0100
0000
0000
0001
0000
0000
0000
0010
0000
,
0000
0000
0001
0000
0000
0010
0000
0000
0100
0000
0000
1000
0000
0000
0001
0000
,
1000
0010
1000
0000
0001
0100
0001
0000
,
1000
0100
0010
0001
0100
0001
1000
0000
,
0001
0000
0010
0000
0100
0000
0000
0100
0000
0000
1000
0000
0000
0000
1000
0000
,
0010
0000
0100
0000
0000
0001
0000
0000
1000
0000
0000
0010
0000
0000
1000
0000
,
0001
0010
0001
0100
0000
0010
1000
0100
,
0010
0001
1000
0001
0200
0000
0320
0000
,
1030
0100
0010
0100
1000
0001
1000
0001
,
0100
0010
0100
0010
1000
0100
0010
0001
,
1000
0001
0100
0010
1000
0100
0010
0001
,
2000
0000
3002
0000
2003
3000
1001
0000
,
1000
0000
0010
0000
0100
0001
0000
0010
0001
0000
1000
0100
0000
1000
0010
0000
,
0100
0000
0001
0000
0010
0100
0000
1000
0100
0000
0010
0001
0000
0100
0010
0000
,
1000
0000
0001
0000
0100
0010
0000
0100
0001
0000
1000
0010
0000
0100
0001
0000
,
0010
0000
0001
0000
0010
0001
0000
0100
0010
0000
1000
0100
0000
0010
0001
0100
,
0010
0000
1000
0000
0001
0100
0000
0010
0100
0000
0010
1000
0000
0100
0010
0000
,
0001
0000
1000
0000
0100
1000
0000
0010
0100
0000
0001
0010
0000
0100
1000
0000
,
0010
0000
1000
0000
0001
0100
0000
0001
0010
0000
0100
1000
0000
0010
1000
0000
,
0001
0000
0100
0000
0010
1000
0000
0100
0010
0000
0001
0010
0001
0010
0100
1000
,
0001
0000
1000
0000
0010
0100
0000
0010
1000
0000
0100
0010
0000
0001
0010
0000
,
0100
0000
1000
0000
0001
0100
0000
0010
1000
0000
0100
0010
0000
0001
0010
0000
,
0001
0000
1000
0000
0100
1000
0000
0010
0100
0000
0001
0010
0000
0001
1000
0000
,
0100
0000
1000
0000
0010
0100
0000
0001
0100
0000
0010
1000
0000
0100
0010
0001
,
1000
0000
0010
0000
0100
0001
0000
0010
0100
0000
1000
0100
0000
0010
0001
0000
,
1000
0000
0010
0000
0100
0001
0000
0010
0100
0000
1000
0100
0000
0010
0001
0000
,
1000
1000
0010
0010
0100
0100
0001
0001
,
2000
0000
3002
0000
2003
3000
1001
0000
,
0001
0000
0010
0000
0100
1000
0000
0010
0100
0000
0001
0010
0000
0001
0100
0000
,
0010
0000
1000
0000
0001
0100
0000
0001
0010
0000
0100
1000
0000
0010
1000
0000
,
0100
0000
0010
0000
0001
0100
0000
0100
0010
0000
0010
1000
0000
1000
0100
0000
,
1000
0000
0010
0000
0100
0001
0000
0010
0001
0000
0010
0100
0000
1000
0100
0010
,
0001
0000
1000
0000
0010
0100
0000
0010
1000
0000
0100
0010
0000
0001
0010
0000
,
0001
0000
1000
0000
0100
1000
0000
0100
0010
0000
0001
0010
0000
0100
1000
0000
,
0010
0000
0100
0000
0010
1000
0000
0010
0100
0000
0001
0100
0000
0001
0010
0000
,
0100
0000
1000
0000
0100
1000
0000
1000
0010
0000
0100
0001
1000
0001
1000
0001
,
1000
0000
0010
0000
0100
0001
0000
0010
0100
0000
1000
0100
0000
0010
0001
0000
,
1000
0000
0001
0000
0100
0010
0000
0100
0001
0000
0010
0001
0000
1000
0100
0000
,
1000
0000
0010
0000
0100
0010
0000
0100
0001
0000
0100
0010
0000
0010
1000
0000
,
0100
0000
0010
0000
0001
0010
0000
0100
1000
0000
0010
1000
0000
0001
0100
0010
,
1000
0000
0100
0000
0010
0001
0000
1000
0001
0000
0100
0010
0000
1000
0100
0000
,
0010
0000
0100
0000
1000
0001
0000
0100
0001
0000
0010
0001
0000
0010
0100
0000
,
1000
1000
0010
0010
0100
0100
0001
0001
,
1000
0001
1000
0001
1000
0001
1000
0004
4000
0000
0000
0000
0000
0000
0003
0000
,
3010
0000
0100
0000
0000
0100
0000
0000
0010
0000
0000
1000
0000
0000
0001
0000
,
1000
0000
0100
0000
0000
0100
0000
0000
0010
0000
0000
0001
0000
0000
1000
0000
,
0010
0000
0100
0000
0000
0100
0000
0000
0010
0000
0000
1000
0000
0000
1000
0000
,
0001
0000
0010
0000
0000
0010
0000
0000
0001
0000
0000
1000
0000
0100
1000
0000
,
0010
0000
0100
0000
0000
0100
0000
0000
0010
0000
0000
1000
0000
0000
0001
0000
,
0100
0000
0001
0000
0000
0001
0000
0000
1000
0000
0000
0010
0000
0000
0100
0000
,
0001
0000
0010
0000
0000
0010
0000
0000
0100
0000
0000
1000
0000
0000
0001
0000
,
1000
0000
1010
0000
0000
0110
0000
0000
0101
0000
0000
1001
0000
0001
1000
0001
,
0100
0000
0100
0000
0110
0000
0010
1000
0010
0000
1010
0000
1000
0000
1000
0000
,
0001
0000
0001
0000
0101
0000
0100
0001
0100
0000
0110
0000
0010
0000
0010
0000
,
1000
0000
1000
0000
1100
0000
0100
0010
0001
0000
0101
0000
0100
0000
0100
0000
,
0010
0000
0010
0000
0110
0000
0010
1000
0100
0000
0010
0001
0000
0100
0001
0000
,
1000
0100
0110
0010
0010
0011
0001
1000
,
0100
0100
1100
1000
0010
1010
0001
0101
,
0001
0001
0011
0100
1000
1100
4000
0000
,
300M
0000
00M0
0000
0M00
0000
M000
0000
000M
M000
0000
0000
M00M
0000
0000
0000
,
0001
0000
0010
0000
0001
0010
0000
0100
1000
0000
0010
0100
0000
0010
1000
0100
,
0010
0000
0001
0000
0010
0001
0000
0100
0010
0000
1000
0001
0000
0100
0010
1000
,
0001
0000
0100
0000
0010
1000
0000
0100
0010
0000
0001
0010
0000
0100
1000
0010
,
0100
0000
0001
0000
0010
0001
0000
1000
0100
0000
0010
0100
0000
0010
0100
1000
,
0001
0000
0100
0000
0001
0100
0000
0010
1000
0000
0100
0010
0000
0001
0010
0100
,
1000
0000
0010
0000
0100
0001
0000
0010
0001
0000
0100
0010
0000
1000
0100
0010
,
0001
0000
0010
0000
0100
1000
0000
0010
1000
0000
0001
0100
0000
0010
0100
0001
,
1000
0000
0100
0000
0010
0001
0000
1000
0100
0000
0010
0100
1000
0100
0010
0001
,
0100
0000
0010
0000
0100
0001
0000
0010
0001
0000
1000
0100
0000
0010
0001
1000
,
0100
0000
1000
0000
0010
0100
0000
0001
0100
0000
0010
1000
0000
0001
0010
0100
,
1000
0000
0010
0000
0100
0001
0000
0010
0001
0000
1000
0100
0000
1000
0010
0100
,
0001
0000
0010
0000
0001
0010
0000
0100
1000
0000
0010
0100
0000
0010
1000
0100
,
0010
0000
0001
0000
0100
0001
0000
0010
0001
0000
1000
0100
0000
1000
0010
0100
,
0001
0000
0010
0000
0100
1000
0000
0010
0100
0000
0001
0010
0000
0001
0010
0100
,
1000
0000
0010
0000
0100
0010
0000
1000
0100
0000
0010
0001
0000
0100
0010
1000
,
0001
1000
0001
1000
0001
1000
0001
1000
0002
0000
0000
0000
1003
0000
0000
0000
,
0001
0010
0011
0010
0100
0110
0100
1000
,
0001
0100
0101
0100
0010
0110
0010
1000
,
0100
0010
0110
0010
0001
1001
1000
0100
,
1000
0010
0110
0100
0001
1001
0001
0001
,
0010
0100
0110
0100
1000
1001
1000
1000
,
0010
0100
0110
0100
0001
1001
0001
0001
,
1000
0001
1000
0001
1000
0001
1000
0001
1000
0010
0100
0001
1000
0100
0010
0001
,
1000
0000
1000
0000
1000
0000
1000
0000
1000
0001
1000
0000
1001
0000
0000
0000
,
0110
0000
0000
0000
;

//---------------dance-single - ----------------
#NOTES:
     dance-single:
     :
     Hard:
     13:
     0.587932,0.631584,0.073100,0.131580,0.032895,563.000000,553.000000,10.000000,18.000000,0.000000,0.000000,0.587932,0.631584,0.073100,0.131580,0.032895,563.000000,553.000000,10.000000,18.000000,0.000000,0.000000:
0000
0000
0000
0000
,
0000
0000
0000
0000
,
0000
0000
0000
0000
,
0000
0000
0000
0000
,
0002
2000
0000
0000
0000
0000
0000
0000
,
3003
0000
0000
0000
,
0001
0010
0001
0000
1000
0010
1000
0000
,
0001
0100
0001
0000
1000
0100
1000
0000
,
0002
2000
0000
0000
0000
0000
0000
0000
,
3003
0000
0000
0000
,
1000
0000
0100
1000
0000
0000
0001
0000
,
0100
0000
0001
0010
0000
0001
0100
0000
,
0002
2000
0000
0000
0000
0000
0000
0000
,
3003
0000
0000
0000
1000
0100
0010
0001
,
1000
0001
0100
0010
,
1000
0100
0010
0001
,
2000
0002
0000
0000
0000
0000
0000
0000
,
3003
0000
0000
0000
,
1000
0000
0010
1000
0000
0000
0001
0000
,
0100
0000
0001
0010
0000
0001
0100
0000
,
0002
2000
0000
0000
0000
0000
0000
3003
,
1001
0000
0000
0000
0001
0010
0100
1000
,
0002
2000
0000
0000
0000
0000
3003
0000
,
0001
1000
0001
1001
,
0001
0010
0100
1000
0001
0100
0001
1000
,
0100
1000
0010
0100
0010
1000
0001
0100
,
0001
0010
0100
1000
0010
0100
0010
1000
,
0001
0100
0001
0010
0100
1000
0001
0100
,
0010
1000
0001
1000
0100
0010
0001
0100
,
0010
0100
0001
0010
0100
1000
0001
0100
,
0001
1000
0010
0100
0010
1000
0001
0010
,
0001
1000
0100
1000
0010
0100
0010
0100
,
0001
0010
0100
1000
0010
1000
0001
0100
,
0010
0100
0001
0010
0001
1000
0100
1000
,
0010
0100
0010
1000
0100
0010
0001
0100
,
0001
0100
0010
1000
0100
0010
0001
1000
,
0001
0100
0010
1000
0001
0100
0010
0100
,
0001
0010
0100
1000
0001
0100
0001
1000
,
0010
0100
0001
1000
0100
0010
0001
1000
,
0001
1000
0001
1001
,
0001
0010
0001
1000
0100
1000
0010
1000
,
0100
0010
0001
0100
0010
0100
0001
1000
,
0100
1000
0010
0100
0001
0100
0001
0010
,
0100
1000
0001
0100
0010
1000
0001
0010
,
0100
0010
0001
1000
0100
1000
0001
0100
,
0001
1000
0010
0100
0001
0010
0100
0010
,
0100
1000
0001
0100
0010
1000
0001
1000
,
0001
0010
0100
1000
0001
0100
0010
1000
,
0001
0010
0001
1000
0100
1000
0010
0100
,
0010
1000
0100
0010
0001
1000
0100
1000
,
0001
0100
0010
1000
0001
0010
0001
1000
,
0100
0010
0100
1000
0001
0010
0001
0100
,
0010
1000
0001
1000
0100
0010
0001
1000
,
0100
1000
0010
0100
0001
0010
0001
1000
,
0100
0010
0001
1000
0010
0100
0001
1000
,
2002
0000
0000
0000
0000
0000
0000
3003
,
1001
0000
0000
0000
0000
0000
0000
0000
0001
0000
0000
0001
0000
0000
0001
0000
,
0000
0000
1000
0000
0000
0000
0000
0000
1000
0000
0000
1000
0000
0000
1000
0000
,
0000
0000
0010
0000
0000
0000
0000
0000
0010
0000
0000
0010
0000
0000
0010
0000
,
0000
0000
0100
0000
0000
0000
0000
0000
0100
0000
0000
0100
0000
0000
0100
0000
,
0001
0000
0010
0000
0000
0000
0000
0000
0010
0000
0000
0010
0000
0000
0010
0000
,
0000
0000
0100
0000
0000
0000
0000
0000
0100
0000
0000
0100
0000
0000
0100
0000
,
0000
0000
1000
0000
0000
0000
0000
0000
1000
0000
0000
1000
0000
0000
1000
0000
,
0001
0000
0010
0000
0000
0001
0000
0000
1000
0000
0000
0001
0000
0000
1001
0000
,
0001
0010
0100
0000
0100
1000
0010
0000
,
0010
1000
0001
0000
0001
0100
0010
1000
,
0010
0100
0001
0000
0001
1000
0010
0000
,
0010
1000
0100
0000
0100
0010
0001
1000
,
0010
1000
0001
0000
0001
0010
0100
0000
,
0100
1000
0010
0000
0010
1000
0001
0000
,
0001
0010
0100
0000
0100
1000
0001
1000
,
0001
0000
0000
1001
,
0001
0010
0001
1000
0100
1000
0010
0100
,
0010
1000
0001
0100
0001
0010
0100
1000
,
0001
0100
0001
1000
0010
0100
0001
0010
,
0100
0010
0001
1000
0010
1000
0001
0100
,
0010
1000
0100
0010
0100
1000
0001
0100
,
0001
0010
0100
1000
0010
0100
0010
1000
,
0001
0010
0001
1000
0100
0010
0001
1000
,
0010
0100
0010
0100
0001
1000
0001
1000
,
0001
0010
0100
1000
0010
0100
0010
1000
,
0001
0100
0001
0010
0100
0010
0001
1000
,
0100
1000
0010
0100
0001
0010
0001
1000
,
0100
1000
0001
0100
0001
1000
0010
1000
,
0001
0010
0100
0010
0001
1000
0010
1000
,
0001
0100
0010
1000
0100
0010
0100
1000
,
0001
0100
0010
1000
0001
0010
0100
1000
,
2002
0000
0000
3003
,
1000
0010
0000
0000
0010
0100
0000
0000
,
0100
0001
0000
0000
0001
1000
1000
0000
,
0001
0010
0000
0000
0100
1000
0000
0000
,
0010
0100
0000
0000
0001
1000
1000
1000
,
0001
0010
0000
0000
0100
1000
0000
0000
,
0010
0100
0000
0000
0001
0010
0010
0000
,
0001
1000
0001
1000
0010
0100
0010
0100
,
0001
0010
0100
1000
2002
0000
0000
3003
,
0110
0000
0000
0000
;

//---------------dance-single - ----------------
#NOTES:
     dance-single:
     :
     Medium:
     11:
     0.410404,0.561408,0.102340,0.153510,0.000000,393.000000,379.000000,14.000000,21.000000,0.000000,0.000000,0.410404,0.561408,0.102340,0.153510,0.000000,393.000000,379.000000,14.000000,21.000000,0.000000,0.000000:
// measure 0
0000
0000
0000
0000
,  // measure 1
0000
0000
0000
0000
,  // measure 2
0000
0000
0000
0000
,  // measure 3
0000
0000
0000
0000
,  // measure 4
2002
0000
0000
0000
,  // measure 5
3003
0000
0000
0000
,  // measure 6
0001
0000
0001
0000
,  // measure 7
1000
0000
1000
0000
,  // measure 8
2002
0000
0000
0000
,  // measure 9
3003
0000
0000
0000
,  // measure 10
1000
0000
0000
0100
0000
0000
0000
0000
,  // measure 11
0010
0000
0001
0000
,  // measure 12
2002
0000
0000
0000
,  // measure 13
3003
0000
1000
1000
,  // measure 14
0001
0000
0000
1000
,  // measure 15
0000
0001
0000
0000
,  // measure 16
2002
0000
0000
0000
,  // measure 17
3003
0000
0000
0000
,  // measure 18
0001
0000
0010
0000
,  // measure 19
0100
0000
1000
0000
,  // measure 20
2002
0000
0000
0000
,  // measure 21
3003
0000
1000
1000
,  // measure 22
0100
0010
0100
0010
,  // measure 23
0002
0000
0000
1003
,  // measure 24
0001
0000
0010
0000
0001
0010
0100
0000
,  // measure 25
1000
0000
0100
0000
1000
0100
0010
0000
,  // measure 26
0001
0000
1000
0000
0001
1000
0100
0000
,  // measure 27
1000
0000
0001
0000
1000
0001
0100
0010
,  // measure 28
1000
0000
0100
0000
0010
0001
0010
0000
,  // measure 29
0001
0000
0010
0000
0100
1000
0100
0000
,  // measure 30
1000
0000
0010
0000
0100
0001
0100
0000
,  // measure 31
0001
0010
0001
0000
0010
0100
0010
0000
,  // measure 32
0100
0000
1000
0000
0100
1000
0010
0000
,  // measure 33
0100
0000
0001
0000
0100
0001
0010
0000
,  // measure 34
0001
0000
0010
0000
0100
1000
0100
0000
,  // measure 35
1000
0000
0001
0000
0100
0001
0010
0100
,  // measure 36
1000
0000
0010
0000
0100
0001
0100
0000
,  // measure 37
0001
0000
0010
0000
0100
0010
0100
0000
,  // measure 38
1000
0000
0010
0000
0100
0001
0100
0000
,  // measure 39
0002
0000
0000
1003
,  // measure 40
0001
0010
0100
0010
0001
0010
0100
0000
,  // measure 41
1000
0100
0010
0100
1000
0100
0010
0000
,  // measure 42
0010
0001
0100
0001
0010
0001
0100
0000
,  // measure 43
0001
0010
0100
0000
1000
0010
0100
0000
,  // measure 44
0001
0100
0010
0100
0001
0100
0010
0000
,  // measure 45
1000
0001
0100
0001
1000
0001
0100
0000
,  // measure 46
0001
0010
0100
1000
0100
0010
0001
0000
,  // measure 47
1000
1000
0010
0000
0100
0100
0001
0000
,  // measure 48
1000
0010
0100
0001
0010
0001
0100
0000
,  // measure 49
0010
1000
0100
0010
0100
1000
0001
0000
,  // measure 50
0100
0001
0100
0010
1000
0100
0010
0000
,  // measure 51
0001
0001
0010
0000
0100
0100
1000
0000
,  // measure 52
0010
1000
0001
0100
0010
0100
0001
0000
,  // measure 53
0010
0001
0010
0100
0010
0001
1000
0000
,  // measure 54
0010
1000
0010
0100
0001
0010
0001
0000
,  // measure 55
2002
0000
0000
3003
,  // measure 56
1001
0000
0000
0000
,  // measure 57
0000
0000
0000
0000
,  // measure 58
0000
0000
0000
0000
,  // measure 59
0000
0000
0000
0000
,  // measure 60
0110
0000
0000
0000
,  // measure 61
0000
0000
0000
0000
,  // measure 62
0000
0000
0000
0000
,  // measure 63
1000
0001
1000
0001
1000
0001
1000
0000
,  // measure 64
0001
0000
0010
0000
0001
0010
0000
0100
,  // measure 65
0000
0000
1000
0000
0100
1000
0100
0000
,  // measure 66
0010
0000
0001
0000
0010
0001
0000
0100
,  // measure 67
0000
0000
0010
0000
1000
0010
1000
0010
,  // measure 68
0000
0000
0100
0000
0001
1000
0000
0010
,  // measure 69
0000
0000
0100
0000
0001
0010
0100
0000
,  // measure 70
1000
0000
0100
0000
1000
0010
0000
0100
,  // measure 71
0001
0000
0000
0000
,  // measure 72
1000
0001
0000
0001
0000
0001
0000
0001
,  // measure 73
1000
0100
1000
0000
0010
0100
0010
0000
,  // measure 74
0100
0001
0100
0010
0100
0001
0010
0000
,  // measure 75
0001
0010
0100
1000
0100
0010
0001
0000
,  // measure 76
1000
0100
0000
0100
0000
0100
0000
0100
,  // measure 77
0010
0001
0010
0000
0001
0100
0001
0000
,  // measure 78
0010
0001
0010
0100
1000
0001
0100
0000
,  // measure 79
0010
0100
0001
0000
0010
0100
1000
0001
,  // measure 80
1000
0010
1000
0001
0100
0010
0100
0000
,  // measure 81
0001
0010
0100
0010
0001
1000
0100
0000
,  // measure 82
1000
0010
1000
0001
0100
0010
0100
0000
,  // measure 83
0001
0010
0001
0000
1000
0100
1000
0000
,  // measure 84
0010
1000
0001
0100
0010
0100
0001
0000
,  // measure 85
0010
0001
0010
0100
1000
0001
1000
0000
,  // measure 86
0010
0100
0001
0010
0100
1000
0001
0000
,  // measure 87
2002
0000
0000
3003
,  // measure 88
0001
0000
0000
0001
0000
0000
0001
0000
,  // measure 89
0000
1000
0000
0000
1000
0000
1000
0000
,  // measure 90
0010
0000
0000
0010
0000
0000
0010
0000
,  // measure 91
0200
0000
0020
0330
,  // measure 92
1001
0000
0110
0000
,  // measure 93
1001
0000
0110
0000
,  // measure 94
1000
0200
0000
0300
0010
0002
0000
0003
,  // measure 95
1000
0001
1000
0001
2000
0000
0000
3000
,  // measure 96
1001
0000
0000
0000
;

//---------------dance-single - ----------------
#NOTES:
     dance-single:
     :
     Easy:
     8:
     0.234964,0.385968,0.080410,0.058480,0.000000,225.000000,214.000000,11.000000,8.000000,0.000000,0.000000,0.234964,0.385968,0.080410,0.058480,0.000000,225.000000,214.000000,11.000000,8.000000,0.000000,0.000000:
// measure 0
0000
0000
0000
0000
,  // measure 1
0000
0000
0000
0000
,  // measure 2
0000
0000
0000
0000
,  // measure 3
0000
0000
0000
0000
,  // measure 4
1001
0000
0000
0000
,  // measure 5
0000
0000
0000
0000
,  // measure 6
0000
0000
0000
0000
,  // measure 7
0000
0000
0000
0000
,  // measure 8
1001
0000
0000
0000
,  // measure 9
0000
0000
0000
0000
,  // measure 10
1000
0000
0000
0000
,  // measure 11
0001
0000
0001
0000
,  // measure 12
1001
0000
0000
0000
,  // measure 13
0000
0000
0001
0000
,  // measure 14
1000
0000
0000
0001
,  // measure 15
0000
0001
0000
0000
,  // measure 16
1001
0000
0000
0000
,  // measure 17
0000
0000
0000
0000
,  // measure 18
1000
0000
0000
0000
,  // measure 19
0001
0000
0001
0000
,  // measure 20
1001
0000
0000
0000
,  // measure 21
0000
0000
0001
0000
,  // measure 22
1000
0000
0001
0000
,  // measure 23
2000
0000
0000
3000
,  // measure 24
0001
0000
0010
0000
,  // measure 25
0001
0001
0100
0100
,  // measure 26
0010
0000
1000
0000
,  // measure 27
0100
0100
1000
1000
,  // measure 28
0001
0000
0100
0000
,  // measure 29
0010
0010
0100
0100
,  // measure 30
0001
0000
0010
0000
,  // measure 31
0100
0000
0100
0000
1000
0001
1000
0000
,  // measure 32
0010
0000
0100
0000
,  // measure 33
0001
0010
0001
1000
,  // measure 34
0100
0000
1000
0000
,  // measure 35
0010
0100
0001
0010
,  // measure 36
0001
0000
1000
0000
,  // measure 37
0100
1000
0010
0100
,  // measure 38
0010
0000
0100
0000
,  // measure 39
0002
0000
0000
0003
,  // measure 40
1000
0000
0100
0000
,  // measure 41
0010
0001
0100
0010
,  // measure 42
1000
0000
0001
0000
,  // measure 43
1000
0001
1000
0001
,  // measure 44
1000
0000
0010
0000
,  // measure 45
0100
0001
0010
0001
,  // measure 46
1000
0000
0100
0010
,  // measure 47
0000
0001
1000
0001
,  // measure 48
1000
0000
0100
0000
,  // measure 49
0010
0001
1000
0100
,  // measure 50
0010
0000
0001
0000
,  // measure 51
0100
0001
1000
0010
,  // measure 52
0100
0000
0001
0000
,  // measure 53
0010
0001
1000
0010
,  // measure 54
0100
0000
0001
1000
,  // measure 55
2002
0000
0000
3003
,  // measure 56
1001
0000
0000
0000
,  // measure 57
0000
0000
0000
0000
,  // measure 58
0000
0000
0000
0000
,  // measure 59
0000
0000
0000
0000
,  // measure 60
0110
0000
0000
0000
,  // measure 61
0000
0000
0000
0000
,  // measure 62
0000
0000
0000
0000
,  // measure 63
1000
0001
1000
0001
,  // measure 64
1000
0000
1000
0000
0000
1000
0000
0000
,  // measure 65
0000
0000
0001
0000
0000
0001
0100
0000
,  // measure 66
0000
0000
0100
0000
0000
0100
0000
0000
,  // measure 67
0000
0000
0010
0000
0000
0010
1000
0001
,  // measure 68
1000
0000
1000
0000
0000
1000
0000
0000
,  // measure 69
0000
0000
0001
0000
0000
0001
0100
0000
,  // measure 70
0000
0000
0100
0000
0000
0100
0000
0000
,  // measure 71
0000
0000
0000
0000
,  // measure 72
0001
0001
0001
0001
,  // measure 73
1000
0100
0010
0001
,  // measure 74
1000
0010
0100
0001
,  // measure 75
1000
0000
0001
0000
0100
0001
1000
0000
,  // measure 76
0001
0001
0001
0001
,  // measure 77
0100
0001
0010
0100
,  // measure 78
1000
0010
1000
0010
,  // measure 79
0100
0000
0001
0000
0100
0001
1000
0001
,  // measure 80
1000
0100
1000
0001
,  // measure 81
0010
0001
0100
0010
,  // measure 82
0100
0001
0010
0100
,  // measure 83
1000
0001
0010
0001
,  // measure 84
0100
0010
1000
0100
,  // measure 85
1000
0001
0010
0001
,  // measure 86
0100
0010
1000
0001
,  // measure 87
2002
0000
0000
3003
,  // measure 88
1000
0000
0000
0000
,  // measure 89
0100
0000
0000
0000
,  // measure 90
0010
0000
0000
0000
,  // measure 91
0001
0000
0001
0000
,  // measure 92
1000
0000
0000
0000
,  // measure 93
0010
0000
0000
0000
,  // measure 94
0100
0100
0001
0001
,  // measure 95
2002
0000
0000
3003
,  // measure 96
1001
0000
0000
0000
;
