#TITLE:Lady;
#SUBTITLE:(Hear Me Tonight);
#ARTIST:Modjo;
#TITLETRANSLIT:;
#SUBTITLETRANSLIT:;
#ARTISTTRANSLIT:;
#GENRE:French house;
#CREDIT:L33tAliceIp;
#MUSIC:Lady (Hear Me Tonight).ogg;
#BANNER:bn.png;
#BACKGROUND:bg.png;
#CDTITLE:;
#SAMPLESTART:23.001;
#SAMPLELENGTH:15.000;
#SELECTABLE:YES;
#OFFSET:-0.220;
#BPMS:0.000=126.012;
#STOPS:;
#DISPLAYBPM:126.000;
#BGCHANGES:16.000=cube2.avi=1.200=1=0=1===CrossFade==,
32.000=cube7.avi=1.000=0=0=1,
47.000=cube7.avi=0.000=0=0=1,
48.000=lady6.avi=1.200=0=0=1,
64.000=light3.avi=1.000=0=0=1,
80.000=ring4.avi=1.000=0=0=1,
96.000=mesh1.avi=1.000=0=0=1,
104.000=numbers2.avi=1.000=0=0=1,
112.000=ring8.avi=1.200=0=0=1,
128.000=rotation3.avi=1.200=0=0=1,
144.000=numbers2.avi=1.000=0=0=1,
160.000=ring4.avi=1.000=0=0=1,
168.000=ring12.avi=1.000=0=0=1,
176.000=lady6.avi=1.200=0=0=1,
192.000=Lady (Here Me Tonight)-jacket.png=1.000=1=0=1===CrossFade==,
99999.000=-nosongbg-=1.000=0=0=0=StretchNoLoop====
;
#FGCHANGES:;

//--------------- dance-single - ----------------
#NOTES:
     dance-single:
     :
     Beginner:
     2:
     0.125,0.169,0.06,0,0:
0000
0000
0000
0000
,
0000
0000
0000
0000
,
0000
0000
0000
0000
,
0000
0000
0000
0000
,
1000
0000
0000
0000
,
0001
0000
0001
0000
,
0100
0000
0000
0000
,
0001
0000
0001
0000
,
1000
0000
0000
0000
,
0010
0000
0010
0000
,
1000
0000
0000
0000
,
0001
0000
0001
0000
,
1001
0000
0000
0001
,
0001
0000
0000
0100
,
0100
0000
0000
0001
,
0001
0000
0000
1000
,
1000
0000
0001
0000
,
1000
0000
0000
0000
,
0100
0000
0100
0000
,
0100
0000
0000
0000
,
1001
0000
0000
1000
,
1000
0000
0000
0001
,
0001
0000
0000
0100
,
0100
0000
0000
0001
,
0001
0000
0001
0000
,
0001
0000
0000
0000
,
1000
0000
1000
0000
,
1000
0000
0000
0000
,
0110
0000
0000
0000
,
0100
0000
0000
0001
,
0001
0000
0000
1000
,
1000
0000
0001
0000
,
1000
0000
0000
0001
,
0001
0000
0000
0100
,
0100
0000
0000
0010
,
0010
0000
0001
0000
,
1001
0000
0000
1000
,
1000
0000
0000
0001
,
0001
0000
0000
1000
,
1000
0000
0001
0000
,
0110
0000
0000
1000
,
1000
0000
0000
0001
,
0001
0000
0001
0000
,
1000
1000
1000
0000
,
1001
0000
0000
0001
,
0001
0000
0000
0100
,
0100
0000
0000
0010
,
0010
0000
1000
0000
,
0001
0000
0000
0000
;

//--------------- dance-single - ----------------
#NOTES:
     dance-single:
     :
     Easy:
     5:
     0.204,0.222,0.03,0.151,0:
0000
0000
0000
0000
,
0000
0000
0000
0000
,
0000
0000
0000
0000
,
0000
0000
0000
0000
,
1000
0000
0001
0000
,
1000
0000
0100
0000
,
1000
0000
0001
0000
,
1000
0000
0010
0000
,
0001
0000
1000
0000
,
0100
0000
1000
0000
,
0001
0000
1000
0000
,
0010
0000
1000
1000
,
1001
0000
0100
0000
,
0001
0001
1000
0100
,
1000
0000
0010
0000
,
1000
1000
0001
0100
,
0001
0000
0100
0000
,
0010
0010
1000
0001
,
0100
0000
0001
0000
,
1000
1000
0001
0100
,
0001
0000
1000
0000
,
0100
0100
1000
0001
,
1000
0000
0010
0000
,
1000
1000
0001
0100
,
0010
0000
0001
0000
,
1000
1000
0001
0100
,
0001
1000
0001
0000
,
1000
0001
1000
0001
,
2001
0000
0000
0001
,
3002
0000
0000
1000
,
2003
0000
0000
0001
,
3002
0000
0000
1000
,
2003
0000
3100
1000
,
0002
0000
1003
1000
,
2000
0000
3010
0010
,
0020
0000
0130
1000
,
0001
0001
1000
0100
,
2000
0000
3002
0000
,
1003
0100
1000
0001
,
2000
0000
3020
0000
,
1030
1000
0010
1000
,
0002
0000
2003
0000
,
3010
0010
1000
0001
,
0100
0100
0100
0000
,
1001
0000
0001
0000
,
1000
0001
0100
0001
,
0010
0000
1000
0000
,
0001
1000
0100
1000
,
0002
0000
0000
0000
,
0003
0000
0000
0000
;

//--------------- dance-single - ----------------
#NOTES:
     dance-single:
     :
     Medium:
     7:
     0.345,0.37,0.121,0.151,0:
0000
0000
0000
0000
,
0000
0000
0000
0000
,
0000
0000
0000
0000
,
0000
0000
0000
0000
,
0010
0000
0010
0000
1000
0000
0001
1000
,
0100
0000
0100
0000
0010
0000
1000
0100
,
0001
0000
0001
0000
0001
0000
1000
0010
,
1000
0000
1000
0000
1000
0000
0100
1000
,
0100
0000
0100
0000
0100
0000
0001
1000
,
0001
0000
0001
0000
0001
0000
1000
0010
,
0100
0000
0100
0000
0100
0000
0001
0010
,
0100
0000
0100
0000
0010
1000
0010
0000
,
1001
0001
1000
0001
,
0100
0001
0000
0001
0100
0000
0110
0000
,
1000
0001
1000
0100
,
1000
0000
0010
1000
0000
1000
0010
0000
,
1001
0001
0100
0001
,
1000
0000
0010
1000
0000
1000
0010
0000
,
1001
1000
0100
1000
,
0001
0000
0100
0001
0000
0001
0100
0000
,
0110
0001
1000
0100
,
1000
0000
0001
0010
0000
0010
0001
0000
,
1010
0100
1000
0001
,
0100
0000
0001
1000
0000
1000
0010
0000
,
1001
1000
0100
1000
,
0001
0000
0100
0001
0000
0001
0100
0000
,
0001
0000
1000
0001
0100
0000
1000
0010
,
0001
0100
0001
0100
,
1001
0000
1000
0000
0001
0100
0001
0000
,
2000
0000
3010
0000
1000
0010
1000
0000
,
0002
0000
1003
0000
1000
0100
1000
0000
,
0020
0000
0130
0000
0001
0100
0001
0000
,
2000
0000
3001
0000
1000
0001
1000
0000
,
0002
0000
0103
0000
1000
0001
1000
0000
,
0020
0000
1030
0000
1000
0100
1000
0000
,
0020
0000
0130
0000
0001
1000
0001
0000
,
0002
0000
0013
0000
0100
0010
0100
0000
,
0002
0000
1003
0000
1000
0100
1000
0000
,
0020
0000
1030
0000
0001
1000
0001
0000
,
0200
0000
0301
0000
1000
0001
1000
0000
,
0002
0000
1003
0000
0001
1000
0001
0000
,
2000
0000
3010
0000
1000
0100
1000
0000
,
1001
0000
0001
0000
0100
0010
0001
0000
,
1000
0001
1000
0001
1000
0000
0110
0000
,
1001
1000
0001
0100
,
0001
0000
1000
0001
0000
0001
1000
0000
,
0100
0001
1000
0001
,
1000
0000
0010
1000
0000
1000
0010
0000
,
2002
0000
0000
0000
,
3003
0000
0000
0000
;

//--------------- dance-single - ----------------
#NOTES:
     dance-single:
     :
     Hard:
     10:
     0.381,0.444,0.241,0.151,0.176:
0000
0000
0000
0000
,
0000
0000
0000
0000
,
0000
0000
0000
0000
,
0000
0000
0000
0000
,
1000
0001
0000
0001
0000
0001
0100
0000
,
0001
1000
0000
0010
0000
1000
0001
0000
,
1000
0100
0000
0100
0000
1000
0001
0000
,
0010
1000
0000
1000
0000
1000
0001
0000
,
1000
0001
0000
0001
0000
0010
0001
0000
,
1000
0001
0000
1000
0000
0100
1000
0000
,
1000
0001
0000
0010
0000
1000
0010
0000
,
0001
0000
1000
0000
0000
0000
0001
0000
0000
1000
0000
0000
1001
0000
0000
0000
,
1001
0000
0000
1000
0000
0000
0000
0000
1000
0000
0001
0000
0100
0000
0000
0000
,
0002
0000
0000
1000
0003
0000
0000
0000
0001
0000
1000
0000
0100
0000
0000
0000
,
2000
0000
0000
0001
3000
0000
0000
0000
1000
0000
0001
0000
0100
0000
0000
0000
,
0002
0000
0000
1000
0003
0000
0000
0000
1000
0000
0001
0000
1000
0000
0000
0000
,
1002
0000
0103
0000
1000
0001
0100
0000
,
0002
0000
0000
1000
0003
0000
0000
0000
1000
0000
0001
0000
0100
0000
0000
0000
,
0002
0000
1003
0000
1000
0001
1000
0000
,
0001
0000
0000
1000
0000
0000
0001
0000
0000
0001
0000
0000
0101
0000
0000
0000
,
1001
0000
0000
0001
0000
0000
0000
0000
1000
0000
0001
0000
0100
0000
0000
0000
,
0002
0000
0000
1000
0003
0000
0000
0000
1000
0000
0010
0000
1000
0000
0000
0000
,
0002
0000
0000
0100
0003
0000
0000
0000
0001
0000
0001
0000
0100
0000
0000
0000
,
2000
0000
0000
0010
3000
0000
0000
0000
0001
0000
1000
0000
0000
0100
0000
0000
,
2000
0000
3001
0000
1000
0010
1000
0000
,
0002
0000
0000
0100
0003
0000
0000
0000
0001
0000
1000
0000
0000
0001
0000
0000
,
0100
0000
0001
1000
0010
0000
1000
0001
,
1000
0000
1000
0001
0100
0000
0001
1000
,
1001
0000
0001
0000
0000
0000
1000
0000
0000
0001
0000
0000
0100
0000
0000
0000
,
0011
0000
1000
0000
0000
0000
1000
0000
0000
0010
0000
0000
1000
0000
0000
0000
,
0101
0000
1000
0000
0000
0000
0001
0000
0000
0100
0000
0000
0001
0000
0000
0000
,
1100
0000
0100
0000
0000
0000
1000
0000
0000
0001
0000
0000
0100
0000
0000
0000
,
1001
0000
0001
0000
0000
0000
1000
0000
0000
0001
0000
0000
0100
0000
0000
0000
,
0011
0000
1000
0000
0000
0000
1000
0000
0000
0010
0000
0000
0010
0000
0000
0000
,
0101
0000
1000
0000
0000
0000
0001
0000
0000
0100
0000
0000
0001
0000
0000
0000
,
1010
0000
0001
0000
0000
0000
1000
0000
0000
0010
0000
0000
0001
0000
0000
0000
,
0110
0000
0001
0000
0000
0000
0001
0000
0000
1000
0000
0000
1000
0000
0000
0000
,
0101
0000
0010
0000
0000
0000
1000
0000
0000
0100
0000
0000
0001
0000
0000
0000
,
1010
0000
0001
0000
0000
0000
1000
0000
0000
0001
0000
0000
0100
0000
0000
0000
,
0101
0000
0010
0000
0000
0000
1000
0000
0000
0100
0000
0000
0100
0000
0000
0000
,
1001
0000
0100
0000
0000
0000
0001
0000
0000
1000
0000
0000
0010
0000
0000
0000
,
1100
0000
0001
0000
0000
0000
1000
0000
0000
0001
0000
0000
0100
0000
0000
0000
,
1001
0000
0000
0000
1000
0000
0100
0000
0001
0000
0100
0000
0001
0000
0000
1000
,
0001
0001
1000
1000
1100
0000
0101
0000
,
1001
0000
0000
0001
0000
0000
0000
0000
1000
0000
0001
0000
1000
0000
0000
0000
,
0002
0000
0000
0010
0003
0000
0000
0000
2000
0000
0000
0100
3000
0000
0000
0000
,
0001
0000
1000
0000
0000
0000
0001
0000
0000
0100
0000
0000
0001
0000
0000
0000
,
1000
0000
0001
0000
0000
0000
1000
0000
0100
0000
1000
0000
0000
0100
0000
0000
,
2002
0000
0000
0000
,
3003
0000
0000
0000
;

//--------------- dance-single - ----------------
#NOTES:
     dance-single:
     :
     Challenge:
     13:
     0.517,0.493,0.251,0.06,0.483:
0000
0000
0000
0000
,
0000
0000
0000
0000
,
0000
0000
0000
0000
,
0000
0000
0000
0000
,
1000
0000
0001
0000
0100
0000
0001
0000
0000
1000
0000
0000
0100
0000
0000
1000
,
0001
0000
1000
0000
0100
0000
1000
0000
0000
0010
0000
0000
1000
0000
0000
0001
,
0100
0000
0001
0000
0100
0000
0010
0000
0000
0010
0000
0000
0010
0000
0000
0010
,
1000
0000
0001
0000
0100
0000
0001
0000
0000
1000
0000
0000
0001
0000
0000
1000
,
0100
0000
1000
0000
0001
0000
0100
0000
0000
0010
0000
0000
0010
0000
0000
0001
,
1000
0000
0001
0000
0100
0000
0001
0000
0000
1000
0000
0000
0010
0000
0000
1000
,
0100
0000
1000
0000
0001
0000
0100
0000
0000
0001
0000
0000
0010
0000
0000
1000
,
0001
0000
1000
0000
0001
0000
0100
0000
0000
0001
0000
0000
1001
0000
0000
0000
,
1001
0000
0000
1001
0000
0000
0001
0000
0000
1000
0000
0000
0100
0000
1000
0000
,
1100
0000
0000
1100
0000
0000
0001
0000
0000
1000
0000
0000
0001
0000
1000
0000
,
0011
0000
0000
0011
0000
0000
1000
0000
0000
0001
0000
0000
0100
0000
0001
0000
,
1100
0000
0000
1100
0000
0000
1000
0000
0000
0001
0000
0000
1000
0000
0010
0000
,
2001
0000
0000
0001
0000
0000
0001
0000
0000
0100
0000
0000
3100
0000
0001
0000
,
2010
0000
0000
0010
0000
0000
0010
0000
0000
0100
0000
0000
3100
0000
0001
0000
,
0012
0000
0000
0010
0000
0000
0010
0000
0000
1000
0000
0000
1003
0000
0010
0000
,
1020
0000
0000
1000
0000
0000
1000
0000
0000
0100
0000
0000
0130
0000
0000
0000
,
1001
0000
1000
0000
0001
0000
0100
0000
0000
1000
0000
0000
1000
0010
0000
1000
,
0010
0000
1000
0000
0001
0000
0100
0000
0000
0100
0000
0000
0100
0001
0000
0001
,
1000
0000
0001
0000
1000
0000
0100
0000
0000
0001
0000
0000
1000
0001
0000
1000
,
0001
0000
0100
0000
0001
0000
1000
0000
0000
1000
0000
0000
0001
1000
0000
1000
,
0100
0000
1000
0000
0001
0000
0100
0000
0000
0100
0000
0000
1000
0001
0000
1000
,
0010
0000
0001
0000
0010
0000
1000
0000
0000
1000
0000
0000
1000
0001
0000
0001
,
1000
0000
0001
0000
0100
0000
0001
0000
1000
0000
0010
0000
,
1000
0000
0001
0000
0100
0000
0001
0000
1000
0000
0001
0000
,
1001
0000
0001
0000
1000
0000
0100
0000
1000
0100
0000
0000
1000
0100
1000
0000
,
1000
0000
0001
0000
0010
0000
0100
0000
1000
0001
0000
0000
1000
0001
1000
0000
,
0001
0000
0100
0000
0001
0000
1000
0000
0010
1000
0000
0000
1000
0010
1000
0000
,
1000
0000
0001
0000
0100
0000
0001
0000
0001
1000
0000
0000
0001
1000
0001
0000
,
1000
0000
0100
0000
1000
0000
0001
0000
0100
0001
0000
0000
1000
0001
1000
0000
,
0001
0000
1000
0000
0010
0000
1000
0000
0001
0100
0000
0000
0100
0010
0100
0000
,
1000
0000
0001
0000
0100
0000
0001
0000
1000
0010
0000
0000
1000
0001
1000
0000
,
0001
0000
0100
0000
0010
0000
1000
0000
0100
1000
0000
0000
1000
0001
1000
0000
,
0001
0000
0010
0000
1000
0000
0100
0000
1000
0001
0000
0000
0001
0100
0001
0000
,
1000
0000
0010
0000
1000
0000
0100
0000
1000
0100
0000
0000
0001
0010
0001
0000
,
1000
0000
0100
0000
1000
0000
0001
0000
1000
0100
0000
0000
0010
1000
0010
0000
,
1000
0000
0001
0000
0100
0000
0001
0000
0100
0010
0000
0000
0010
0100
0010
0000
,
0001
0000
0100
0000
1000
0000
0100
0000
1000
0010
0000
0000
0001
1000
0001
0000
,
1000
0000
0100
0000
1000
0000
0001
0000
1000
0010
0000
0000
0001
1000
0001
0000
,
1001
0000
0001
0000
0100
0000
0001
0000
0000
0001
0000
0000
0001
1000
0000
0001
,
0010
0010
0100
0100
1010
0000
0101
0000
,
1001
0000
0000
1001
0000
0000
1000
0000
0001
0000
0000
0100
0000
0000
0001
0000
,
1010
0000
0000
1010
0000
0000
1000
0000
0101
0000
0000
0101
0000
0000
0001
0000
,
1000
0000
0001
0000
0100
0000
0001
0000
0000
1000
0000
0000
1000
0010
0000
1000
,
0001
0000
0100
0000
0001
0000
1000
0000
0000
0000
0100
0000
0000
0001
0000
0000
,
2002
0000
0000
0000
,
3003
0000
0000
0000
;
