#TITLE:It Doesn't Matter;
#SUBTITLE:(Sonic Adventure 2 Version);
#ARTIST:Tony Harnell;
#TITLETRANSLIT:;
#SUBTITLETRANSLIT:;
#ARTISTTRANSLIT:;
#GENRE:Rock;
#CREDIT:;
#MUSIC:It Doesn't Matter.ogg;
#BANNER:bn.png;
#BACKGROUND:bg.png;
#CDTITLE:;
#SAMPLESTART:87.656;
#SAMPLELENGTH:16.002;
#SELECTABLE:YES;
#OFFSET:-0.894;
#BPMS:0.000=239.968;
#STOPS:;
#DISPLAYBPM:240.000;
#BGCHANGES:;
#FGCHANGES:;

//--------------- dance-single - ----------------
#NOTES:
     dance-single:
     :
     Beginner:
     7:
     0.317093,0.497592,0.030829,0.069364,0,288,284,4,9,0,0,0.317093,0.497592,0.030829,0.069364,0,288,284,4,9,0,0:
0000
0000
0000
0000
,
0000
0000
0001
0000
,
1000
0000
0001
0000
,
1000
0000
0001
0000
,
0100
0000
0001
0000
,
1000
0000
0100
0010
,
0100
0000
1000
0001
,
1000
0000
0100
1000
,
0100
0000
0001
0010
,
0001
0000
1000
0100
,
0010
0000
0001
0010
,
0100
0000
1000
0100
,
1000
0000
0001
0100
,
0001
0000
1000
0100
,
1000
0000
0001
0010
,
0001
0000
1000
0000
,
0001
0000
1000
0000
,
0001
0000
1000
0001
,
1000
0001
1000
0001
,
1000
0000
1001
0000
,
0110
0000
1001
0000
,
0001
1000
1001
0000
,
0100
0000
0100
0000
,
0010
0000
0001
0000
,
0001
0000
0010
0000
,
0010
0000
0100
0000
,
0100
0000
1000
0000
,
1000
0000
0001
0000
,
0000
0000
1000
0001
,
0000
0000
0001
0000
,
1000
0000
0001
0000
,
1000
0000
0100
0000
,
0000
0100
1000
0000
,
0000
0000
0100
0010
,
0000
0100
1000
0000
,
0001
0000
1000
0000
,
0001
0000
1000
0001
,
1000
0000
0100
0000
,
0100
0000
0010
0000
,
0010
0000
0001
0000
,
0001
0000
1000
0001
,
1000
0000
0000
0000
,
0100
0000
0100
0000
,
0010
0000
0010
0000
,
0001
0000
1000
0001
,
1000
0000
0100
0000
,
0010
0000
0100
0000
,
1000
0000
0100
0000
,
0010
0000
0001
0000
,
1000
0000
0002
0000
,
0000
0000
0000
0000
,
0000
0000
2003
0000
,
3200
0000
0320
0000
,
0000
0000
0000
0000
,
0000
0000
0001
0000
,
0031
0000
1000
0001
,
1000
0000
0100
0000
,
0010
0000
0001
0010
,
0001
0000
0100
0000
,
1000
0000
0010
1000
,
0010
0000
0100
0000
,
1000
0000
0100
0000
,
0010
0000
0100
0000
,
1000
0000
0000
0000
0100
0000
0000
1000
,
0000
0100
0000
1000
,
0000
0000
0000
0000
0001
0000
0000
0100
,
0000
0010
1000
0000
,
0000
0000
0100
1000
,
0100
0000
0001
0010
,
0000
0000
0002
0000
,
0000
1003
0100
0010
,
0001
1000
0002
0000
,
0000
0000
2003
0000
,
0000
0000
3020
0030
,
0100
0000
0001
0000
,
1000
0000
0010
1000
,
0010
0000
0010
0000
,
0001
0000
1000
0000
,
0100
0000
0010
0000
,
0001
0000
1000
1000
,
0010
0010
0100
0100
,
0001
0000
0010
0010
,
0001
0001
0010
0010
,
0100
0000
1000
0000
,
0001
0000
1000
0000
,
0100
0000
0000
0000
0010
0000
0000
0100
,
0000
0000
0010
0000
0000
0100
0000
0000
,
0010
0000
0001
1000
,
0001
0000
0010
0000
,
0100
0000
1000
0100
,
1000
0000
0010
0000
,
0001
0000
0100
0001
,
0100
0000
0010
0000
,
0001
0000
0010
0000
,
0100
0000
0010
0000
,
0001
0000
0000
0000
0010
0000
0000
0001
,
0000
0010
0000
0001
,
0000
0000
0000
0000
1000
0000
0000
0010
,
0000
0100
0001
0000
,
0000
0000
0010
0001
,
0010
0000
1000
0100
,
0000
0000
2000
0000
,
0000
3001
0010
0100
,
1000
0001
1000
0000
,
0001
0000
1000
0000
,
0001
0000
1000
0000
,
0010
0000
1000
0000
,
0001
0000
0010
0100
,
0010
0000
0001
1000
,
0001
0000
0010
0001
,
0010
0000
1000
0100
,
1000
0000
0001
0010
,
0100
1000
1001
0000
;

//--------------- dance-single - ----------------
#NOTES:
     dance-single:
     :
     Easy:
     8:
     0.397468,0.547351,0.146435,0.238921,0,361,342,19,31,0,0,0.397468,0.547351,0.146435,0.238921,0,361,342,19,31,0,0:
0000
0000
0000
0000
,
0000
0000
0001
0010
,
0100
1000
0010
1000
,
0001
1000
0100
0010
,
0100
1000
0001
0000
,
0100
0000
1000
0100
,
0010
0001
1000
0010
,
0100
0001
1000
0100
,
0010
0100
2000
0000
,
0000
0000
0000
0000
0100
3000
0001
0000
,
0010
0100
1000
0010
,
0100
0001
1000
0100
,
0010
0001
2000
0000
,
0000
0000
3100
1000
,
0100
1000
0100
1000
,
0001
1000
0100
0010
,
0100
1000
0100
0010
,
0100
1000
0001
1000
,
0001
0010
0100
1000
,
0001
0000
1000
0000
1001
0000
0000
1001
,
0000
0000
1001
0000
0000
1001
0000
0000
,
0100
0010
0100
0000
,
0100
1000
0100
1000
,
0100
1000
0010
0001
,
0010
0001
0010
0001
,
0010
0001
0010
0001
,
0000
1000
0001
1000
,
0001
1000
1001
0000
,
0000
0000
0000
0000
0200
0000
0000
1300
,
0000
0000
0100
1000
,
0100
0000
0010
0000
0100
0000
0000
0100
,
0000
0010
0200
0000
,
0000
0310
2000
0000
,
0000
0000
0000
3100
,
0000
1000
0100
1000
,
0100
1000
1001
0000
,
1100
0000
0001
1000
,
0001
0000
0000
0000
0100
0000
0000
1000
,
0000
0000
0001
0000
1000
0000
0000
0100
,
0000
0000
0010
0000
0100
0000
0000
1000
,
0000
0001
1000
0001
,
1000
0000
0000
0100
,
0010
0000
0100
0000
1000
0000
0000
0100
,
0000
0010
0100
0000
,
0000
1000
0001
0010
,
0000
0000
0000
1000
,
0001
1000
1001
0000
,
0000
0000
0100
0000
1000
0000
0000
0100
,
0000
0000
1000
0000
0100
0000
0000
1000
,
0000
0000
0000
0000
0001
0000
0000
1000
,
0000
0001
2000
0000
,
0000
3000
1100
0000
,
1001
0000
2002
0000
,
0000
0000
0000
0000
,
0000
0000
3003
0000
,
0001
0000
1000
0000
0001
0000
0000
1000
,
0000
0000
0000
0100
,
0000
0000
1000
0000
0100
0000
0000
1000
,
0000
0000
0000
1001
,
0000
0000
0100
0000
0010
0000
0000
0100
,
0000
0000
0000
0000
1000
0000
0000
0001
,
0000
2000
0000
3020
,
0000
0030
0000
0100
,
1000
0000
0100
0000
1000
0000
0000
0100
,
0000
1000
0000
1001
,
0000
0000
0100
0000
1000
0000
0000
0001
,
0000
1000
0100
0000
,
0000
0001
2000
0000
,
3002
0000
0023
0000
,
0230
0000
2300
0000
,
0000
3100
0010
0001
,
1000
0010
2000
0000
,
0000
0000
0100
0000
,
0001
0000
0000
0000
0100
3000
0010
0000
,
0100
1000
0001
0100
,
0001
0000
0100
1000
,
0100
0010
0001
1000
,
0001
0000
0100
0000
0020
0000
0000
0001
,
0000
0000
0001
0000
0000
0031
0000
0000
,
0000
0000
0100
1000
,
0100
0010
0001
1000
,
0010
0100
0001
1000
,
0100
0010
0001
1000
,
0010
0000
0100
0000
0001
0000
0000
1000
,
0000
0000
0100
0000
0010
0000
0000
0001
,
0000
0000
0100
0000
0101
0000
0000
1001
,
0000
1100
0000
0000
,
0001
0000
1000
0000
0001
0000
0000
1000
,
0000
0000
0000
0100
,
0000
0000
1000
0000
0100
0000
0000
1000
,
0000
0000
0000
1001
,
0000
0000
0100
0000
0010
0000
0000
0100
,
0000
0000
0000
0000
1000
0000
0000
0001
,
0000
2000
0000
3020
,
0000
0030
0000
0100
,
1000
0000
0100
0000
1000
0000
0000
0100
,
0000
1000
0000
1001
,
0000
0000
0100
0000
1000
0000
0000
0001
,
0000
1000
0100
0000
,
0000
0001
2000
0000
,
3002
0000
0023
0000
,
0230
0000
2300
0000
,
0000
3100
0010
0001
,
1000
0010
1000
0100
,
0010
0001
0100
0001
,
1000
0001
0010
0100
,
0010
0001
1000
0000
,
0010
0000
0001
0010
,
0100
1000
0001
0100
,
0010
1000
0001
0010
,
0100
0000
0010
0000
0001
0000
0000
0011
,
0000
1001
1000
0100
,
0010
0002
2000
0000
,
0000
0000
0000
0000
,
0000
0000
0000
0000
,
0000
0000
0000
0000
,
0000
0000
0000
0000
,
0000
0000
0000
0000
,
0000
0000
3003
0000
;

//--------------- dance-single - ----------------
#NOTES:
     dance-single:
     :
     Medium:
     11:
     0.499862,0.696628,0.477842,0.138728,0,454,392,62,18,0,0,0.499862,0.696628,0.477842,0.138728,0,454,392,62,18,0,0:
0000
0000
0000
0000
,
0000
0000
0001
0000
,
0000
0000
0001
0000
1000
0000
0000
0100
,
0000
0000
1000
0000
0100
0000
0000
1000
,
0000
0100
0000
0001
,
0010
0000
0000
0000
0100
0000
0000
1000
,
0000
0000
0100
0000
0100
0000
0000
1001
,
0000
0000
0100
0000
1000
0000
0000
0100
,
0000
1000
0100
0000
,
0100
0000
0000
0000
0100
0000
0000
1000
,
0000
0000
0100
0000
1000
0000
0000
0001
,
0000
0000
0100
0000
0001
0000
0000
1000
,
0000
0100
0000
1100
,
0000
0000
0001
0000
1000
0000
0000
0100
,
0000
0000
1000
0000
0100
0000
0000
0001
,
0000
0000
1000
0000
0100
0000
0000
1000
,
0000
0100
1000
0000
,
0000
0000
0001
1000
,
0001
0100
0001
1000
,
0100
0000
1000
0000
1000
0100
0000
0100
,
1000
0000
1000
0100
0000
0100
1000
0000
,
0001
1000
0100
1000
,
0001
0100
0001
0100
,
0001
0000
0100
0000
0001
0000
1000
0001
,
0000
0100
1000
0100
,
1000
0010
1010
0100
,
1000
0100
1000
0001
,
1000
0100
0022
0000
,
0000
0000
0033
0000
1001
0000
0000
1100
,
0000
0000
0001
1000
,
0100
0000
0010
0000
0001
0000
0000
1000
,
0000
0001
0200
0000
,
0300
0001
2002
0000
,
0000
3003
0001
1000
,
0100
0010
0001
1000
,
0010
0100
0001
0000
,
1000
0000
1001
1100
,
1001
0000
0000
0000
0001
0000
0000
1000
,
0000
0000
0001
0000
0100
0000
0000
0001
,
0000
0000
1000
0000
0001
0000
0000
0100
,
0000
0001
1000
0001
,
1001
0000
0000
0100
,
1000
0000
0100
0000
1000
0000
0000
0001
,
0000
1000
0001
0100
,
0001
0010
0100
1000
,
0220
0000
0330
0001
,
1000
0001
1001
0000
,
0000
0000
0001
0000
1000
0000
0000
0001
,
0000
0000
1000
0000
0100
0000
0000
0110
,
0000
0000
0000
0000
0020
0000
0000
2030
,
0000
3001
2002
0000
,
3003
0000
1001
0000
,
1100
0000
2002
0000
,
0000
3003
1000
0100
,
0010
0001
1001
0000
,
1000
0000
0001
0000
1000
0000
0001
1000
,
0000
0100
0010
0100
,
0000
0000
0110
0000
0100
0000
0000
1100
,
0000
0001
1000
0001
,
0000
0000
1000
0000
1001
0000
0000
0100
,
0000
0000
0000
0000
1100
0000
0000
1001
,
0000
0101
0000
1001
,
0000
0000
0000
0001
,
1000
0000
0001
0000
1001
0000
0000
1100
,
0000
1001
0000
0100
,
0000
0000
0010
0000
0100
0000
0000
0110
,
0000
0001
1001
0000
,
0000
0100
1000
0100
,
0010
0001
0010
0100
,
0010
0100
2000
0000
,
0000
3001
1000
0100
,
0010
0001
1001
0000
,
0000
0000
0001
1000
,
0001
0100
0001
1000
,
0100
0010
0001
1000
,
0010
0100
0001
1000
,
0001
0000
1000
0001
0100
0000
0000
0010
,
0100
0000
0100
0010
0100
0000
1000
0001
,
0000
0001
1000
0000
0100
0000
0010
0000
,
0100
0000
1000
0000
0100
0010
0100
0010
,
0100
0000
1000
0000
0100
0010
0100
0010
,
0100
0000
0010
0000
1000
0100
1000
0100
,
1000
0000
0100
0000
0010
0100
0010
0100
,
0010
0000
0000
0000
0110
0000
0000
1001
,
0000
0000
0110
0000
1100
0000
0000
1001
,
0000
0000
1010
0000
0110
0000
0000
1001
,
0000
0000
1100
0000
0000
1001
0000
0000
,
0101
0000
0000
0000
0001
0000
1000
0001
,
0000
0010
0100
0010
,
0000
0000
0110
0000
0010
0000
0000
0011
,
0000
1000
0001
1000
,
0000
0000
0001
0000
1001
0000
0000
0010
,
0000
0000
0000
0000
0011
0000
0000
1001
,
0000
1010
0000
1001
,
0000
0000
0000
1000
,
0001
0000
1000
0000
1001
0000
0000
0011
,
0000
1001
0000
0010
,
0000
0000
0100
0000
0010
0000
0000
0110
,
0000
1000
1001
0000
,
0000
0010
0001
0010
,
0100
1000
0100
0010
,
0100
0010
0002
0000
,
0000
1003
0001
0010
,
0100
1000
0001
0000
,
0000
0000
0001
0000
1000
0000
0000
0100
,
0000
0000
1000
0000
0100
0000
0000
1000
,
0000
0100
0000
0001
,
0010
0000
0000
0000
0100
0000
0000
1000
,
0000
0000
0100
0000
0100
0000
0000
1001
,
0000
0000
0100
0000
1000
0000
0000
0100
,
0000
0000
1000
0000
0100
0000
0000
0010
,
0000
0000
0000
0001
0010
0000
0100
0000
,
1000
0001
2002
0000
,
0000
0000
0000
0000
,
0000
0000
0000
0000
,
0000
0000
0000
0000
,
0000
0000
0000
0000
,
0000
0000
0000
0000
,
0000
0000
3003
0000
;

//--------------- dance-single - ----------------
#NOTES:
     dance-single:
     :
     Hard:
     15:
     0.677126,0.845906,0.524085,0.246628,0,615,547,68,32,0,0,0.677126,0.845906,0.524085,0.246628,0,615,547,68,32,0,0:
0000
0000
0000
0000
,
0000
0000
0000
0000
1001
0000
0001
0100
,
0000
0100
0001
0000
1000
0000
1000
0100
,
0000
0100
1000
0000
0100
0000
0100
0010
,
0000
0010
0001
0000
0000
0000
0001
0000
,
0010
0000
0000
0000
0100
0000
0100
1000
,
0000
1000
0100
0000
0010
0000
0100
1000
,
0000
1000
0100
0000
1000
0000
1000
0100
,
0000
0100
1000
0000
0100
0000
0000
0000
,
0100
0010
0001
0010
0100
0000
0100
1000
,
0000
1000
0100
0000
1000
0000
1000
0001
,
0000
0001
0100
0000
0001
0000
0001
1000
,
0000
1000
0100
0000
0000
0000
1000
0000
,
0100
0000
0010
0000
0001
0000
1000
0100
,
0000
0100
1000
0000
0100
0000
0010
0001
,
0000
0001
1000
0000
0100
0000
0100
1000
,
0000
1000
0010
0000
0202
0000
0000
0000
,
0000
0303
0001
1000
,
0001
0100
0001
1000
,
0100
0000
1000
0000
0001
0010
0000
0100
,
1000
0000
1000
0100
0000
0010
0001
0000
,
0001
0000
0001
0000
1000
0100
1000
0100
,
0010
0001
0010
0001
0010
0100
1000
0100
,
0010
0001
0100
0010
1000
0100
0010
0001
,
0000
0000
0001
1000
0100
1000
0100
0010
,
0100
0010
0001
0010
0100
1000
0100
0010
,
0100
1000
0100
0010
0001
0010
0001
0010
,
0100
1000
0100
0010
0002
0000
0000
0000
,
0000
0000
0003
0000
1001
0000
0000
1100
,
0000
0000
0010
0001
1000
0100
1000
0010
,
0100
0001
0100
0010
1000
0100
0010
0001
,
0100
0010
1000
0010
0200
0000
0000
0000
,
0300
0001
2002
0000
,
0000
0000
3003
0000
0001
0000
1000
0100
,
1000
0100
0010
0001
0010
0001
0010
0100
,
0010
0100
0010
0000
0001
0010
0001
0000
,
1000
0100
0010
0000
1001
0000
1100
0000
,
1001
0000
0000
0000
0001
0000
0001
0010
,
0000
0010
0001
0000
0100
0000
0100
0001
,
0000
0001
1000
0000
0001
0000
0001
0100
,
0000
0100
0001
0000
0100
0000
0010
0000
,
0110
0000
0000
0100
,
1000
0000
0100
0000
1000
0000
1000
0010
,
0000
0010
1000
0000
0001
0000
0100
0000
,
0001
0010
0100
1000
,
0220
0000
0330
0001
,
1000
0001
2002
0000
,
3003
0000
0001
0000
1000
0000
1000
0001
,
0000
0001
1000
0000
0100
0000
0000
0110
,
0000
0000
0000
0000
0020
0000
0000
2030
,
0000
3001
2002
0000
,
3003
0000
1001
0001
,
1001
1000
2002
0000
,
0000
0000
3003
0000
1000
0100
0010
0001
,
0010
0100
1000
0100
0010
0000
0100
0000
,
1000
0000
0001
0000
1000
0000
0001
1000
,
0000
1000
0100
0000
0010
0000
0100
0000
,
0010
0000
0001
0000
0010
0000
0100
1000
,
0000
1000
0001
0000
1000
0000
0001
0000
,
0000
0000
1000
0000
0001
0000
0000
1001
,
0000
0000
0000
0000
1100
0000
0000
1001
,
0000
0101
0000
1001
,
0000
0000
0000
0001
,
1000
0000
0001
0000
1001
0000
0000
1100
,
0000
1001
0000
0100
,
0000
0000
0010
0000
0100
0000
0000
0110
,
0000
0001
1001
0000
,
0000
0000
0100
0010
1000
0100
1000
0100
,
0010
0100
0001
0010
0100
1000
0100
0010
,
0100
1000
0100
0010
0200
0000
0000
0000
,
0000
0000
0310
0000
1000
0001
1000
0100
,
0010
0100
0010
0100
2000
0000
0000
0000
,
0000
0000
0000
0000
3010
0000
0000
0100
,
0001
0000
0100
0000
0001
0000
1000
0100
,
0010
0001
0010
0100
1000
0100
1000
0100
,
0010
0000
0000
0000
1001
0000
0000
1010
,
0000
0000
0101
0000
1001
0000
0000
0220
,
0000
0000
0330
0000
1001
0000
0000
1010
,
0000
0101
2002
3003
,
0000
0000
1000
0000
0100
0010
0100
0010
,
0001
1000
0010
0100
0010
1000
0100
0010
,
0100
0010
0001
0010
0100
1000
0100
0010
,
0001
0101
0220
0000
,
0000
0000
0330
0000
0110
0000
0000
1001
,
0000
0000
0110
0000
1100
0000
0000
1001
,
0000
0000
1010
0000
0110
0000
0000
1001
,
0000
0000
1010
0000
0000
1001
0000
0000
,
0101
0000
1010
0000
1001
0000
1000
0001
,
0000
0001
0010
0000
0100
0000
0010
0000
,
0100
0000
1000
0000
0100
0000
0010
0001
,
0000
0001
1000
0000
0001
0000
1000
0000
,
0000
0000
0001
0000
1000
0000
0000
1001
,
0000
0000
0000
0000
0011
0000
0000
1001
,
0000
1010
0000
1001
,
0000
0000
0000
1000
,
0001
0000
1000
0000
1001
0000
0000
0011
,
0000
1001
0000
0010
,
0000
0000
0100
0000
0010
0000
0000
0110
,
0000
1000
1001
0000
,
0000
0000
0010
0100
0001
0010
0001
0010
,
0100
0010
1000
0100
0010
0001
0010
0100
,
0010
0001
0010
0100
0020
0000
0000
0000
,
0000
0000
0130
0000
0001
1000
0001
0010
,
0100
0010
0100
0010
0001
0000
1000
0010
,
0000
0010
1000
0000
0001
0000
0001
0010
,
0000
0010
0001
0000
0010
0000
0010
0100
,
0000
0100
1000
0000
0000
0000
1000
0000
,
0100
0000
0000
0000
0010
0000
0010
0001
,
0000
0001
0010
0000
0100
0000
0010
0001
,
0000
0001
0010
0000
0001
0000
1000
0100
,
0000
0100
1000
0000
0010
0000
0000
0000
,
0100
0001
1000
0100
0010
0001
1000
0001
,
0100
0001
0010
0002
2000
0000
0000
0000
,
0000
0000
0000
0000
,
0000
0000
0000
0000
,
0000
0000
0000
0000
,
0000
0000
0000
0000
,
0000
0000
0000
0000
,
0000
0000
3003
0000
;
