#TITLE:IN MY DREAMS;
#SUBTITLE:(U.K. MIX);
#ARTIST:REBECCA;
#TITLETRANSLIT:;
#SUBTITLETRANSLIT:;
#ARTISTTRANSLIT:;
#GENRE:Pop;
#CREDIT:TiKAL;
#BANNER:bn.png;
#BACKGROUND:bg.png;
#LYRICSPATH:;
#CDTITLE:cdtitle.png;
#MUSIC:inmydreams.ogg;
#OFFSET:-1.545828;
#SAMPLESTART:16.205999;
#SAMPLELENGTH:15.000000;
#SELECTABLE:YES;
#BPMS:0.000000=139.155441
;
#STOPS:
;
#BGCHANGES:;
#KEYSOUNDS:;
#ATTACKS:;

//---------------dance-single - ----------------
#NOTES:
     dance-single:
     :
     Hard:
     12:
     0.510290,0.647009,0.157259,0.224656,0.039315,318.000000,304.000000,14.000000,20.000000,0.000000,0.000000,0.510290,0.647009,0.157259,0.224656,0.039315,318.000000,304.000000,14.000000,20.000000,0.000000,0.000000:
// measure 0
0000
0000
0000
0000
,  // measure 1
0000
0000
0000
0000
,  // measure 2
0000
0000
0000
0000
,  // measure 3
0000
0000
0000
0000
,  // measure 4
0002
0000
0013
0100
1000
0010
0000
0200
,  // measure 5
0000
0301
1000
0001
0100
0001
1000
0001
,  // measure 6
0020
0000
0130
1000
0100
0010
0000
0002
,  // measure 7
0000
1003
0001
0100
0001
1000
1001
1001
,  // measure 8
0000
0001
0010
0100
1000
0001
0100
0010
,  // measure 9
0100
0001
0010
0100
1000
0001
0100
0010
,  // measure 10
1000
0100
1000
0001
0100
0001
1000
0010
,  // measure 11
1000
0001
0010
0001
1000
0100
0010
0001
,  // measure 12
1000
0010
0100
0001
0010
0100
0010
0100
,  // measure 13
1000
0001
0100
0010
1000
0100
0010
0001
,  // measure 14
1000
0010
0100
0001
0010
0100
1000
0001
,  // measure 15
0100
0001
0010
0001
1000
0010
1000
0100
,  // measure 16
0110
0000
0010
0001
1000
0001
0010
0000
,  // measure 17
0110
0000
0100
1000
0001
1000
0100
0000
,  // measure 18
0010
0001
1000
0010
1000
0001
0010
0000
,  // measure 19
0100
1000
0001
0100
0001
1000
0100
0000
,  // measure 20
0110
0000
0100
1000
0001
1000
0100
0000
,  // measure 21
0110
0000
0010
0001
1000
0001
0010
0000
,  // measure 22
0001
0010
0100
1000
0100
0010
0001
0000
,  // measure 23
1000
0100
0010
0001
0010
0100
1000
0001
,  // measure 24
1001
0000
0001
0100
0000
0010
0000
2000
,  // measure 25
0000
3000
0100
0010
0000
0001
0000
2000
,  // measure 26
0000
3000
0001
0100
0000
0010
0000
0200
,  // measure 27
0000
0301
0010
0100
1000
0000
1001
1001
,  // measure 28
0000
0000
0001
0100
0000
0010
0000
2000
,  // measure 29
0000
3000
0100
1000
0000
0010
0000
0200
,  // measure 30
0000
0300
0001
0010
0000
0001
0000
0200
,  // measure 31
0000
0310
1000
0001
2000
0000
3002
0000
,  // measure 32
1003
0100
0010
0001
1000
0001
0100
0010
,  // measure 33
0100
0001
0010
0001
1000
0100
1000
0010
,  // measure 34
0100
0001
0010
0001
1000
0100
1000
0010
,  // measure 35
0100
0001
0010
0001
0010
0001
0100
0010
,  // measure 36
1000
0100
1000
0010
0100
0001
0010
0100
,  // measure 37
1000
0010
0100
0001
0010
0100
1000
0010
,  // measure 38
1000
0001
1000
0001
0100
0010
0100
0010
,  // measure 39
1000
0001
1000
0001
1000
0001
1000
0001
1000
0001
1000
0001
1000
0001
2000
0000
,  // measure 40
0000
3100
0010
0100
1000
0010
0000
0200
,  // measure 41
0000
0301
0010
0001
1000
0100
1000
0020
,  // measure 42
0000
0130
0001
1000
0002
0000
0013
0100
,  // measure 43
1000
0100
0010
0001
1000
0010
0110
0210
,  // measure 44
0000
0301
0010
0100
1000
0000
0010
0200
,  // measure 45
0000
0301
0010
0001
1000
0010
0100
0002
,  // measure 46
0000
0013
0100
1000
0001
0100
0010
0200
,  // measure 47
0000
0301
0010
0100
1000
0001
1001
1001
,  // measure 48
0110
0000
0000
0000
;

//---------------dance-single - ----------------
#NOTES:
     dance-single:
     :
     Medium:
     7:
     0.284029,0.296546,0.044931,0.134794,0.000000,177.000000,173.000000,4.000000,12.000000,0.000000,0.000000,0.284029,0.296546,0.044931,0.134794,0.000000,177.000000,173.000000,4.000000,12.000000,0.000000,0.000000:
// measure 0
0000
0000
0000
0000
,  // measure 1
0000
0000
0000
0000
,  // measure 2
0000
0000
0000
0000
,  // measure 3
0000
0000
0000
0000
,  // measure 4
0002
0000
0000
2003
0000
0000
3100
0000
,  // measure 5
0010
0000
0001
0200
0000
0000
0310
1000
,  // measure 6
0002
0000
0000
2003
0000
0000
3010
0000
,  // measure 7
0100
0001
1000
1001
,  // measure 8
1000
0100
1000
0100
,  // measure 9
0010
0001
0010
0001
,  // measure 10
1000
0010
1000
0010
,  // measure 11
0100
0001
0100
0001
,  // measure 12
1000
0001
1000
0100
,  // measure 13
1000
0001
1000
0010
,  // measure 14
0100
0001
1000
0001
,  // measure 15
0100
0001
0010
0001
,  // measure 16
1000
0000
1000
0100
0000
0000
0010
0000
,  // measure 17
0001
0000
0001
0010
0000
0000
0100
0000
,  // measure 18
1000
0000
1000
0010
0000
0000
0100
0000
,  // measure 19
0001
0000
0001
0100
0000
0000
0010
0000
,  // measure 20
1000
0000
0001
1000
0000
0000
0100
0000
,  // measure 21
0010
0000
0001
0100
0000
0000
0010
0000
,  // measure 22
1000
0000
0001
1000
0000
0000
0010
0000
,  // measure 23
0100
0001
0010
0100
,  // measure 24
1001
0000
0000
1000
0000
0010
0000
0200
,  // measure 25
0000
0300
0000
0001
0000
0100
0000
0020
,  // measure 26
0000
0030
0000
1000
0000
0100
0000
0001
,  // measure 27
0000
0100
0000
1000
0000
0001
0000
1001
,  // measure 28
0000
0000
0000
0001
0000
0100
0000
0020
,  // measure 29
0000
0030
0000
1000
0000
0010
0000
0200
,  // measure 30
0000
0300
0000
0001
0000
0010
0000
1000
,  // measure 31
0000
0010
0000
0001
1000
0000
0001
0000
,  // measure 32
1001
0000
0001
0001
,  // measure 33
0100
0100
0010
0010
,  // measure 34
1000
0100
0010
0001
,  // measure 35
1000
0010
0100
0001
,  // measure 36
1000
0001
0100
0001
,  // measure 37
1000
0010
0100
0010
,  // measure 38
0200
0000
0000
0002
0000
0000
0300
0000
,  // measure 39
2000
0000
0000
3003
,  // measure 40
0001
0010
0100
1000
,  // measure 41
0001
0000
1000
0000
0001
0010
0100
1000
,  // measure 42
0001
1000
0100
1000
,  // measure 43
0010
0000
0100
0000
0001
0100
0010
1000
,  // measure 44
0100
1000
0010
0100
,  // measure 45
0001
0000
0010
0000
0100
1000
0001
0010
,  // measure 46
0100
1000
0001
0010
,  // measure 47
0001
0000
1000
0000
0010
1000
0001
0100
,  // measure 48
0010
0000
0000
0000
;

//---------------dance-single - ----------------
#NOTES:
     dance-single:
     :
     Easy:
     4:
     0.160469,0.215670,0.101095,0.022466,0.000000,100.000000,91.000000,9.000000,2.000000,0.000000,0.000000,0.160469,0.215670,0.101095,0.022466,0.000000,100.000000,91.000000,9.000000,2.000000,0.000000,0.000000:
// measure 0
0000
0000
0000
0000
,  // measure 1
0000
0000
0000
0000
,  // measure 2
0000
0000
0000
0000
,  // measure 3
0000
0000
0000
0000
,  // measure 4
0001
0000
0000
1001
0000
0000
0000
0000
,  // measure 5
1000
0000
0000
0001
0000
0000
1000
0000
,  // measure 6
0001
0000
0000
1001
0000
0000
0000
0000
,  // measure 7
0001
0000
0000
0100
0000
0000
0010
0000
,  // measure 8
1000
0000
0010
0000
,  // measure 9
1000
0000
0010
0000
,  // measure 10
0100
0000
0001
0000
,  // measure 11
0100
0000
0001
0000
,  // measure 12
1000
0000
0100
0000
,  // measure 13
1000
0000
0100
0000
,  // measure 14
0010
0000
0001
0000
,  // measure 15
0010
0000
0001
0000
,  // measure 16
1000
0000
0000
1000
0000
0000
0000
0000
,  // measure 17
0001
0000
0000
0001
0000
0000
0000
0000
,  // measure 18
0100
0000
0000
0100
0000
0000
0000
0000
,  // measure 19
0010
0000
0000
0010
0000
0000
0010
0000
,  // measure 20
1000
0000
0000
1000
0000
0000
0000
0000
,  // measure 21
0100
0000
0000
0100
0000
0000
0000
0000
,  // measure 22
0010
0000
0000
0010
0000
0000
0000
0000
,  // measure 23
0001
0000
0000
0001
0000
0000
0001
0000
,  // measure 24
1001
0000
0000
0000
,  // measure 25
0110
0000
0000
0000
,  // measure 26
1001
0000
0000
0000
,  // measure 27
1000
0000
0001
0000
,  // measure 28
1001
0000
0000
0000
,  // measure 29
0110
0000
0000
0000
,  // measure 30
1001
0000
0000
0000
,  // measure 31
0001
0000
1000
0000
,  // measure 32
0001
0000
0100
0000
,  // measure 33
0010
0000
1000
0000
,  // measure 34
0001
0000
0010
0000
,  // measure 35
0100
0000
1000
0000
,  // measure 36
0010
0000
1000
0000
,  // measure 37
0001
0000
0100
0000
,  // measure 38
0002
0000
0000
2000
0000
0000
0000
0000
,  // measure 39
0000
0000
0000
3003
,  // measure 40
1000
0001
0001
0000
,  // measure 41
1000
0000
0000
0000
0001
0000
0000
1000
,  // measure 42
0000
0001
0001
0000
,  // measure 43
0100
0000
0000
0000
0010
0000
0000
1000
,  // measure 44
0000
0100
0100
0000
,  // measure 45
0010
0000
0000
0000
0001
0000
0000
0100
,  // measure 46
0000
0010
0010
0000
,  // measure 47
1000
0001
1000
0001
,  // measure 48
1001
0000
0000
0000
;

//---------------dance-single - ----------------
#NOTES:
     dance-single:
     :
     Beginner:
     1:
     0.069001,0.161752,0.022466,0.000000,0.000000,43.000000,41.000000,2.000000,0.000000,0.000000,0.000000,0.069001,0.161752,0.022466,0.000000,0.000000,43.000000,41.000000,2.000000,0.000000,0.000000,0.000000:
0000
0000
0000
0000
,
0000
0000
0000
0000
,
0000
0000
0000
0000
,
0000
0000
0000
0000
,
0001
0000
0000
0000
,
0000
0000
0000
0000
,
1000
0000
0000
0000
,
0000
0000
0000
0000
,
0010
0000
0000
0000
,
0100
0000
0000
0000
,
0010
0000
0000
0000
,
0100
0000
0000
0000
,
0001
0000
0000
0000
,
1000
0000
0000
0000
,
0001
0000
0000
0000
,
1000
0000
0000
0000
,
0001
0000
0000
0000
,
0010
0000
0000
0000
,
0100
0000
0000
0000
,
1000
0000
0000
0000
,
0001
0000
0000
0000
,
0100
0000
0000
0000
,
0010
0000
0000
0000
,
1000
0000
0000
0000
,
0001
0000
0000
0000
,
0001
0000
0000
0000
,
0001
0000
0000
0000
,
0001
0000
0000
0000
,
1000
0000
0000
0000
,
1000
0000
0000
0000
,
1000
0000
0000
0000
,
1000
0000
0000
0000
,
0010
0000
0000
0000
,
0000
0000
0000
0000
,
0100
0000
0000
0000
,
0000
0000
0000
0000
,
0100
0000
0000
0000
,
0000
0000
0000
0000
,
1001
0000
0000
0000
,
0000
0000
0000
0000
,
1000
0000
0001
0000
,
0000
0000
0000
0000
,
1000
0000
0001
0000
,
0000
0000
0000
0000
,
0001
0000
1000
0000
,
0000
0000
0000
0000
,
0001
0000
1000
0000
,
0001
0000
1000
0000
,
1001
0000
0000
0000
;
