#TITLE:I Think I'm in Love with You;
#SUBTITLE:;
#ARTIST:Jessica Simpson;
#TITLETRANSLIT:;
#SUBTITLETRANSLIT:;
#ARTISTTRANSLIT:;
#GENRE:Teen pop;
#CREDIT:L33tAliceIp;
#MUSIC:I Think I'm in Love with You.ogg;
#BANNER:bn.png;
#BACKGROUND:bg.png;
#CDTITLE:;
#SAMPLESTART:47.208;
#SAMPLELENGTH:18.700;
#SELECTABLE:YES;
#OFFSET:-1.132;
#BPMS:0.000=106.000;
#STOPS:;
#BGCHANGES:12.000=heart2.avi=1.000=1=0=1===CrossFade==,
20.000=fireworks1.avi=1.000=0=0=1,
28.000=heart2.avi=1.000=0=0=1,
36.000=text17.avi=1.000=0=0=1,
44.000=heart2.avi=1.000=0=0=1,
52.000=space2.avi=1.000=0=0=1,
60.000=heart2.avi=1.000=0=0=1,
68.000=ribbon2.avi=1.000=0=0=1,
76.000=heart10.avi=1.000=0=0=1,
82.000=dating2.avi=1.000=0=0=1,
84.000=heart4.avi=1.000=0=0=1,
92.000=heart2.avi=1.000=0=0=1,
100.000=lady7.avi=1.000=0=0=1,
108.000=heart2.avi=1.000=0=0=1,
116.000=text17.avi=1.000=0=0=1,
124.000=heart2.avi=1.000=0=0=1,
132.000=space2.avi=1.000=0=0=1,
140.000=heart2.avi=1.000=0=0=1,
148.000=ribbon2.avi=1.000=0=0=1,
156.000=heart10.avi=1.000=0=0=1,
162.000=dating2.avi=1.000=0=0=1,
164.000=heart4.avi=1.000=0=0=1,
172.000=heart2.avi=1.000=0=0=1,
180.000=lady7.avi=1.000=0=0=1,
188.000=heart2.avi=1.000=0=0=1,
196.000=heart4.avi=1.000=0=0=1,
204.000=I Think I'm in Love with You-bg.png=1.000=1=0=1===CrossFade==,
99999.000=-nosongbg-=1.000=0=0=0=StretchNoLoop====
;
#FGCHANGES:;

//--------------- dance-single - ----------------
#NOTES:
     dance-single:
     :
     Beginner:
     2:
     0.107,0.149,0.123,0,0:
0000
0000
0000
0000
,
0000
0000
0000
0000
,
0000
0000
0000
0000
,
1000
0000
0000
0000
,
0001
0000
0000
0000
,
0010
0000
0000
0000
,
0001
0000
0000
0000
,
1000
0000
0000
0000
,
0100
0000
0000
0000
,
1000
0000
0001
0000
,
1000
0000
0000
0000
,
0001
0000
0100
0000
,
0001
0000
0000
0000
,
1000
0000
1000
0000
,
1000
0000
0000
0000
,
0001
0000
1000
0000
,
0001
0000
0000
0000
,
0110
0000
0000
0000
,
1001
0000
0000
0000
,
1000
0000
0001
0000
,
1000
0000
0001
0001
,
0001
0000
1000
0000
,
1000
1000
1000
0000
,
1001
0000
0000
0000
,
0110
0000
0000
0000
,
0001
0000
1000
0000
,
0001
0001
0001
0000
,
1001
0000
0000
0000
,
0110
0000
0000
0000
,
1000
0000
0001
0000
,
1000
0000
0000
0000
,
0110
0000
0000
0000
,
1001
0000
0000
0000
,
0001
0000
1000
0000
,
0001
0000
0000
0000
,
0110
0000
0000
0000
,
1001
0000
0000
0000
,
0001
0000
1000
0000
,
0001
0000
0000
0000
,
1000
0000
0001
0000
,
1000
0000
0001
0001
,
0001
0000
1000
0000
,
1000
1000
1000
0000
,
1001
0000
0000
0000
,
0110
0000
0000
0000
,
0100
0000
0010
0000
,
0010
0010
0010
0000
,
0110
0000
0000
0000
,
1001
0000
0000
0000
,
1000
0000
0001
0000
,
0001
0001
0001
0000
,
1001
0000
0000
0000
;

//--------------- dance-single - ----------------
#NOTES:
     dance-single:
     :
     Easy:
     6:
     0.207,0.259,0.196,0.196,0:
0000
0000
0000
0000
,
0000
0000
0000
0000
,
0000
0000
0000
0000
,
1000
0001
1000
0000
,
0001
1000
0001
0000
,
1000
1000
1000
0000
,
0001
0001
0001
0000
,
1002
0000
0000
1003
0000
0000
0000
0000
,
2001
0000
0000
3001
0000
0000
0000
0000
,
0001
0001
1000
0000
,
1000
1000
0010
0000
,
2001
0000
0000
3001
0000
0000
0000
0000
,
0120
0000
0000
0130
0000
0000
0000
0000
,
0001
1000
0100
0000
,
1000
0001
0100
0000
,
1001
0000
0000
0001
0000
0000
0000
0000
,
0110
0000
0000
0100
0000
0000
0000
0000
,
0001
1000
0001
0000
,
0100
0001
0100
0000
,
0001
0001
1000
1000
,
0100
0000
0010
0100
,
0220
0000
0330
1001
,
0001
1000
0001
0100
,
1002
0000
0000
1003
0000
0000
0000
0000
,
0120
0000
0000
0130
0000
0000
0000
0000
,
1000
0001
0100
0000
,
1000
1000
1000
0000
,
1002
0000
0000
0103
0000
0000
0000
0000
,
2001
0000
0000
3100
0000
0000
0000
0000
,
1000
0001
1000
0000
,
0001
0001
1000
0000
,
2001
0000
0000
3010
0000
0000
0000
0000
,
1002
0000
0000
0103
0000
0000
0000
0000
,
1000
0001
0100
0000
,
0001
1000
1000
0000
,
2001
0000
0000
3001
0000
0000
0000
0000
,
1002
0000
0000
1003
0000
0000
0000
0000
,
1000
0001
1000
0000
,
0001
0001
0100
0000
,
0010
0010
0100
0100
,
0220
0330
0001
1000
,
2002
0000
3003
0110
,
1000
0001
0100
0001
,
1002
0000
0000
1003
0000
0000
0000
0000
,
0210
0000
0000
0310
0000
0000
0000
0000
,
0001
1000
0001
0000
,
0100
0100
0100
0000
,
1002
0000
0000
0103
0000
0000
0000
0000
,
2001
0000
0000
3100
0000
0000
0000
0000
,
0001
1000
0001
0000
,
1000
1000
1000
0000
,
2002
0000
0000
3003
;

//--------------- dance-single - ----------------
#NOTES:
     dance-single:
     :
     Medium:
     9:
     0.336,0.368,0.351,0.212,0.02:
0000
0000
0000
0000
,
0000
0000
0000
0000
,
0000
0000
0000
0000
,
1000
0000
0000
1000
0002
0000
1003
0000
,
0001
0000
0000
0001
2000
0000
3001
0000
,
0001
1001
1000
1100
,
1000
1001
0001
0101
,
1001
0000
0000
1000
0002
0000
1003
0000
,
0001
0000
0000
0001
2000
0000
3001
0000
,
1000
0000
0001
0000
1000
0010
0000
1000
,
0001
0000
0001
0000
0100
0001
0000
0100
,
0001
0000
0000
1000
0002
0000
0103
0000
,
1001
0000
0000
1000
0200
0000
1300
0000
,
0001
0000
1000
0000
0001
0100
0001
0000
,
0010
0000
0010
0000
1000
0100
1000
0000
,
1001
0000
0000
0001
2000
0000
3001
0000
,
1001
0000
0000
0001
2000
0000
3010
0000
,
1001
0000
0001
0000
1000
0001
0000
0001
,
1000
0000
0100
0000
1000
0100
1000
0000
,
0011
0101
0011
0101
,
1001
0000
1001
0000
1000
0001
1000
0001
,
2000
3100
0002
1003
,
1000
0000
0000
0001
0000
0000
1000
0000
0000
0000
0000
0000
1001
0000
0000
0000
,
1000
0001
1000
0000
0102
0000
0103
0000
,
0001
1000
0001
0000
2010
0000
3010
0000
,
1001
0000
1000
0000
0001
1000
0001
1000
,
0001
0000
0000
0100
0000
0000
0001
0000
0000
0000
0000
0000
1001
0000
0000
0000
,
0001
1000
0001
0000
2001
0000
3100
0000
,
1000
0010
1000
0000
0012
0000
0103
0000
,
1000
0001
1000
0100
,
1000
0000
0001
0000
0100
0001
0100
0000
,
1001
0000
0000
1000
0002
0000
0103
0000
,
1001
0000
0000
0010
2000
0000
3100
0000
,
0001
0001
1000
0001
,
0100
0000
1000
0000
1000
0010
1000
0000
,
1001
0000
0000
0002
0100
0000
0103
0000
,
1001
0000
0000
2000
0010
0000
3010
0000
,
1001
0000
0001
0000
1000
0001
0000
0001
,
0100
0000
0001
0000
1000
0001
1000
0000
,
1010
1010
1100
1100
,
1001
0000
1001
0000
1000
0001
1000
0001
,
2000
3010
0002
0103
,
0001
0000
0000
1000
0000
0000
0100
0000
0000
0000
0000
0000
1001
0000
0000
0000
,
1000
0001
1000
0000
2010
0000
3100
0000
,
0001
1000
0001
0000
0012
0000
0103
0000
,
1001
0000
0001
0000
1000
0010
0001
0000
,
0001
0000
0000
0100
0000
0000
0001
0000
0000
0000
0000
0000
1001
0000
0000
0000
,
1000
0001
1000
0000
0012
0000
1003
0000
,
1000
0001
1000
0000
2010
0000
3001
0000
,
1001
0000
0001
0000
1000
0001
1000
0000
,
0001
0000
0000
0100
0000
0000
0001
0000
0000
0000
0000
0000
1001
0000
0000
0000
,
2002
0000
0000
0000
,
3003
0000
0000
0000
;

//--------------- dance-single - ----------------
#NOTES:
     dance-single:
     :
     Hard:
     10:
     0.366,0.346,0.376,0.082,0.098:
0000
0000
0000
0000
,
0000
0000
0000
0000
,
0000
0000
0000
0000
,
1000
0000
0000
0000
0001
0000
1000
1000
0000
0000
0000
0000
1001
0000
0000
0000
,
0001
0000
0000
0000
0100
0000
0001
0001
0000
0000
0000
0000
1001
0000
0000
0000
,
1000
0001
1000
0000
0001
0000
0101
0000
,
1000
0001
1000
0000
1000
0000
1100
0000
,
1001
0000
0000
0000
0001
0000
1000
1000
0000
0000
0000
0000
1001
0000
0000
0000
,
0001
0000
0000
0000
0100
0000
0010
0010
0000
0000
0000
0000
1001
0000
0000
0000
,
1000
0001
0100
0000
0001
0000
1100
0000
,
1000
0001
0100
0000
1000
0000
0101
0000
,
1001
0000
0000
0000
0001
0000
1000
1000
0000
0000
0000
0000
1001
0000
0000
0000
,
0001
0000
0000
0000
1000
0000
0010
0010
0000
0000
0000
0000
1001
0000
0000
0000
,
0001
1000
0001
0000
1000
0000
1010
0000
,
0001
1000
0001
0000
0001
0000
0101
0000
,
1001
0000
0000
0000
0001
0000
0010
0010
0000
0000
0000
0000
1001
0000
0000
0000
,
1000
0000
0000
0000
0001
0000
1000
1000
0000
0000
0000
0000
1001
0000
0000
0000
,
0001
1000
0001
1000
0100
0000
1001
0000
,
0001
1000
0001
0100
0001
0000
1001
0000
,
1000
0001
1000
0010
1000
0000
0001
1000
,
0002
0000
1003
0000
1000
1000
0001
0001
,
1002
0000
0203
0000
0301
0001
1000
0000
,
0001
0000
0000
1000
0000
0000
0001
0000
0000
0000
1000
0000
1001
0000
0000
0000
,
0001
0000
0000
0000
0001
0000
1000
1000
0000
0000
0000
0000
1001
0000
0000
0000
,
0001
0000
0000
0000
0010
0000
0100
0100
0000
0000
0000
0000
1001
0000
0000
0000
,
1000
0001
1000
0000
0001
0100
0001
0000
,
1002
0000
0013
0000
2000
0010
3010
0000
,
0001
0000
0000
0000
1000
0000
0100
0100
0000
0000
0000
0000
1001
0000
0000
0000
,
0001
0000
0000
0000
1000
0000
0010
0010
0000
0000
0000
0000
0110
0000
0000
0000
,
0001
0100
1000
0001
1000
0000
1001
0000
,
1000
0001
0100
0001
1000
0000
1001
0000
,
0001
0000
0000
0000
1000
0000
0001
0001
0000
0000
0000
0000
0101
0000
0000
0000
,
1000
0000
0000
0000
0010
0000
0100
0100
0000
0000
0000
0000
0110
0000
0000
0000
,
1000
0001
1000
0100
1000
0000
0101
0000
,
0001
1000
0100
1000
0001
0000
1100
0000
,
1001
0000
0000
0000
0010
0000
1000
1000
0000
0000
0000
0000
0110
0000
0000
0000
,
1001
0000
0000
0000
0001
0000
1000
1000
0000
0000
0000
0000
1001
0000
0000
0000
,
1000
0001
0100
0001
1000
0000
1001
0000
,
1000
1000
0010
1000
0001
0000
1001
0000
,
1000
0001
0100
0001
1000
0000
0001
1000
,
0002
0000
1003
0000
0001
0001
1000
1000
,
2001
0000
3100
0000
0002
0010
0013
0000
,
0001
0000
0000
1000
0000
0000
0100
0000
0000
0000
1000
0000
1001
0000
0000
0000
,
1000
0000
0000
0000
0001
0000
0100
0100
0000
0000
0000
0000
1001
0000
0000
0000
,
0001
0000
0000
0000
0100
0000
0010
0010
0000
0000
0000
0000
0110
0000
0000
0000
,
1000
0001
1000
0100
1000
0000
0001
0000
,
1000
0000
0000
0010
0000
0000
0001
0000
0000
0000
1000
0000
1001
0000
0000
0000
,
0001
0000
0000
0000
1000
0000
0100
0100
0000
0000
0000
0000
0110
0000
0000
0000
,
1000
0000
0000
0000
0001
0000
1000
1000
0000
0000
0000
0000
1001
0000
0000
0000
,
1000
0001
0100
0000
0001
1000
0100
0000
,
1000
0000
0000
0001
0000
0000
0100
0000
0000
0000
0001
0000
1000
0000
0000
0000
,
2002
0000
0000
0000
,
3003
0000
0000
0000
;

//--------------- dance-single - ----------------
#NOTES:
     dance-single:
     :
     Challenge:
     12:
     0.443,0.433,0.188,0.082,0.163:
0000
0000
0000
0000
,
0000
0000
0000
0000
,
0000
0000
0000
0000
,
1000
0000
0001
0000
1000
0000
0001
1000
0000
0000
0000
0000
0001
0000
0100
0001
,
0100
0000
0001
0000
1000
0000
1000
0010
0000
0000
0000
0000
1001
0000
0000
0000
,
1000
0001
0100
0001
1000
0010
1000
0000
,
0001
1000
0100
1000
0001
0100
0010
1000
,
0001
0000
0001
0000
1000
0000
0010
1000
0000
0000
0000
0000
1001
0000
1000
0001
,
1000
0000
0100
0000
1000
0000
0001
1000
0000
0000
0000
0000
1001
0000
0000
0000
,
1000
0100
0001
0100
1000
1000
1000
0000
,
0001
0010
1000
0010
0001
0001
0001
0000
,
1001
0000
0001
0000
1000
0000
0001
0100
0000
0000
0000
0000
1001
0000
1000
0001
,
0100
0000
1000
0000
0001
0000
0100
0001
0000
0000
0000
0000
1001
0000
0000
0000
,
1000
0001
0100
0001
1000
0010
1000
0000
,
1000
0001
0100
0001
1000
0100
0100
0000
,
1001
0000
0001
0000
1000
0000
1000
0010
0000
0000
0000
0000
1001
0000
1000
0001
,
1000
0000
0100
0000
1000
0000
0001
0100
0000
0000
0000
0000
1001
0000
0000
0000
,
1000
0001
0100
0001
1000
0100
1000
0000
,
1000
0001
0001
1000
1000
0100
1000
0000
,
0001
0001
1000
1000
0100
0100
1000
1000
,
0020
0000
1030
0001
1100
1000
0101
0100
,
1001
0000
0100
0100
0001
1000
0001
1000
,
2000
0000
0000
0010
0000
0000
3001
0000
0000
0000
0001
0000
1000
0000
0001
0000
,
0100
0000
0001
0000
1000
0000
1000
0010
0000
0010
1000
0000
0001
0000
1000
0000
,
0100
0000
1000
0000
0001
0000
0100
0001
0000
0000
0000
0000
1001
0000
0000
0000
,
0001
1000
0100
1000
0010
1000
0001
0100
,
0002
0000
0000
0010
0000
0000
0103
0000
0000
0000
1000
0000
0001
0000
1000
0000
,
0001
0000
0100
0001
0100
0000
0100
0001
0000
0000
1000
0000
0001
0000
1000
0000
,
0010
0000
1000
0000
0001
0000
1000
0100
0000
0000
0000
0000
1001
0000
0000
0000
,
1000
0001
0100
0001
1000
0100
1000
0000
,
1000
0010
0001
0010
1000
0100
1000
0001
,
1000
0000
0000
0001
1000
0000
1000
0001
0000
0000
1000
0000
0001
0000
0100
0000
,
0001
0000
1000
0010
1000
0000
0001
1000
0000
0000
0000
0000
1001
0000
0000
0000
,
1000
0010
1000
0001
0200
0001
0301
0000
,
1000
0001
0100
0001
1000
0010
1000
0001
,
1000
0000
0001
0100
0001
0000
1000
0001
0000
0000
1000
0000
0001
0000
1000
0010
,
1000
0000
0001
0100
0000
0001
1000
0000
0001
0000
0000
0000
1001
0000
0000
0000
,
1000
0001
1000
0010
1000
0001
0100
0000
,
0001
0001
1000
0100
1000
1000
1000
0000
,
0010
0010
1000
1000
0001
0001
0100
0100
,
0002
0000
1003
0000
0101
0001
1100
1000
,
1001
0000
1000
0001
0100
0001
1000
0010
,
2000
0000
0000
0010
0000
0000
3001
0000
0000
0000
1000
0000
0001
0000
0100
0000
,
0001
0000
1000
0000
0010
0000
1000
0001
0000
0001
1000
0000
1000
0000
0001
0000
,
0100
0000
0001
1000
0001
0000
1000
0100
0000
0000
0000
0000
1001
0000
0000
0000
,
1000
0001
0100
0001
1000
0010
1000
0100
,
2000
0000
0000
0100
0000
0000
3010
0000
0000
0000
0001
0000
1000
0000
0001
0000
,
0100
0000
0001
0100
0000
0100
0001
0000
1000
0000
0000
0000
1000
0000
0010
0000
,
1000
0000
0001
1000
0001
0000
0001
0100
0000
0000
0000
0000
1001
0000
0000
0000
,
1001
0000
1000
0001
0100
0001
1000
0010
,
2000
0000
0000
0001
0000
0000
3100
0000
0000
0000
0001
0000
0001
0000
1000
0000
,
2002
0000
0000
0000
,
3003
0000
0000
0000
;
