#TITLE:HI-HO;
#SUBTITLE:;
#ARTIST:NINEBALL feat. ATOMIC GUN;
#TITLETRANSLIT:;
#SUBTITLETRANSLIT:;
#ARTISTTRANSLIT:;
#GENRE:Bass;
#CREDIT:TiKAL;
#BANNER:bn.png;
#BACKGROUND:bg.png;
#LYRICSPATH:;
#CDTITLE:cdtitle.png;
#MUSIC:HI-HO.ogg;
#OFFSET:0.000000;
#SAMPLESTART:70.195999;
#SAMPLELENGTH:15.000000;
#SELECTABLE:YES;
#BPMS:0.000000=150.009003
;
#STOPS:
;
#BGCHANGES:;
#KEYSOUNDS:;
#ATTACKS:;

//---------------dance-single - ----------------
#NOTES:
     dance-single:
     :
     Hard:
     13:
     0.644053,0.622097,0.907530,0.078067,0.043913,462.000000,369.000000,93.000000,8.000000,8.000000,0.000000,0.644053,0.622097,0.907530,0.078067,0.043913,462.000000,369.000000,93.000000,8.000000,8.000000,0.000000:
0000
0000
0000
0000
,
0000
0000
0000
0000
,
0000
0000
0000
0000
,
0000
0000
0000
0000
0000
0000
0000
1000
,
1100
0000
0000
0100
0110
0000
0000
0010
,
0011
0000
0000
0001
1000
0000
0001
0000
1001
0000
0000
0000
0000
0000
0001
0000
,
0010
0100
1000
1000
0100
0010
0001
1000
,
1001
0000
0000
1000
1100
0100
0010
0001
,
0101
0000
0000
0100
0110
0000
0000
0010
,
1010
0000
0000
1000
0001
0000
1000
0000
1001
0000
0000
0000
0000
0000
0001
0000
,
0010
0100
1000
1000
0010
0100
0001
1000
,
1001
0000
0000
0001
0101
0100
0010
1000
,
1001
0000
0001
0100
0101
0000
0010
1000
,
1010
0000
0000
1000
0100
0000
0010
0000
0110
0000
0000
0000
0100
0000
1000
0000
,
0010
0100
0001
0001
0010
0100
1000
0001
,
1001
0000
0001
0100
0101
0001
1000
0100
,
0110
0000
0010
0001
0011
0000
0001
1000
,
1001
0000
0000
1000
0010
0000
0100
0000
0110
0000
0000
0000
0100
0000
0001
0000
,
0010
0010
0001
0100
0010
1000
0001
1000
,
1001
0000
0001
0100
0101
0100
0010
1000
,
0001
0001
0010
0100
0001
0100
1000
0010
,
0001
0001
0010
1000
0001
0100
1000
0100
,
0001
0001
0010
0100
0001
0100
1000
0010
,
0001
0010
1000
0001
1001
0000
MMMM
0000
,
0101
0000
0001
1000
1001
0000
1000
0010
,
2010
3200
0320
0032
,
1003
0010
0011
0000
1010
0000
1100
0000
,
0110
0000
0001
0011
0000
1001
0000
0110
,
0000
0010
1000
0100
1100
0000
0001
0010
,
0011
0000
0000
0110
0000
0000
2002
0000
0000
0000
0000
0000
3003
0000
0000
0000
,
0001
0010
1010
0000
0011
0000
0101
0000
,
0110
0000
1000
1010
0000
1001
0000
0110
,
0000
0001
1000
0100
1000
0000
0010
1000
,
0010
0100
0001
0010
0000
1001
0000
0000
,
1000
0100
0101
0000
1100
0000
1010
0000
,
0110
0000
0100
0101
0000
1001
0000
0110
,
0000
0010
2000
0000
3002
0000
1003
0100
,
0010
0001
0010
0100
0000
1100
0000
0000
,
0001
0100
1100
0000
0101
0000
0011
0000
,
0110
0000
0100
1100
0000
0110
0000
1001
,
0000
0001
0100
1000
0100
0000
0110
0000
,
0000
0100
1000
0100
0001
0000
1001
0000
,
0000
0001
0010
1000
0010
0001
1000
0001
,
1001
0000
0101
0000
0011
0000
0110
0100
,
0110
0000
0001
0010
0011
0000
0100
1000
,
1100
0000
0000
1000
0010
0000
0100
0000
0110
0000
0000
0000
0010
0000
1000
0000
,
0100
0010
0001
0001
0100
0010
1000
0001
,
1001
0000
0001
0010
0011
0001
1000
0010
,
0110
0000
0100
0001
0101
0000
0001
1000
,
1001
0000
0000
1000
0100
0000
0010
0000
0110
0000
0000
0000
0010
0000
0001
0000
,
0100
0100
0001
0010
0100
1000
0001
1000
,
1001
0000
0001
0010
0011
0010
0100
1000
,
1010
0000
0000
0010
0110
0000
0000
0100
,
0101
0000
0000
0001
1000
0000
0001
0000
1001
0000
0000
0000
0000
0000
0001
0000
,
0100
0010
1000
1000
0010
0100
0001
1000
,
1001
0000
0000
1000
1010
0010
0100
0001
,
0011
0000
0000
0010
0110
0000
0000
0100
,
1100
0000
0000
1000
0001
0000
1000
0000
1001
0000
0000
0000
0000
0000
0001
0000
,
0100
0010
1000
1000
0100
0010
0001
1000
,
1001
0000
0000
0001
0011
0010
0100
1000
,
0001
0001
0100
0010
0001
0010
1000
0100
,
0001
0001
0100
1000
0001
0010
1000
0010
,
0001
0001
0100
0010
0001
0010
1000
0100
,
0001
0100
1000
0001
1001
0000
MMMM
0000
;

//---------------dance-single - ----------------
#NOTES:
     dance-single:
     :
     Medium:
     10:
     0.422399,0.433760,0.312268,0.029275,0.004879,303.000000,271.000000,32.000000,3.000000,0.000000,0.000000,0.422399,0.433760,0.312268,0.029275,0.004879,303.000000,271.000000,32.000000,3.000000,0.000000,0.000000:
0000
0000
0000
0000
,
0000
0000
0000
0000
,
0000
0000
0000
0000
,
0000
0000
0000
0000
0000
0000
0000
1000
,
0100
0000
0000
0100
0010
0000
0000
0010
,
0001
0000
1000
0001
1000
0000
0000
0000
,
0001
0010
0001
0000
1000
0100
1000
0000
,
1001
0000
0000
0000
0110
0000
1000
0100
,
1000
0000
0000
0010
0100
0000
0000
0001
,
0010
0000
0001
1000
0001
0000
0000
0000
,
1000
0010
1000
0000
0001
0100
0001
0000
,
1001
0000
0110
0001
,
1001
0000
0000
1000
0010
0000
0000
0100
,
0001
0000
1000
0001
1001
0000
0000
0000
,
0001
0010
0100
0000
0010
0100
1000
0000
,
1001
0000
0000
0000
0110
0000
1000
0010
,
1000
0000
0000
0100
0010
0000
0000
0001
,
0010
0000
0001
1000
0001
0000
0000
0000
,
0100
0010
0100
0000
0001
1000
0001
0000
,
1001
0000
0000
0000
1000
0100
0010
0001
,
1000
0000
1000
0010
0000
0010
0100
0001
,
1000
0000
1000
0100
0000
0100
0010
0001
,
1000
0000
1000
0010
0000
0010
0100
0001
,
1000
0001
1000
0000
1001
0000
0000
0000
,
1000
0000
0001
0010
0001
0000
0000
1000
,
0020
0230
0302
0003
,
1000
0010
0100
0001
,
1000
0000
1000
0001
0000
0001
0000
1001
,
0000
0000
1000
0001
1000
0000
0001
0010
,
0001
0000
0000
1000
0000
0000
0001
0000
0000
0000
0000
0000
0000
0000
0000
0000
,
1000
0100
0010
0001
,
1000
0000
1000
0001
0000
0001
0000
1001
,
0000
0000
0001
0000
0001
0000
0000
1000
,
0100
0000
0010
0001
0000
1000
0000
0000
,
0001
0010
0100
1000
,
0001
0000
0001
1000
0000
1000
0000
1001
,
0000
0000
0001
0000
0001
0000
0000
1000
,
0100
0010
0001
1000
0000
1000
0000
0000
,
0001
0100
0010
1000
,
0001
0000
0001
1000
0000
1000
0000
1001
,
0000
0001
1000
0000
1100
0000
1001
0000
,
0000
1000
0001
0000
0101
0000
1001
0000
,
0000
0010
0100
0000
0001
1000
0001
0000
,
0010
1000
1001
0110
,
0001
0000
0000
0100
1000
0000
0000
0100
,
0001
0000
1000
0001
1001
0000
0000
0000
,
0001
0010
0100
0000
0010
0100
1000
0000
,
1001
0000
0000
0000
0110
0000
0001
0010
,
0001
0000
0000
0010
0100
0000
0000
1000
,
0100
0000
1000
0001
1001
0000
0000
0000
,
0001
0100
0010
0000
0100
0010
1000
0000
,
1001
0000
0110
0001
,
1001
0000
0000
0100
0010
0000
0000
0010
,
0001
0000
1000
0001
1000
0000
0000
0000
,
0001
0010
0001
0000
1000
0100
1000
0000
,
1001
0000
0000
0000
0110
0000
1000
0100
,
1000
0000
0000
0010
0100
0000
0000
0001
,
0010
0000
0001
1000
0001
0000
0000
0000
,
1000
0010
1000
0000
0001
0100
0001
0000
,
1001
0000
0110
0001
,
1000
0000
1000
0010
0000
0010
0100
0001
,
1000
0000
1000
0100
0000
0100
0010
0001
,
1000
0000
1000
0010
0000
0010
0100
0001
,
1000
0001
1000
0000
1001
0000
0000
0000
;

//---------------dance-single - ----------------
#NOTES:
     dance-single:
     :
     Easy:
     6:
     0.253718,0.309829,0.156134,0.058550,0.000000,182.000000,166.000000,16.000000,6.000000,0.000000,0.000000,0.253718,0.309829,0.156134,0.058550,0.000000,182.000000,166.000000,16.000000,6.000000,0.000000,0.000000:
0000
0000
0000
0000
,
0000
0000
0000
0000
,
0000
0000
0000
0000
,
0000
0000
0000
0000
,
0010
0000
0100
0000
,
0001
1000
0001
0000
,
1000
0100
0010
0001
,
1000
0000
0001
0001
,
1000
0000
0001
0000
,
0100
0010
0100
0000
,
0001
0010
0100
1000
,
0001
0000
1000
1000
,
1001
0000
0110
0000
,
1000
0001
1001
0000
,
0001
0100
0010
1000
,
0001
0000
1000
1000
,
1001
0000
0110
0000
,
1000
0001
1001
0000
,
1000
0010
0100
0001
,
1000
0000
0001
0001
,
2000
0000
0000
3000
,
0002
0000
0000
0003
,
2000
0000
0000
3000
,
0001
0000
1001
0000
,
1000
0100
0100
0000
,
0010
0001
0010
0000
,
0000
0001
0000
1000
,
0000
0001
1000
0001
,
1000
0010
0010
0000
,
0100
0001
0100
0000
,
0000
0001
0000
0010
,
0100
1000
0010
0100
,
0001
0010
0010
0000
,
0100
1000
0100
0000
,
0000
1000
0000
0001
,
0000
1000
0001
1000
,
0001
0100
0100
0000
,
0010
1000
0010
0000
,
0000
1000
0000
0100
,
0010
0001
0100
0010
,
1000
0001
0001
1001
,
0000
1000
1000
1001
,
0000
1000
0010
0100
,
0001
1000
0100
0010
,
1001
0000
0110
0000
,
0001
1000
1001
0000
,
1000
0010
0100
0001
,
1000
0000
0001
0001
,
1001
0000
0110
0000
,
0001
1000
1001
0000
,
0001
0100
0010
1000
,
0001
0000
1000
1000
,
0100
0000
0010
0000
,
0001
1000
0001
0000
,
1000
0010
0100
0001
,
1000
0000
0001
0001
,
1000
0000
0001
0000
,
0010
0100
0010
0000
,
0001
0100
0010
1000
,
0001
0000
1000
1000
,
0002
0000
0000
0003
,
2000
0000
0000
3000
,
0002
0000
0000
0003
,
1000
0000
1001
0000
;

//---------------dance-single - ----------------
#NOTES:
     dance-single:
     :
     Beginner:
     3:
     0.136617,0.184433,0.048792,0.000000,0.000000,98.000000,93.000000,5.000000,0.000000,0.000000,0.000000,0.136617,0.184433,0.048792,0.000000,0.000000,98.000000,93.000000,5.000000,0.000000,0.000000,0.000000:
// measure 0
0000
0000
0000
0000
,  // measure 1
0000
0000
0000
0000
,  // measure 2
0000
0000
0000
0000
,  // measure 3
0000
0000
0000
0000
,  // measure 4
0001
0000
0000
0000
,  // measure 5
1000
0000
1000
0000
,  // measure 6
0001
0000
0010
0000
,  // measure 7
0100
0000
1000
0000
,  // measure 8
0010
0000
0000
0000
,  // measure 9
0100
0000
0100
0000
,  // measure 10
0010
0000
1000
0000
,  // measure 11
0001
0000
0100
0000
,  // measure 12
0001
0000
0001
0000
,  // measure 13
1000
0000
1000
0000
,  // measure 14
0010
0000
0100
0000
,  // measure 15
0010
0000
0100
0000
,  // measure 16
0001
0000
0001
0000
,  // measure 17
1000
0000
1000
0000
,  // measure 18
0100
0000
0010
0000
,  // measure 19
0100
0000
0010
0000
,  // measure 20
0001
0000
0000
0000
,  // measure 21
1000
0000
0000
0000
,  // measure 22
0001
0000
0000
0000
,  // measure 23
1001
0000
0000
0000
,  // measure 24
1000
0000
0000
0000
,  // measure 25
0100
0000
0100
0000
,  // measure 26
0010
0000
0000
0000
,  // measure 27
0001
0000
0000
0000
,  // measure 28
1000
0000
0000
0000
,  // measure 29
0010
0000
0010
0000
,  // measure 30
0100
0000
0000
0000
,  // measure 31
0001
0000
0000
0000
,  // measure 32
1000
0000
0000
0000
,  // measure 33
0001
0000
0001
0000
,  // measure 34
0100
0000
0000
0000
,  // measure 35
0010
0000
0000
0000
,  // measure 36
0100
0000
0000
0000
,  // measure 37
0001
0000
0001
0000
,  // measure 38
1000
0000
0000
0000
,  // measure 39
0010
0000
0000
0000
,  // measure 40
0110
0000
0000
0000
,  // measure 41
1001
0000
0000
0000
,  // measure 42
0110
0000
0000
0000
,  // measure 43
0100
0000
1000
0000
,  // measure 44
0001
0000
0001
0000
,  // measure 45
1000
0000
1000
0000
,  // measure 46
0010
0000
0100
0000
,  // measure 47
0010
0000
0100
0000
,  // measure 48
0001
0000
0001
0000
,  // measure 49
1000
0000
1000
0000
,  // measure 50
0100
0000
0010
0000
,  // measure 51
0100
0000
0010
0000
,  // measure 52
0001
0000
0000
0000
,  // measure 53
1000
0000
1000
0000
,  // measure 54
0001
0000
0010
0000
,  // measure 55
0100
0000
1000
0000
,  // measure 56
0010
0000
0000
0000
,  // measure 57
0100
0000
0100
0000
,  // measure 58
0010
0000
1000
0000
,  // measure 59
0001
0000
0100
0000
,  // measure 60
0001
0000
0000
0000
,  // measure 61
1000
0000
0000
0000
,  // measure 62
0001
0000
0000
0000
,  // measure 63
1001
0000
0000
0000
;
