#TITLE:GIMME GIMME GIMME;
#SUBTITLE:(2003 Trance Remix);
#ARTIST:E-ROTIC;
#TITLETRANSLIT:;
#SUBTITLETRANSLIT:;
#ARTISTTRANSLIT:;
#GENRE:Trance;
#CREDIT:TiKAL;
#BANNER:bn.png;
#BACKGROUND:bg.png;
#LYRICSPATH:;
#CDTITLE:cdtitle.png;
#MUSIC:GIMME GIMME GIMME (2003 Trance Remix).ogg;
#OFFSET:-0.002971;
#SAMPLESTART:57.848999;
#SAMPLELENGTH:15.000000;
#SELECTABLE:YES;
#DISPLAYBPM:141.000000;
#BPMS:0.000000=141.060806
,231.500000=142.857147
,232.000000=141.029739
;
#STOPS:
;
#BGCHANGES:;
#KEYSOUNDS:;
#ATTACKS:;

//---------------dance-single - ----------------
#NOTES:
     dance-single:
     :
     Hard:
     12:
     0.467110,0.864769,0.395815,0.197907,0.400117,380.000000,334.000000,46.000000,23.000000,0.000000,0.000000,0.467110,0.864769,0.395815,0.197907,0.400117,380.000000,334.000000,46.000000,23.000000,0.000000,0.000000:
0000
0000
0000
0000
,
0000
0000
0000
0000
,
0000
0000
0000
0000
,
0000
0000
0000
0000
,
0002
0000
0000
0000
,
0020
0000
0000
0003
,
0200
0000
0000
0030
,
2000
0000
0300
3000
,
0001
0100
0001
0100
0001
0100
0010
2000
,
0000
0000
0000
3000
0000
0000
0000
0000
,
1000
0100
1000
0100
1000
0100
0010
0002
,
0000
0000
0000
0003
0000
0000
0000
0000
,
1000
0001
1000
0001
1000
0001
0100
0020
,
0000
0230
0000
0301
0000
1000
0000
2002
,
0000
0000
0000
0000
3003
0000
0001
0000
0010
0000
0000
0100
0000
0000
1000
0000
,
2002
0000
3003
0000
,
0000
0000
0000
0000
,
0001
0000
0010
0000
0000
0001
0000
0000
1000
0000
0000
0100
0000
0000
2000
0000
,
0000
3000
0000
0000
,
0100
0000
1000
0000
0000
0010
0000
0000
0100
0000
0000
0001
0000
0000
0020
0000
,
0000
0030
0000
0002
,
1003
0000
0010
0000
0000
1000
0000
0000
0001
0000
0000
0100
0000
0000
0001
0000
,
0000
0010
0000
0000
0100
0000
0000
1000
0000
0000
0001
0000
0000
1000
0000
0000
,
0001
0000
0010
0000
0000
0001
0000
0000
0010
0000
0000
0100
0000
0000
1000
0000
,
0000
0001
0000
0000
1000
0000
0000
0100
0000
0000
0010
0000
0000
0001
0000
0000
,
1000
0000
0100
0000
0000
0010
0000
0000
0001
0000
0000
1000
0000
0000
0001
0000
,
1000
0000
0010
0000
0000
0100
0000
0000
0001
0000
0000
1000
0000
0000
0001
0000
,
1000
0000
0100
0000
0000
0010
0000
0000
0001
0000
0000
0010
0000
0000
0100
0000
,
1000
0000
0010
0000
0000
0100
0000
0000
0001
0000
0000
0100
0000
0000
0010
0000
,
1000
1000
0100
0010
0010
0001
1000
1000
,
0010
0100
0100
0001
0010
0010
0001
1000
,
0001
1000
0001
1000
0001
1000
0001
1000
0001
1000
0001
1000
0001
1000
0001
1000
,
0010
0100
0010
0100
0010
0100
0010
0100
0000
0001
1000
0000
0100
0010
0000
0004
,
4000
0000
0000
0000
0000
0000
0000
3003
,
0100
0000
1000
0000
0000
0100
0000
0000
0010
0000
0000
0001
0000
0000
1000
0000
,
0000
1100
0000
0000
0110
0000
0000
0011
0000
0000
0101
0000
0000
0110
0000
0000
,
1000
0000
0010
0000
0000
0100
0000
0000
0001
0000
0000
0010
0000
0000
0001
0000
,
0000
0101
0000
0000
0110
0000
0000
1010
0000
0000
1000
0000
0100
0010
0000
0001
,
0000
0000
0010
0000
0000
0001
0000
0000
1000
0000
0000
0100
0000
0000
1000
0000
,
0000
1010
0000
0000
0110
0000
0000
0101
0000
0000
0001
0000
0000
0010
0000
0000
,
0100
0000
1000
0000
0000
0001
0000
0000
0100
0000
0000
0001
0000
0000
1000
0000
,
0000
1010
0000
0000
0101
0000
0000
0011
0000
0000
1100
0000
0000
1001
0000
0000
,
0001
0000
0100
0000
0001
0010
0000
0000
0100
0000
0000
1000
0000
0000
0001
0000
,
0000
0101
0000
0000
0110
0000
0000
1010
0000
0000
1000
0000
0001
0100
0000
0100
,
0000
0000
0010
0000
0000
1000
0000
0000
0100
0000
0000
0010
0000
0000
0001
0000
,
0000
0011
0000
0000
1001
0000
0000
1100
0000
0000
0100
0000
0010
0001
0000
0001
,
0000
0000
0010
0000
0000
0001
0000
0000
1000
0000
0000
0100
0000
0000
1000
0000
,
0000
1010
0000
0000
0110
0000
0000
0101
0000
0000
0001
0000
0010
1000
0000
1000
,
0000
0000
0010
0000
0000
0001
0000
0000
0100
0000
0000
0010
0000
0000
1000
0000
,
0000
1010
0000
0000
1001
0000
0000
0101
0000
0000
0011
0000
0000
0110
0000
0000
,
1100
0100
1000
0100
1000
0100
0010
0002
,
0000
1003
0000
0000
0101
0000
0000
0011
0000
0000
0101
0000
0000
1001
0000
0000
,
0001
0010
0001
0010
0001
0010
0100
2000
,
0000
3001
0000
0000
1010
0000
0000
1100
0000
0000
1010
0000
0000
1001
0000
0000
,
0001
0010
0100
0010
0001
1000
0100
2000
,
0000
3010
0100
0020
0000
0130
0001
2002
,
0000
0000
0000
0000
3003
0000
0001
0000
0011
0000
0000
0110
0000
0000
1100
0000
,
1000
0001
1000
0001
1000
0001
1000
0004
4000
0000
0000
0000
0000
0000
3003
0000
,
1000
0100
0000
0100
0000
0010
0000
0010
,
0000
0001
0000
0001
0000
1000
0010
0001
,
0000
0010
0000
0010
0000
1000
0000
1000
,
0000
0001
0000
0001
0000
0100
0010
1000
,
0010
0100
0010
0000
1000
0100
1000
0000
,
0001
0100
0001
0000
1000
0010
1000
0000
,
0001
0010
0001
0000
0100
0010
0100
0000
,
0001
0010
0100
1000
0100
0010
0001
1000
,
2002
0000
0000
0000
,
3003
0000
0000
0000
;

//---------------dance-single - ----------------
#NOTES:
     dance-single:
     :
     Medium:
     8:
     0.335582,0.461210,0.043023,0.103256,0.000000,273.000000,268.000000,5.000000,12.000000,0.000000,0.000000,0.335582,0.461210,0.043023,0.103256,0.000000,273.000000,268.000000,5.000000,12.000000,0.000000,0.000000:
// measure 0
0000
0000
0000
0000
,  // measure 1
0000
0000
0000
0000
,  // measure 2
0000
0000
0000
0000
,  // measure 3
0000
0000
0000
0000
,  // measure 4
0002
0000
0000
0000
,  // measure 5
0020
0000
0000
0003
,  // measure 6
0200
0000
0000
0030
,  // measure 7
2000
0000
0000
3300
,  // measure 8
0001
0000
0000
0001
0000
0000
0001
0000
,  // measure 9
0000
0000
0000
0000
,  // measure 10
1000
0000
0000
1000
0000
0000
1000
0000
,  // measure 11
0000
0000
0000
0000
,  // measure 12
0010
0000
0000
0010
0000
0000
0010
0000
,  // measure 13
0000
0000
0100
0000
,  // measure 14
0110
0000
1000
0001
,  // measure 15
1000
0000
0000
0000
,  // measure 16
0000
0000
0000
0000
,  // measure 17
0001
1000
0000
0001
1000
0000
0001
1000
,  // measure 18
0000
0000
0000
0000
,  // measure 19
1000
0001
0000
1000
0001
0000
1000
0001
,  // measure 20
0000
0000
0000
1000
,  // measure 21
0010
0100
0000
0010
0100
0000
0010
0100
,  // measure 22
0000
0100
0010
0000
0100
0010
0000
0100
,  // measure 23
0001
1000
0000
0001
1000
0000
0001
0010
,  // measure 24
0000
0100
1000
0000
0001
1000
0000
0001
,  // measure 25
1000
0100
0010
0001
,  // measure 26
1000
0010
0100
0001
,  // measure 27
1000
0100
0010
0001
,  // measure 28
1000
0010
0100
0001
,  // measure 29
1000
0100
0000
0010
0001
0000
1000
0010
,  // measure 30
0000
0100
0001
0000
0010
0001
0000
1000
,  // measure 31
0100
1000
0001
0100
0001
1000
0010
1000
,  // measure 32
0001
0010
0001
2000
0002
0000
0000
3003
,  // measure 33
2002
0000
0000
3003
,  // measure 34
0100
1000
0010
0000
0100
0001
0010
0000
,  // measure 35
0001
0010
0100
0000
1000
0100
0010
0001
,  // measure 36
1000
0010
1000
0000
0001
0100
0001
0000
,  // measure 37
0100
0010
1000
0000
0001
0010
0100
1000
,  // measure 38
0001
0100
0001
0000
0010
0001
0100
0000
,  // measure 39
0001
0010
0100
0000
1000
0100
0010
0001
,  // measure 40
1000
0010
0100
0000
0010
1000
0100
0000
,  // measure 41
1000
0001
0100
0000
0001
0010
0100
1000
,  // measure 42
0010
0010
0100
0000
0010
0010
1000
0000
,  // measure 43
0001
0001
0100
0000
0010
0010
0100
0000
,  // measure 44
0100
0100
0010
0000
1000
1000
0010
0000
,  // measure 45
0100
0100
0001
0000
0100
0100
0010
0100
,  // measure 46
0001
0001
1000
0000
0010
0010
1000
0000
,  // measure 47
0010
0010
0100
0000
0001
0001
0010
0000
,  // measure 48
0100
0100
1000
0000
0010
0010
1000
0000
,  // measure 49
0010
0010
0100
0000
0001
0001
0100
0001
,  // measure 50
1000
0001
1000
0000
0001
1000
0001
0000
,  // measure 51
1000
0100
0010
0001
,  // measure 52
1000
0001
1000
0000
0001
1000
0001
0000
,  // measure 53
1000
0010
0100
0001
,  // measure 54
1000
0100
1000
0000
0001
0010
0001
0000
,  // measure 55
0100
0010
1000
0001
,  // measure 56
1001
0000
0001
0010
,  // measure 57
0220
0000
0000
0330
,  // measure 58
0100
1000
0100
1000
,  // measure 59
0010
0000
1000
0000
0001
1000
0001
0000
,  // measure 60
0001
0010
0001
0010
,  // measure 61
0001
0000
0100
0000
0001
1000
0001
0000
,  // measure 62
1000
0100
0010
0001
,  // measure 63
1000
0000
0010
0000
0100
0001
0100
0000
,  // measure 64
0001
0010
0100
1000
,  // measure 65
0001
0000
1000
0000
0001
1000
0001
1000
,  // measure 66
2002
0000
0000
0000
,  // measure 67
3003
0000
0000
0000
;

//---------------dance-single - ----------------
#NOTES:
     dance-single:
     :
     Easy:
     5:
     0.165947,0.283954,0.034419,0.068837,0.000000,135.000000,131.000000,4.000000,8.000000,0.000000,0.000000,0.165947,0.283954,0.034419,0.068837,0.000000,135.000000,131.000000,4.000000,8.000000,0.000000,0.000000:
// measure 0
0000
0000
0000
0000
,  // measure 1
0000
0000
0000
0000
,  // measure 2
0000
0000
0000
0000
,  // measure 3
0000
0000
0000
0000
,  // measure 4
0002
0000
0000
0000
,  // measure 5
0023
0000
0000
0000
,  // measure 6
0230
0000
0000
0000
,  // measure 7
2300
0000
0000
0000
,  // measure 8
3001
0000
0000
0000
,  // measure 9
0000
0000
0000
0000
,  // measure 10
0010
0000
0000
0000
,  // measure 11
0000
0000
0000
0000
,  // measure 12
0100
0000
0000
0000
,  // measure 13
0000
0000
0000
0000
,  // measure 14
1000
0000
0000
0000
,  // measure 15
0000
0000
0000
0000
,  // measure 16
0000
0000
0000
0000
,  // measure 17
0001
0000
0000
0000
1000
0000
0000
1000
,  // measure 18
0000
0000
0000
0000
,  // measure 19
1000
0000
0000
0000
0001
0000
0000
0001
,  // measure 20
0000
0000
0000
0000
,  // measure 21
0100
0000
0000
0000
0010
0000
0000
0010
,  // measure 22
0000
0000
0010
0000
0000
0010
0000
0000
,  // measure 23
0010
0000
0000
0000
0100
0000
0000
0100
,  // measure 24
0000
0000
0100
0000
0000
0100
0000
0000
,  // measure 25
0002
0000
0000
0003
,  // measure 26
2000
0000
0000
3000
,  // measure 27
0002
0000
0000
0003
,  // measure 28
2000
0000
0000
3000
,  // measure 29
0001
0010
0001
0010
,  // measure 30
0100
1000
0100
1000
,  // measure 31
0001
1000
0001
1000
,  // measure 32
0001
1000
1001
0000
,  // measure 33
0110
0000
0000
0000
,  // measure 34
0100
0001
0000
0001
,  // measure 35
0000
0010
0000
0010
,  // measure 36
0001
1000
0000
1000
,  // measure 37
0000
0100
0000
0100
,  // measure 38
1000
0010
0000
0010
,  // measure 39
0000
0100
0000
0100
,  // measure 40
0001
0010
0000
0010
,  // measure 41
0000
0001
0000
0001
,  // measure 42
1000
0010
1000
0010
,  // measure 43
0100
0001
0100
0001
,  // measure 44
0010
0001
0010
0001
,  // measure 45
1000
0100
1000
0100
,  // measure 46
1000
0001
0100
0001
,  // measure 47
1000
0010
0100
0010
,  // measure 48
1000
0001
0010
0001
,  // measure 49
0010
0100
1000
0001
,  // measure 50
0010
0010
0010
0010
,  // measure 51
0010
0000
0000
0000
,  // measure 52
0100
0100
0100
0100
,  // measure 53
0100
0000
0000
0000
,  // measure 54
1000
0000
1000
0000
,  // measure 55
0001
0000
0001
0000
,  // measure 56
1000
0000
0001
0000
,  // measure 57
1001
0000
0000
0000
,  // measure 58
0000
0001
0000
0001
,  // measure 59
0000
1000
0000
1000
,  // measure 60
0000
0010
0000
0010
,  // measure 61
0000
0100
0000
0100
,  // measure 62
0000
0001
0000
0001
,  // measure 63
0000
0010
0000
0010
,  // measure 64
0000
0100
0000
0100
,  // measure 65
1000
0000
0001
1000
,  // measure 66
1001
0000
0000
0000
;

//---------------dance-single - ----------------
#NOTES:
     dance-single:
     :
     Beginner:
     2:
     0.089734,0.170372,0.025814,0.000000,0.000000,73.000000,70.000000,3.000000,0.000000,0.000000,0.000000,0.089734,0.170372,0.025814,0.000000,0.000000,73.000000,70.000000,3.000000,0.000000,0.000000,0.000000:
// measure 0
0000
0000
0000
0000
,  // measure 1
0000
0000
0000
0000
,  // measure 2
0000
0000
0000
0000
,  // measure 3
0000
0000
0000
0000
,  // measure 4
0001
0000
0000
0000
,  // measure 5
0010
0000
0000
0000
,  // measure 6
0100
0000
0000
0000
,  // measure 7
1000
0000
0000
0000
,  // measure 8
0001
0000
0000
0000
,  // measure 9
0000
0000
0000
0000
,  // measure 10
0000
0000
0000
0000
,  // measure 11
0000
0000
0000
0000
,  // measure 12
1000
0000
0000
0000
,  // measure 13
0000
0000
0000
0000
,  // measure 14
0001
0000
0000
0000
,  // measure 15
0000
0000
0000
0000
,  // measure 16
0000
0000
0000
0000
,  // measure 17
1000
0000
0000
0000
,  // measure 18
0000
0000
0000
0000
,  // measure 19
0100
0000
0000
0000
,  // measure 20
0000
0000
0000
0000
,  // measure 21
0010
0000
0000
0000
,  // measure 22
0001
0000
0000
0000
,  // measure 23
0010
0000
0000
0000
,  // measure 24
0001
0000
0000
0000
,  // measure 25
1000
0000
0000
0000
,  // measure 26
0001
0000
0000
0000
,  // measure 27
1000
0000
0000
0000
,  // measure 28
0001
0000
0000
0000
,  // measure 29
1000
0000
0100
0000
,  // measure 30
0010
0000
0001
0000
,  // measure 31
1000
0000
0001
0000
,  // measure 32
1000
0000
0001
0000
,  // measure 33
1001
0000
0000
0000
,  // measure 34
1000
0000
0000
0000
,  // measure 35
0010
0000
0010
0000
,  // measure 36
1000
0000
0000
0000
,  // measure 37
0010
0000
0010
0000
,  // measure 38
0100
0000
0000
0000
,  // measure 39
0001
0000
0001
0000
,  // measure 40
0100
0000
0000
0000
,  // measure 41
0001
0000
0001
0000
,  // measure 42
1000
0000
0000
0000
,  // measure 43
0100
0000
0100
0000
,  // measure 44
1000
0000
0000
0000
,  // measure 45
0100
0000
0100
0000
,  // measure 46
0010
0000
0000
0000
,  // measure 47
0001
0000
0001
0000
,  // measure 48
0010
0000
0000
0000
,  // measure 49
0001
0000
0001
0000
,  // measure 50
1000
0000
1000
0000
,  // measure 51
1000
0000
0000
0000
,  // measure 52
0100
0000
0100
0000
,  // measure 53
0100
0000
0000
0000
,  // measure 54
0010
0000
0000
0000
,  // measure 55
0010
0000
0000
0000
,  // measure 56
0001
0000
0000
0000
,  // measure 57
1001
0000
0000
0000
,  // measure 58
0001
0000
0000
0000
,  // measure 59
0010
0000
0000
0000
,  // measure 60
0100
0000
0000
0000
,  // measure 61
1000
0000
0000
0000
,  // measure 62
0001
0000
0000
0000
,  // measure 63
0100
0000
0000
0000
,  // measure 64
0010
0000
0000
0000
,  // measure 65
1000
0000
0001
0000
,  // measure 66
1001
0000
0000
0000
;
