#TITLE:For A Lifetime;
#SUBTITLE:;
#ARTIST:Ascension;
#TITLETRANSLIT:;
#SUBTITLETRANSLIT:;
#ARTISTTRANSLIT:;
#GENRE:Trance pop;
#CREDIT:Braeden;
#MUSIC:For A Lifetime.ogg;
#BANNER:bn.png;
#BACKGROUND:bg.png;
#CDTITLE:;
#SAMPLESTART:68.213;
#SAMPLELENGTH:12.000;
#SELECTABLE:YES;
#OFFSET:-0.272;
#BPMS:0.000=138.021;
#STOPS:;
#DISPLAYBPM:138.000;
#BGCHANGES:;
#FGCHANGES:;

//--------------- dance-single - ----------------
#NOTES:
     dance-single:
     :
     Easy:
     3:
     0.167149,0.227726,0.03141,0.070674,0,149,145,4,9,0,0,0.167149,0.227726,0.03141,0.070674,0,149,145,4,9,0,0:
0000
0000
0000
0000
,
0000
1000
0000
1000
,
0000
0001
0000
0001
,
0000
0010
0000
0010
,
0000
0100
1000
0100
,
0010
0000
0010
0100
,
1000
0000
0100
0010
,
0100
0000
0001
1000
,
0001
0000
0010
0100
,
0010
0000
1000
0001
,
1000
0000
0001
0100
,
0001
0000
0010
0100
,
0010
0000
1000
0000
,
0100
0000
0010
0000
,
0001
0000
0020
0000
,
0031
0000
1000
0000
,
0001
0000
0001
0000
,
1000
0000
0100
0000
,
0010
0000
2000
0000
,
3200
0000
0310
0000
,
0002
0000
1003
0000
,
0100
0000
0010
0000
,
0100
0000
1000
0000
,
0001
0000
0100
0000
,
0010
0000
0001
0000
,
1000
0000
0100
0000
,
0010
0000
0100
0000
,
1000
0000
0001
0000
,
0000
1001
0000
0000
,
0000
0100
0000
1000
,
0000
0100
0000
0010
,
0000
0001
0000
0010
,
0000
1000
0000
0001
,
0000
1001
0000
1001
,
0000
1001
0000
1000
,
0000
0001
0000
1000
,
0000
0001
0000
1000
,
0000
0100
0000
0010
,
0000
0100
0000
1000
,
0000
0001
0000
0100
,
0000
0100
0000
0010
,
0000
0100
0000
0001
,
0000
0100
2000
0000
,
0000
0000
3002
0000
,
0000
0000
1003
0000
,
0001
0000
1000
0000
,
0100
1000
0100
0000
,
0000
0001
0010
0000
,
0000
1000
0100
0000
,
0000
0000
0000
0000
,
0001
0010
0100
0000
,
0000
1000
0100
0000
,
0000
0000
0001
0000
,
0001
0000
0001
0000
,
1000
0100
0020
0000
,
0000
0000
0032
0000
,
0000
0000
0013
0000
,
0000
0001
0000
0000
,
0001
0010
0100
0000
,
0000
1000
0100
0000
,
0000
0001
0010
0000
,
0000
0000
0000
0000
,
1000
0100
0010
0000
,
0000
0001
0010
0000
,
0000
0000
1000
0100
,
1000
0000
0001
0000
,
0001
0000
0010
0000
,
1000
0000
0100
0000
,
0001
0000
0010
0000
,
0100
0000
1000
0000
,
0001
0000
0100
0000
,
0010
0000
2000
0000
,
0000
0000
3001
0000
;

//--------------- dance-single - ----------------
#NOTES:
     dance-single:
     :
     Medium:
     9:
     0.371317,0.487255,0.125642,0.141347,0.160979,331,315,16,18,0,0,0.371317,0.487255,0.125642,0.141347,0.160979,331,315,16,18,0,0:
0000
0000
0000
0000
,
1000
0100
1000
0000
0100
0000
0010
0000
,
0001
0010
0001
0000
0100
0000
1000
0000
,
0010
0100
0010
0000
0100
0000
1000
0000
,
0100
0000
0000
0000
1000
0000
0000
0000
0100
0000
0000
1000
0000
0000
0100
0000
,
0000
1000
0000
0000
0100
0000
0000
1000
0000
0000
0100
0000
0000
1000
0000
0000
,
0100
0000
0000
1000
0000
0000
0000
0000
0100
0000
0000
0010
0000
0000
0100
0000
,
0000
0010
0000
0000
0100
0000
0000
0010
0000
0000
0100
0000
0000
0010
0000
0000
,
0100
0000
0000
0010
0000
0000
0000
0000
0001
0000
0000
0010
0000
0000
0001
0000
,
0000
0010
0000
0000
0001
0000
0000
0100
0000
0000
0001
0000
0000
0100
0000
0000
,
0001
0000
0000
1000
0000
0000
0000
0000
0100
0000
0000
0010
0000
0000
0100
0000
,
0000
1000
0000
0000
0100
0000
0000
0010
0000
0000
0100
0000
0000
1000
0000
0000
,
0100
0000
0000
0010
0000
0000
0000
0000
1000
0000
0000
0000
0100
0000
0000
0000
,
0010
0000
0100
0000
1000
0100
0000
0000
,
0100
0010
0000
0000
0010
0001
0000
0000
,
0001
1000
0000
0000
1000
0100
0000
0000
,
0100
0010
0000
0100
0000
2000
0000
3200
,
0000
0320
0000
0032
0000
0023
0000
0230
,
0000
2300
0000
3000
0100
0010
0100
0000
,
1000
0001
1000
0000
0100
0010
0100
0000
,
0001
0010
0100
1000
0100
0010
0000
0001
,
0000
1000
0001
0000
0001
0000
1000
0000
,
0100
0010
0001
0000
0100
0000
1000
0000
,
0010
0100
0010
0000
0100
0000
0000
1000
,
0000
0010
0000
0002
0000
0023
0000
0230
,
0000
2300
0000
3002
0000
0203
0000
0320
,
0000
2030
0000
3200
0000
0000
0000
0000
,
0000
0000
0000
0000
0000
0000
0300
0000
1000
0000
0000
0010
0000
0000
1000
0000
,
0000
0100
0000
0000
0010
0000
0000
0000
1000
0000
0000
0100
0000
0000
1000
0000
,
0000
0000
0000
0000
0100
0000
0000
0000
1000
0000
0000
0100
0000
0000
0010
0000
,
0000
0000
0000
0000
0100
0000
0000
0000
1000
0000
0000
0001
0000
0000
0010
0000
,
0000
0000
0000
0000
0100
0000
0000
0000
1000
0000
0000
0010
0000
0000
0100
0000
,
0000
0000
0000
0000
0001
0000
0000
0000
0010
0000
0000
0100
0000
0000
1000
0000
,
0000
0000
0000
0000
0100
0000
0000
0000
0010
0000
0000
0001
0000
0000
1000
0000
,
0000
0000
0000
0000
0100
0000
0000
0000
0010
0000
0000
0001
0000
0000
1000
0000
,
0000
0000
0000
0000
0100
0000
0000
0000
1000
0000
0000
0010
0000
0000
0001
0000
,
0000
0000
0000
0000
0010
0000
0000
0000
0001
0000
0000
0010
0000
0000
1000
0000
,
0000
0000
0000
0000
0100
0000
0000
0000
0001
0000
0000
0100
0000
0000
0010
0000
,
0000
0000
0000
0000
0100
0000
0000
0000
1000
0000
0000
0100
0000
0000
0010
0000
,
0000
0000
0000
0000
0001
0000
0000
0000
1000
0000
0000
0010
0000
0000
0100
0000
,
0000
0000
0000
0000
0001
0000
0000
0000
1000
0000
0000
0100
0000
0000
0010
0000
,
0000
0100
1000
0100
,
0010
0000
0100
0000
1000
0001
1000
0001
,
1000
0001
1000
0001
0010
0100
0010
0100
,
0010
0100
0010
0100
0010
0000
0000
1001
,
0000
0000
1100
0000
0000
1001
0000
0000
,
0001
0000
0100
0000
0001
0000
0000
1000
,
0000
0000
0100
0010
0100
0000
0000
1100
,
0000
0000
0001
1000
0001
0000
0000
0100
,
0000
0000
0010
0000
0000
0100
0000
0000
,
1000
0000
0100
0000
0110
0000
0000
0001
,
0000
0000
1000
0001
1000
0000
0000
0110
,
0000
0000
0001
0010
0001
0000
0000
0001
,
0000
0000
1001
0000
0000
1100
0000
0000
,
0101
0000
0001
0000
0011
0000
0000
0001
,
0000
0000
1000
0001
1000
0001
0010
0001
,
1000
0001
0010
0000
0001
0000
1000
0000
,
0100
0010
0100
1000
,
0100
0000
0010
0000
0110
0000
0000
0001
,
0000
0000
1000
0100
1000
0000
1000
0100
,
0000
0100
0010
0000
0100
0000
1000
0100
,
0000
0100
0010
0000
0010
0100
0000
0100
,
0001
0000
0001
0000
1001
0000
0100
1000
,
0000
0100
0010
0100
0010
0000
0100
0010
,
0000
0010
0100
0010
0100
0000
0000
0000
,
0000
0000
0000
0000
0000
0000
0000
0000
1000
0000
0000
0100
0000
0000
1000
0000
,
0000
0000
0000
0000
0100
0000
0000
0000
0010
0000
0000
0100
0000
0000
0010
0000
,
0000
0000
0000
0000
0100
0000
0000
0000
1000
0000
0000
0100
0000
0000
0010
0000
,
0000
0000
0000
0000
0011
0000
0000
0000
0001
0000
0000
0010
0000
0000
0100
0000
,
0000
0000
0000
0000
0110
0000
0000
0000
1000
0000
0000
0100
0000
0000
0010
0000
,
0000
0000
0000
0000
0110
0000
0000
0000
0001
0000
0000
0100
0000
0000
0010
0000
,
0000
0000
0010
0000
0001
1000
0001
1000
,
0001
0010
0100
0000
0220
0000
0000
0000
,
0330
0000
0000
0000
;

//--------------- dance-single - ----------------
#NOTES:
     dance-single:
     :
     Hard:
     12:
     0.532857,0.742662,0.078526,0.204168,0.612504,475,465,10,26,0,0,0.532857,0.742662,0.078526,0.204168,0.612504,475,465,10,26,0,0:
0000
0000
0000
0000
,
0000
0000
0000
0000
0000
0000
0000
0000
0000
0010
0001
0000
0010
0000
0100
0000
,
1000
0001
0000
1000
0000
0001
0000
1000
0000
0100
0010
0000
0001
0000
0010
0000
,
0100
0010
0000
0100
0000
1000
0000
0100
0000
0010
0100
0000
1000
0000
0100
0000
,
0010
0100
0000
0010
0000
0001
0000
0010
0100
0000
0000
1000
0000
0000
1000
0000
,
0000
0001
0000
0000
1000
0000
0000
0001
0000
0000
1000
0000
0000
0100
0000
0000
,
0010
0000
0000
0001
0000
0000
0001
0000
0010
0000
0000
0100
0000
0000
0010
0000
,
0000
0100
0000
0000
1000
0000
0000
0001
0000
0000
0100
0000
0000
0001
0000
0000
,
1000
0000
0000
0001
0000
0000
0010
0000
0001
0000
0000
0010
0000
0000
0100
0000
,
0000
0010
0000
0000
0001
0000
0000
0010
0000
0000
0100
0000
0000
1000
0000
0000
,
0001
0000
0000
0100
0000
0000
0001
0000
0010
0000
0000
0100
0000
0000
0010
0000
,
0000
0100
0000
0000
0001
0000
0000
0100
0000
0000
0010
0000
0000
0100
0000
0000
,
0001
0000
0000
0100
0000
0000
0001
0000
0100
0000
0000
0000
0000
0001
0000
0010
,
0000
0100
1000
0000
0000
0001
0000
1000
0000
0001
0010
0000
0000
0100
0000
1000
,
0000
0010
0100
0000
0000
0001
0000
0010
0000
0100
1000
0000
0000
1000
0000
0100
,
0000
0010
0001
0000
0000
0010
0000
0100
0000
1000
0100
0000
0000
0010
0000
0001
,
0000
1000
0100
0000
0000
0010
0000
0001
0000
0010
0100
0000
0000
1000
0000
0100
,
0000
1000
0100
0000
0000
0010
0000
0100
0000
0010
0100
0000
0000
0001
0000
0010
,
0000
0001
0010
0000
0000
0100
0000
0010
0000
0100
1000
0000
0000
0100
0000
1000
,
0000
0100
1000
0000
0000
0001
0000
0010
0000
0001
0010
0000
0000
0001
0000
0000
,
0001
0010
0100
1000
0001
0100
0010
0100
0010
0000
1000
0000
0010
0000
0100
0000
,
0001
1000
0001
1000
0001
0010
0001
1000
,
0001
0100
0001
0000
1000
0000
0100
0000
0010
0100
1000
0000
0100
0000
0010
0000
,
0100
1000
0100
0000
1000
0000
0001
0000
0100
0001
0100
0000
0001
0000
1000
0000
,
0100
0010
0100
0000
0010
0000
0001
0000
1000
0001
1000
0000
0001
0000
0100
0000
,
0001
0100
0001
0000
1000
0000
0100
0000
0010
0100
0010
0000
0100
0000
0010
0000
,
0100
1000
0100
0000
0010
0000
0100
0000
0010
1000
0010
0000
0100
0000
0001
0000
,
0010
0000
0100
0000
1000
0000
0000
0000
1100
0000
0000
1001
0000
0000
0101
0000
,
0000
1001
0000
0000
1100
0000
1000
0000
0100
0000
0000
1000
0000
0000
0100
0000
,
0000
1000
0000
0000
0100
0000
0010
0000
0100
0000
0000
1000
0000
0000
0100
0000
,
0000
0010
0000
0000
0001
0000
0010
0000
0001
0000
0000
1000
0000
0000
0001
0000
,
0000
1000
0000
0000
0010
0000
1000
0000
0100
0000
0000
0010
0000
0000
0001
0000
,
0000
1000
0000
0000
0001
0000
0100
0000
0001
0000
0000
1000
0000
0000
0100
0000
,
0000
1000
0000
0000
0100
0000
0010
0000
0100
0000
0000
1000
0000
0000
0001
0000
,
0000
0100
0000
0000
0001
0000
1000
0000
0001
0000
0000
0010
0000
0000
0100
0000
,
0000
1000
0000
0000
0001
0000
0100
0000
0001
0000
0000
1000
0000
0000
0100
0000
,
0000
0010
0000
0000
0100
0000
1000
0000
0100
0000
0000
0010
0000
0000
0001
0000
,
0000
1000
0000
0000
0100
0000
0010
0000
0100
0000
0000
1000
0000
0000
0001
0000
,
0000
0010
0000
0000
0100
0000
1000
0000
0001
0000
0000
0100
0000
0000
0001
0000
,
0000
1000
0000
0000
0100
0000
0010
0000
0001
0000
0000
1000
0000
0000
0001
0000
,
0000
0010
0000
0000
0100
0000
1000
0000
0100
0000
0000
0010
0000
0000
0001
0000
,
0000
0010
0000
0000
0001
0000
0010
0000
0001
0000
0000
0011
0000
0000
1001
0000
,
0000
1001
0000
0000
0100
0000
1000
0000
0001
0100
0010
1000
0100
0010
0001
0010
,
0100
1000
0001
0100
0010
1000
0100
0010
0004
0000
0000
0000
0000
0000
0000
0000
,
0000
0000
0000
0000
0023
0000
0000
0230
,
0000
0000
2300
0000
0000
3100
0000
0000
,
1000
0000
0000
0000
0001
0000
0000
0000
1000
0000
0000
0001
0000
0000
1000
0000
,
0000
0001
0000
0000
0100
0000
0001
0000
2000
0000
0000
0000
0000
0000
3002
0000
,
0000
0000
1003
0010
2010
0000
0000
3020
,
0000
0000
2030
0000
0000
3200
0000
0000
,
0320
0000
0230
0000
0320
0000
0000
0032
,
0000
0000
0013
0100
2000
0000
0000
3002
,
0000
0000
0103
0001
0020
0000
0000
0230
,
0000
0000
2300
0000
0000
3200
0000
0000
,
0320
0000
0000
0000
0130
0000
0000
0000
0010
0100
0010
0100
0010
0100
0010
0001
,
1000
0001
1000
0001
1000
0001
1000
0001
4000
0000
0000
0000
0000
0000
0000
0000
,
0000
0000
0000
0000
3001
0100
0010
1000
,
0001
0100
0001
1000
0001
0100
0001
0010
,
0001
0100
0001
1000
0010
0100
0001
1000
,
0100
0010
0001
1000
0001
0100
0010
1000
,
0001
0100
0001
0010
0100
0010
0001
0010
,
0100
1000
0010
1000
0100
0010
0001
1000
,
0010
0100
0001
1000
0200
0000
0000
0320
,
0000
0000
0031
0100
0020
0000
0000
0230
,
0000
0000
0000
0000
1300
0000
0100
0000
0010
0000
0000
0001
0000
0000
1000
0000
,
0000
0001
0000
0000
1000
0000
0001
0000
0100
0000
0000
0001
0000
0000
1000
0000
,
0000
0100
0000
0000
0010
0000
0100
0000
1000
0000
0000
0001
0000
0000
0100
0000
,
0000
0001
0000
0000
1000
0000
0100
0000
0010
0000
0000
0100
0000
0000
1000
0000
,
0000
0001
0000
0000
0010
0000
0001
0000
0010
0000
0000
0100
0000
0000
1000
0000
,
0000
0001
0000
0000
0010
0000
0100
0000
1000
0000
0000
0001
0000
0000
0010
0000
,
0000
0100
0000
0000
1000
0000
1000
0000
1000
0000
0000
0100
0000
0000
0010
0000
,
0000
0100
0000
0000
1000
0000
1000
0000
1000
0000
0000
0001
0000
0000
0010
0000
,
0000
0100
0000
0000
2002
0000
0000
0000
0000
0000
0000
0000
3003
0000
0000
0000
;

//--------------- dance-single - ----------------
#NOTES:
     dance-single:
     :
     Challenge:
     16:
     1.030937,1.175145,0.2984,0.109937,1.649051,919,881,38,14,0,6,1.030937,1.175145,0.2984,0.109937,1.649051,919,881,38,14,0,6:
0000
0000
0000
0000
,
0000
0000
0000
0000
0000
0000
0000
0000
0000
0010
0001
0000
0100
0000
0010
0000
,
1000
0001
0000
0010
0000
0100
0000
1000
0000
0010
0100
0000
0001
0000
0100
0000
,
0010
0100
0000
0010
0000
1000
0000
0100
0000
0010
0001
0000
0010
0000
0100
0000
,
0100
1000
0000
0100
0000
1000
0000
0100
0010
0000
0010
0001
0000
0001
0010
0000
,
0010
0001
0000
0001
1000
0000
1000
0100
0000
0100
1000
0000
1000
0100
0000
0100
,
0010
0000
0010
0001
0000
0001
0010
0000
0001
0000
0010
0100
0000
0100
1000
0000
,
0100
0010
0000
0010
0001
0000
0010
0001
0000
0001
0100
0000
0100
0001
0000
0001
,
0010
0000
0010
0001
0000
0001
0100
0000
0001
0010
0100
1000
0000
0100
0010
0000
,
0001
0010
0000
0100
1000
0000
0100
0010
0000
0001
0010
0000
0100
1000
0000
0100
,
0010
0000
0001
0100
0000
0010
1000
0000
0001
0010
0100
1000
0000
0010
0100
0000
,
0001
0100
0000
0010
1000
0000
0100
0010
0000
0001
0010
0000
0100
1000
0000
0100
,
0010
0000
0001
1000
0000
0000
1000
0000
1001
0000
0000
0000
0100
0010
0000
0001
,
0000
0010
0100
0010
0001
1000
0000
1000
0000
0001
0010
0000
0100
1000
0000
0100
,
0000
0010
0001
0010
0001
0010
0000
0100
0000
1000
0010
1000
0010
1000
0000
0100
,
0000
0010
0001
0010
0001
0010
0000
0100
0000
1000
0010
1000
0010
1000
0000
0010
,
0000
1000
0100
0010
0001
0010
0000
0100
0000
1000
0100
0010
0001
0010
0000
0100
,
0000
1000
0100
0010
0001
0010
0000
0100
0000
1000
0010
0100
0001
0100
0000
0001
,
0000
0010
0100
1000
0100
0010
0000
0001
0000
0010
0100
1000
0100
0010
0000
0001
,
0000
0010
0100
0000
0100
0010
0000
0001
0000
0010
0001
0000
0010
0100
0000
1000
,
0001
0010
0100
1000
0010
0100
0001
0100
0010
0000
1000
0000
0100
0010
0000
0001
,
0000
0010
0100
1000
0100
0010
0001
0010
0100
1000
0001
0100
0010
0100
0001
0010
,
0100
1000
0001
0100
0010
1000
0100
0010
0001
0010
0100
1000
0001
0100
0010
0100
,
0001
0010
0100
1000
0001
0100
0010
0100
0001
0010
0100
1000
0001
0100
0010
0100
,
0001
0010
0100
1000
0001
0100
0010
0100
0001
0010
0100
1000
0001
0100
0010
1000
,
0100
0010
0001
0100
0001
0100
0010
1000
0001
0010
0100
1000
0001
0100
0010
1000
,
0100
0010
0100
1000
0001
0100
0010
1000
0001
0010
0100
1000
0001
0100
0010
1000
,
0100
0010
0001
1000
0010
1000
0100
0000
1100
0000
0000
1001
0000
0000
0101
0000
,
0000
1001
0000
0000
1100
0000
0000
0000
1001
0000
0001
0000
0100
0010
1000
0010
,
0100
0001
1000
0100
0010
0001
0010
0100
1000
0001
0100
0010
0100
0001
0010
0100
,
1000
0001
0100
0010
1000
0100
0010
0001
0010
0100
1000
0001
0100
0010
1000
0100
,
0010
0001
0010
0100
1000
0001
0100
0010
1000
0100
0010
0100
1000
0001
0010
0100
,
1000
0010
1000
0010
0100
0001
0100
0010
1000
0100
0010
0001
0010
0100
1000
0001
,
0100
0010
1000
0100
0010
0001
0100
0010
1000
0001
0010
0100
1000
0001
0100
0010
,
1000
0100
0010
0001
1000
0010
0100
0001
1000
0100
0010
0100
1000
0001
0100
0010
,
1000
0010
0100
0001
1000
0100
0010
0100
1000
0001
0100
0010
1000
0100
0010
0001
,
0010
0100
1000
0001
0010
0000
0010
0000
0100
1000
0001
0100
0010
1000
0100
0010
,
0001
0010
0100
1000
0001
0100
0010
0100
0001
0010
0100
1000
0001
0100
0010
0100
,
0001
0010
0100
1000
0001
0100
0010
0100
0001
0010
0100
1000
0001
0100
0010
1000
,
0100
0010
0100
1000
0001
0100
0010
1000
0100
0010
0001
0100
0010
0100
0001
1000
,
0100
0010
0001
0010
0100
1000
0001
0100
0010
0100
0001
0010
0100
1000
0001
0100
,
0010
0100
0001
0010
0100
1000
0001
0100
0010
1000
0100
0010
0100
1000
0001
0010
,
0100
1000
0001
0100
0010
1000
0100
0010
0001
1000
0001
1000
0010
0100
0010
1000
,
0001
0000
0000
0100
0000
0000
0001
0000
0000
0100
0000
0000
0010
0000
0000
1000
0000
0000
0001
0000
0000
0100
0000
0000
0010
0000
1000
0000
0100
0000
0010
0000
0001
0000
0010
0000
0100
0000
1000
0000
0001
0000
0100
0000
0010
0000
1000
0000
,
0100
0000
0010
0000
0001
0000
0010
0000
0100
0000
1000
0000
0001
0000
0100
0000
0010
0000
1000
0000
0100
0000
0010
0000
0002
0000
0000
0000
0000
0000
0000
0000
0000
0100
0000
0000
0003
0000
0000
0000
0000
0000
2000
0000
0000
0000
0000
0000
,
0000
0100
0000
0000
3002
0000
0010
0000
0013
0000
0000
0100
0000
0000
0200
0000
,
0000
1000
0000
0000
1300
0000
0010
0000
1000
0000
0000
0001
0000
0000
1000
0000
,
0000
0001
0000
0000
0100
0000
0001
0000
2002
0000
0000
0000
0000
0000
3013
0000
,
0000
0000
1000
0100
2200
0000
0000
0010
,
0000
0000
3301
0000
0000
2020
0000
0000
,
0001
0100
3031
0000
,
1000
0100
0010
0001
0010
0100
0010
0001
0010
0100
1000
0100
0010
0001
0010
0100
,
0010
0100
1000
0100
0010
0100
0010
0001
0010
0100
1000
0100
0010
0100
0010
0001
,
0010
0100
0010
0100
1000
0010
0100
0001
1000
0100
0010
0001
0010
0100
1000
0001
,
0100
0010
0100
0001
1000
0100
0010
0001
0010
0100
1000
0001
0100
0010
0100
0001
,
0010
0000
0000
0100
0000
0000
1000
0000
0000
0001
0000
0000
0100
0000
0000
0010
0000
0000
1000
0000
0000
0001
0000
0000
1000
0000
0100
0000
0010
0000
0001
0000
0010
0000
0100
0000
1000
0000
0001
0000
0100
0000
0010
0000
1000
0000
0100
0000
,
0010
0100
1000
0001
0010
0100
1000
0001
0100
0010
1000
0100
0010
0000
0000
0001
0000
0000
0010
0000
0000
0011
0000
0000
,
0001
0010
0011
0010
1000
1001
0001
0100
,
1100
0100
0110
0010
0011
0001
0010
1010
,
1000
0010
1100
0110
0012
0000
0000
0203
,
0000
0000
0301
0000
1001
1000
0100
1100
,
0010
0001
1001
0001
0010
0011
0001
0100
,
0110
0100
0101
0001
1001
1000
0010
1010
,
1000
0010
0011
1001
1100
1000
0100
0110
,
0100
0000
1000
0000
1100
0000
0000
0000
0101
0000
0000
1001
0000
0000
1010
0000
,
0000
0011
0000
0000
0100
0010
0001
0100
0010
0100
0010
0001
0010
0100
1000
0100
,
0010
0001
0010
0100
0010
0100
1000
0100
1000
0100
0010
0001
0010
0100
0010
0001
,
0010
0100
1000
0010
1000
0001
0010
0100
1000
0010
0100
0010
1000
0001
0010
0100
,
1000
0001
0100
0010
1000
0001
0010
0001
0010
0100
1000
0100
0010
0100
1000
0001
,
0010
0100
1000
0001
0010
0100
1000
0100
1000
0100
0010
0001
0010
0100
0010
0100
,
1000
0100
0010
0001
0100
0010
1000
0001
0010
0100
1000
0001
0100
0010
1000
0100
,
0010
0001
0010
0100
1000
0010
0100
0001
0010
0001
0010
0001
0010
0100
0010
0100
,
1000
0100
1000
0100
0010
0001
0010
0001
2002
0000
0000
0000
0000
0000
0000
0000
,
3003
0000
0000
0000
;
