#TITLE:Deepest Blue;
#SUBTITLE:;
#ARTIST:Deepest Blue;
#TITLETRANSLIT:;
#SUBTITLETRANSLIT:;
#ARTISTTRANSLIT:;
#GENRE:Progressive house;
#CREDIT:L33tAliceIp;
#MUSIC:Deepest Blue.ogg;
#BANNER:deepest blue.png;
#BACKGROUND:Deepest Blue-bg.png;
#CDTITLE:;
#SAMPLESTART:60.819;
#SAMPLELENGTH:15.000;
#SELECTABLE:YES;
#OFFSET:-1.368;
#BPMS:0.000=127.864
,16.000=128.054
;
#STOPS:;
#DISPLAYBPM:128.000;
#BGCHANGES:0.000=Deepest Blue-bg.png=1.000=0=0=1,
16.000=cube7a.avi=0.700=1=0=1===CrossFade==,
20.000=cube12a.avi=1.800=0=0=1,
24.000=cube7a.avi=0.700=0=0=1,
28.000=cube12a.avi=1.800=0=0=1,
32.000=water3.avi=1.000=0=0=1,
48.000=text8.avi=1.000=0=0=1,
64.000=ring2.avi=1.000=0=0=1,
80.000=tunnel10.avi=1.000=0=0=1,
96.000=bubble2.avi=1.000=0=0=1,
112.000=text5.avi=1.000=0=0=1,
128.000=thunder1a.avi=1.000=0=0=1,
144.000=text5.avi=1.200=0=0=1,
160.000=water3.avi=1.000=0=0=1,
176.000=tunnel10.avi=1.000=0=0=1,
192.000=Deepest Blue-bg.png=1.000=1=0=1===CrossFade==,
99999.000=-nosongbg-=1.000=0=0=0=StretchNoLoop====
;
#FGCHANGES:;

//--------------- dance-single - ----------------
#NOTES:
     dance-single:
     :
     Beginner:
     2:
     0.092,0.121,0.04,0,0:
0000
0000
0000
0000
,
0000
0000
0000
0000
,
0000
0000
0000
0000
,
0000
0000
0000
0000
,
1000
0000
1000
0000
,
1000
0000
0000
0000
,
0001
0000
0001
0000
,
0001
0000
0000
0000
,
0100
0000
0000
0000
,
0010
0000
0000
0000
,
1000
0000
0000
0000
,
0001
0000
0000
0000
,
0100
0000
0000
0000
,
0010
0000
0000
0000
,
1000
0000
0000
0000
,
0001
0000
0000
0000
,
1000
0000
1000
0000
,
1000
0000
0000
0000
,
0100
0000
0100
0000
,
0100
0000
0000
0000
,
1000
0000
1000
0000
,
1000
0000
0000
0000
,
0001
0000
0001
0000
,
0001
0000
0000
0000
,
1001
0000
0000
0000
,
1000
0000
1000
0000
,
1000
0000
0000
0000
,
0001
0000
0001
0000
,
0001
0000
0000
0000
,
0100
0000
0100
0000
,
0100
0000
0000
0000
,
0010
0000
0000
0000
,
0110
0000
0000
0000
,
0001
0000
1000
0000
,
0001
0000
0000
0000
,
1000
0000
0100
0000
,
1000
0000
0000
0000
,
0001
0000
1000
0000
,
0001
0000
0000
0000
,
1000
0000
0000
0000
,
1001
0000
0000
0000
,
0001
0000
1000
0000
,
0001
0000
0000
0000
,
0100
0000
0010
0000
,
0100
0000
0000
0000
,
1000
0000
0001
0000
,
1000
0000
0000
0000
,
0001
0000
0000
0000
,
1001
0000
0000
0000
;

//--------------- dance-single - ----------------
#NOTES:
     dance-single:
     :
     Easy:
     4:
     0.196,0.223,0.04,0.192,0:
0000
0000
0000
0000
,
0000
0000
0000
0000
,
0000
0000
0000
0000
,
0000
0000
0000
0000
,
1000
0010
0010
0000
,
0001
0100
0100
0000
,
0001
1000
1000
0000
,
1000
0001
0001
0000
,
2002
0000
3003
0000
,
0200
0000
0300
0000
,
0002
0000
0003
0000
,
2000
0000
3000
0000
,
0200
0000
0310
0000
,
2000
0000
3001
0000
,
0002
0000
1003
0000
,
2000
0000
3001
0000
,
0001
1000
0001
0000
,
0200
0000
0310
0000
,
1000
0001
1000
0000
,
0002
0000
0103
0000
,
1000
0010
1000
0000
,
0002
0000
0103
0000
,
0001
1000
0001
0000
,
2000
0000
3010
0000
,
2002
0000
3003
0000
,
2000
0000
3002
0000
,
1003
1000
1000
0000
,
0001
0001
0001
0000
,
1000
0001
1000
0000
,
0001
0100
0001
0000
,
1000
0001
1000
0000
,
0001
0010
0001
0000
,
1001
0000
1000
0000
,
0001
0100
0001
0100
,
0001
0000
0010
0000
,
1000
0010
1000
0010
,
1000
0000
0100
0000
,
1000
0001
1000
0001
,
1000
0000
0001
0000
,
1000
0010
1000
0010
,
1000
0000
0001
0000
,
0100
0001
0100
0001
,
1000
0000
0001
0000
,
0010
0010
1000
0010
,
1000
0000
0001
0000
,
0100
0100
0001
0100
,
0001
0000
1000
0000
,
0001
1000
0001
0000
,
2002
0000
0000
0000
,
3003
0000
0000
0000
;

//--------------- dance-single - ----------------
#NOTES:
     dance-single:
     :
     Medium:
     5:
     0.287,0.329,0.061,0.192,0:
0000
0000
0000
0000
,
0000
0000
0000
0000
,
0000
0000
0000
0000
,
0000
0000
0000
0000
,
1000
1000
0001
0100
,
0001
0001
1000
0010
,
1000
1000
0001
0100
,
0001
0001
1000
0010
,
0001
0001
0010
0100
,
2000
0000
0000
3000
,
1000
1000
0100
0010
,
0002
0000
0000
0003
,
0001
0001
0010
0100
,
2000
0000
0000
3000
,
1000
1000
0100
0010
,
0002
0000
2003
0000
,
3001
1000
0010
0100
,
0002
0000
2003
0000
,
3001
0010
0100
1000
,
0002
0000
2003
0000
,
3010
0010
1000
0100
,
2000
0000
3002
0000
,
1003
0100
1000
0010
,
2000
0000
3100
0000
,
1001
0000
1000
0001
0000
0000
1000
0001
,
0000
0000
1000
0001
0000
0001
1000
0000
,
0001
0000
0100
0001
0000
0000
0100
0001
,
0000
0001
0100
0000
0001
0000
0110
0000
,
1001
0000
1000
0000
0010
0000
1000
0010
,
0000
0010
0000
1000
0000
0001
0000
1000
,
0000
0001
0000
0100
0000
0001
0000
1000
,
0000
0001
0000
1000
0000
0001
1000
0000
,
1001
0000
1000
0010
0000
0010
1000
0000
,
1000
0010
0000
0010
1000
0000
1001
0000
,
0001
0000
1000
0001
0000
0001
1000
0001
,
0000
0100
0000
0001
0000
0100
0000
0001
,
0000
1000
0001
0000
1000
0000
0001
0100
,
0000
0001
0000
1000
0000
0001
0000
1000
,
0000
0001
1000
0000
0100
0000
1000
0001
,
0000
1000
0000
0010
0000
1000
0010
0000
,
1001
0000
0001
0100
0000
0100
0000
0001
,
0000
1000
0001
0000
0001
1000
0000
0020
,
0000
0030
1000
0002
0000
0003
1000
2000
,
0000
3020
0000
2030
0000
3001
0000
1000
,
0000
0001
1000
0000
1000
0001
1000
0001
,
0000
1000
0000
0100
0000
1000
0000
0001
,
0000
1000
0001
0000
0001
0100
0001
0100
,
0000
0010
0000
1000
0000
0001
1000
0002
,
2000
0000
0000
0000
,
0000
0000
0000
0000
,
3003
0000
0000
0000
;

//--------------- dance-single - ----------------
#NOTES:
     dance-single:
     :
     Hard:
     9:
     0.396,0.43,0.212,0.202,0.01:
0000
0000
0000
0000
,
0000
0000
0000
0000
,
0000
0000
0000
0000
,
0000
0000
0000
0000
,
1000
0000
0010
0001
0010
0000
0001
0100
,
0001
0000
1000
0001
1000
0000
1001
0000
,
1000
0000
0001
1000
0001
0000
1000
0100
,
1000
0000
0001
0100
0001
0000
1001
0000
,
0001
0100
1000
0000
0100
0000
0001
2000
,
0000
0001
0000
0001
0000
0001
3000
0000
,
1000
0010
0001
0000
0110
0000
0001
2000
,
0000
0001
0000
0001
0000
0001
3000
0000
,
0001
1000
0100
0000
0110
0000
0001
2000
,
0000
0010
0000
3010
0000
0001
0001
1000
,
0000
0101
0000
2100
0000
0000
3001
0000
,
1000
0000
0000
0001
0000
0000
0100
0000
0001
0000
0000
0000
1001
0000
0000
0000
,
1000
0001
1000
0000
0020
0000
1000
1000
,
0000
1000
0000
1030
0000
0000
0001
0000
,
0010
0100
0010
0000
0002
0000
1000
1000
,
0000
1000
0000
1003
0000
0000
0100
0000
,
1000
0010
1000
0000
0002
0000
0010
0100
,
0000
0100
0000
0103
0000
1000
0001
1000
,
0000
1000
0000
1100
0000
0001
0000
0001
,
1000
0000
0001
0000
1000
0000
0001
1000
,
1001
0000
0001
0001
0000
1000
0001
1000
,
0000
0010
1000
0000
1000
0001
1000
0002
,
0000
1003
0100
2000
0000
3010
1000
0020
,
0000
2030
0000
3002
0000
0103
0000
0001
,
1000
0001
0100
0000
0001
1000
0001
1000
,
0000
1100
0000
0001
0000
0101
0000
1100
,
0000
0101
0000
1010
0000
0011
0000
0110
,
0000
0000
1001
0000
0000
0000
0110
0000
0000
0000
1000
0000
0001
1000
0001
0000
,
1000
0000
1000
0001
0000
0001
0100
0001
,
0000
1000
0010
0000
1000
0001
1000
0002
,
0000
1003
0100
0002
0000
1003
0010
2000
,
0000
0001
0000
0100
0000
3001
0000
1000
,
0001
0100
0001
0000
1000
0001
1000
0010
,
0000
1000
0000
0001
0000
0100
0001
0100
,
0001
1000
0001
0000
1000
0001
1000
0010
,
0000
1000
0000
0001
0000
1000
0001
1000
,
1001
0000
0001
1000
0000
1000
0010
1000
,
0000
0001
0100
0000
1000
0001
1000
0002
,
0000
1003
0010
2000
0000
3001
0100
0002
,
0000
1000
0000
0100
0000
1003
0000
0001
,
1000
0001
1000
0000
0100
1000
0100
1000
,
0000
0101
0000
0001
0000
1100
0000
0001
,
0000
1000
1000
0000
0001
1000
0001
1000
,
0000
0100
0000
0001
0000
1000
0001
1000
,
0002
0000
1000
2000
0000
0000
0000
0000
,
0000
0000
0000
0000
,
3003
0000
0000
0000
;

//--------------- dance-single - ----------------
#NOTES:
     dance-single:
     :
     Challenge:
     12:
     0.467,0.471,0.162,0.233,0.081:
0000
0000
0000
0000
,
0000
0000
0000
0000
,
0000
0000
0000
0000
,
0000
0000
0000
0000
,
1000
0000
0000
0001
0000
0000
0100
0000
0001
0000
0000
1000
0000
0000
0010
0000
,
1000
0000
0000
1000
0000
0000
0100
0000
0001
0000
0000
0100
0000
0000
0010
0000
,
1000
0000
0000
0001
0000
0000
0100
0000
0001
0000
0000
1000
0000
0000
0100
0000
,
1000
0000
0000
0001
0000
0000
0010
0000
0100
0000
0000
0100
0000
0000
0001
0000
,
1000
0001
0100
0001
2000
0000
0010
0010
,
0000
0010
0000
3010
0000
0000
0001
1000
,
0100
0001
1000
0001
2000
0000
0001
0001
,
0000
0001
0000
3001
0000
0000
0000
1000
,
0001
0100
0001
1000
0020
0000
1000
1000
,
0000
1000
0000
1030
0000
1000
0001
0100
,
0000
0001
0000
1100
0000
1000
0000
0101
,
0001
0000
0000
1000
0000
0000
0001
0000
1000
0000
0000
0100
0000
0000
1000
0000
,
0001
1000
0100
1000
0002
0000
0100
1000
,
0000
0010
0000
1000
0000
0103
0000
1000
,
0001
1000
0100
1000
0001
1000
0100
0002
,
0000
1000
0000
1000
0000
0103
0000
1000
,
0001
0100
0001
1000
0010
0010
1000
0200
,
0000
0010
0000
0010
0000
0310
0100
0100
,
0000
1100
0000
0201
0000
0301
0000
1000
,
0010
0000
0000
1000
0000
0000
0001
0000
0100
0000
0000
0000
0001
0000
1000
0000
,
0001
0001
1000
0200
0000
0010
0010
0310
,
1000
0001
0100
0001
1000
0001
1000
0002
,
0000
1003
0001
0200
0000
0301
1000
1100
,
0000
0101
0000
1100
1000
1001
0000
0001
,
1000
0001
0100
0001
1000
0010
1000
0001
,
0000
1100
0000
1000
0000
0110
0000
0001
,
1000
0000
0000
1000
0000
0000
0100
0000
0001
0000
0000
0000
0001
0000
1000
0000
,
0001
0000
0000
0100
0000
0000
0001
0000
1000
0000
0001
0000
1000
0100
1000
0000
,
1001
0001
1000
0002
0000
1000
1000
1003
,
0001
0100
0001
1000
0010
1000
0001
2000
,
0000
3001
0100
0002
0000
1003
0010
1000
,
0001
0100
0001
1000
0000
0110
0000
1000
,
0001
0100
0001
1000
0010
1000
0001
2000
,
0000
3001
0100
2000
0000
3002
1000
1003
,
0100
1000
0001
0100
0001
1000
0010
2000
,
0000
0000
3001
0000
1000
0000
0200
0000
0000
0000
1300
0000
0100
1000
0100
0000
,
1001
0001
0100
0002
0000
0010
0010
0013
,
1000
0100
1000
0001
0100
0001
1000
0002
,
0000
1003
0100
2000
0000
3020
0100
0130
,
0000
0110
0000
1001
0000
0001
1000
0100
,
1000
0001
1000
0010
1000
0001
0100
0001
,
1000
0001
1000
0001
1000
0001
1000
0000
,
1000
0010
1000
0001
1000
0001
0100
0001
,
0100
1000
0001
1000
0100
1000
0001
1000
,
1002
0000
0000
0000
1000
0000
1000
0000
0000
0000
1000
0000
0000
1000
0000
0000
,
1003
0000
0000
0000
;
