#TITLE:Cool Your Engines;
#SUBTITLE:;
#ARTIST:Kareema;
#TITLETRANSLIT:;
#SUBTITLETRANSLIT:;
#ARTISTTRANSLIT:;
#GENRE:Trance pop;
#CREDIT:Braeden;
#MUSIC:Cool Your Engines.ogg;
#BANNER:bn.png;
#BACKGROUND:bg.png;
#CDTITLE:;
#SAMPLESTART:68.213;
#SAMPLELENGTH:12.000;
#SELECTABLE:YES;
#OFFSET:-0.062;
#BPMS:0.000=144.000
,144.000=72.000
,176.000=144.000
;
#STOPS:;
#BGCHANGES:;
#FGCHANGES:;

//--------------- dance-single - ----------------
#NOTES:
     dance-single:
     :
     Beginner:
     2:
     0.131151,0.18188,0.051966,0,0,106,100,6,0,0,0,0.131151,0.18188,0.051966,0,0,106,100,6,0,0,0:
0000
0000
0000
0000
,
0000
0000
0000
0000
,
1000
0000
0000
0000
,
0001
0000
0000
0000
,
0100
0000
0000
0000
,
0010
0010
0010
0000
,
0100
0000
0000
0000
,
0001
0000
0000
0000
,
1000
0000
0000
0000
,
0010
0010
0010
0000
,
0110
0000
0010
0000
,
1000
0000
0001
0000
,
0100
0000
0010
0000
,
1000
1000
1000
0000
,
0010
0000
0100
0000
,
0001
0000
1000
0000
,
0010
0010
0010
0000
,
0000
0000
1000
0001
,
1000
0000
0010
0000
,
0100
0000
0000
0000
,
0000
0000
0001
0000
,
1000
0000
0010
0000
,
0100
0000
0000
0000
,
0001
0000
0000
0000
,
0100
0000
0000
0000
,
0000
0000
0000
0000
,
1001
0000
1000
0000
,
0001
0000
0100
0000
,
0010
0000
1000
0000
,
0001
0000
0100
0000
,
0010
0000
1000
0000
,
0100
0000
0010
0000
,
0001
0000
0100
0000
,
0010
0000
0010
0000
,
1001
0000
0000
0000
,
0000
0000
1000
0000
,
0001
0000
0100
0000
,
0010
0000
1000
0000
,
0100
0000
0010
0000
,
0001
0000
0100
0000
,
0010
0000
1000
0000
,
0010
0000
0100
0000
,
0001
0000
0100
0000
,
0010
0000
0000
0000
,
1001
0000
0000
0000
,
0000
0000
0000
0000
,
1000
0000
0001
0000
,
0100
0000
0010
0000
,
1000
0000
0001
0000
,
0100
0000
0010
0000
,
1000
0000
0001
0000
,
0010
0000
0000
0000
,
1001
0000
0000
0000
,
0010
0000
0100
0000
,
0001
0000
1000
0000
,
0010
0000
0100
0000
,
0100
0000
0001
0000
,
0010
0000
0100
0000
,
1000
0000
0001
0000
,
0100
0000
0010
0000
,
1001
0000
0000
0000
;

//--------------- dance-single - ----------------
#NOTES:
     dance-single:
     :
     Easy:
     5:
     0.269726,0.345517,0.112592,0.138575,0,218,205,13,16,0,0,0.269726,0.345517,0.112592,0.138575,0,218,205,13,16,0,0:
0000
0000
0000
0000
,
0000
0000
0000
0000
,
0000
0000
0000
0000
,
0001
0000
0000
1000
0000
1000
0000
0000
,
0100
0000
0000
0010
0000
0010
0000
0000
,
0001
0000
0000
0100
0000
0100
0000
0000
,
1000
0000
0000
0100
0000
0100
0000
0000
,
0010
0000
0000
0001
0000
0001
0000
0000
,
0100
0000
0000
0010
0000
0010
0000
0000
,
0001
1000
0002
0000
,
1003
0000
0000
0100
0000
0010
0000
0000
,
0200
0000
0000
0310
0000
0100
0000
0000
,
2000
0000
0000
3100
0000
0010
0000
0000
,
0002
0000
0000
0013
0000
0100
0000
0000
,
2000
0000
0000
0100
3000
0010
0000
0000
,
0002
0000
0000
0013
0000
0100
0000
0000
,
1000
0100
0100
0001
,
1000
0100
1000
0001
,
0002
0000
1000
1000
,
1000
0003
0000
0000
0000
0000
0000
0000
,
2000
0000
0000
0001
,
3001
0000
0100
0000
,
0010
0001
1000
0100
,
0010
0001
1000
0000
,
0100
0000
0001
0000
,
0100
0000
0001
0000
,
1000
0100
0010
0001
,
0010
0100
1000
0001
,
0100
0001
1000
0100
,
0001
0100
1000
0001
,
0010
1000
0010
0001
,
0100
1000
0001
1000
,
0100
0010
0001
1000
,
0100
0010
0001
1000
,
2002
0000
0000
0000
,
3003
1000
0001
1000
,
1001
0000
1000
0000
0001
1000
0001
0000
,
0100
0000
0010
0000
0001
0010
0001
0000
,
0100
0000
0010
0000
1000
0100
0010
0000
,
0001
0000
0100
0000
0010
0100
1000
0000
,
0001
1000
0001
0000
0100
0010
0100
0000
,
0001
0000
1000
0000
0100
1000
0100
1000
,
0100
0000
0001
0000
0010
0100
0010
0000
,
0100
0000
1000
0000
1000
0100
0010
0001
,
1000
0100
1000
0100
,
0010
0001
1000
0100
,
0010
0001
1000
0100
,
0010
0001
1000
0001
,
2002
0000
0000
3003
,
0220
0000
0330
0001
,
1000
0100
0010
0001
,
1000
0001
0010
1000
,
0001
0100
1000
0001
,
1001
0100
0010
0100
,
0110
0001
1000
0100
,
1100
0001
0010
0100
,
0110
0001
1000
0001
,
1001
0100
0010
0100
,
0110
0001
1001
0001
,
0110
0100
1000
0100
,
0220
0000
0000
0000
,
0000
0000
0000
0330
0000
0000
0000
0000
;

//--------------- dance-single - ----------------
#NOTES:
     dance-single:
     :
     Medium:
     7:
     0.339014,0.397862,0.129914,0.147236,0,274,259,15,17,0,0,0.339014,0.397862,0.129914,0.147236,0,274,259,15,17,0,0:
0000
0000
0000
0000
,
0000
0000
0000
0000
,
1001
0000
0000
0101
0000
1010
0000
0000
,
1001
0000
1000
0001
0000
1001
0000
0000
,
0001
0000
0001
1000
0000
1000
0000
0000
,
0001
1000
0001
0000
,
0001
0000
1000
0001
0000
0001
0000
0000
,
0001
0000
0100
0010
0000
0100
0000
0000
,
0001
0000
1000
0001
0000
0001
0000
0000
,
0001
0000
1000
0000
0100
1000
0000
0000
,
0001
0000
0000
1000
0000
0001
0000
0000
,
0001
0000
0100
1000
0000
0100
0000
0000
,
0010
0000
0100
0010
0000
0100
0000
0000
,
0001
0000
0001
1000
0000
0100
0000
0000
,
1000
0000
0001
1000
0000
0100
0000
0000
,
0001
0000
1000
0001
0000
0100
0000
0000
,
1001
0100
1000
0100
,
0010
0001
1000
0000
0001
1000
0001
0000
,
2002
0000
0000
0003
0001
0000
0001
0000
,
3001
0100
0010
0100
,
1000
0000
0001
0000
0010
0001
0010
0000
,
0100
1000
0100
0010
,
0001
1000
0001
0000
0100
0000
0010
0000
,
0200
1300
0002
0013
,
0200
1300
0002
0103
,
0002
1003
0200
0310
,
1001
0000
0001
0100
0001
0000
2000
0000
,
3200
0320
0230
2300
,
3001
0000
0001
0100
0001
0000
0100
0000
,
1000
0100
0010
0001
,
1000
0100
1000
0000
0100
0000
0010
0000
,
0100
0010
0001
1000
,
0001
1000
0001
0000
0100
0000
0010
0000
,
0100
1000
0100
0010
,
2002
0000
0000
0000
,
3003
1000
0001
1000
,
1001
0000
1000
0000
0100
1000
0100
0000
,
0100
0010
0100
0000
0001
0010
0100
0000
,
1000
0100
0010
0000
0001
0010
0100
0000
,
1000
0100
1000
0000
0100
0010
0100
0000
,
0001
0010
0001
0000
0100
0010
0100
0000
,
0100
0010
0100
0000
0001
0100
0001
0000
,
0100
1000
0100
0000
0100
1000
0100
0000
,
0100
1000
0100
1000
0001
1000
0001
0100
,
0001
0100
1000
0100
,
0010
0000
0100
0000
0010
0000
0100
0010
,
0000
0100
1000
0100
,
0010
0000
0001
1000
0001
0000
0100
0000
,
0010
0001
1000
0010
,
0001
0000
0010
0000
0001
1000
0001
0000
,
0100
0010
0001
1000
,
0100
0010
0001
1000
,
0001
0010
0001
0000
0100
0000
1000
0000
,
0001
0010
0001
0000
0100
0000
1000
0000
,
1100
0001
1001
0001
,
0101
0001
1001
0100
,
0100
0010
0100
0000
0001
0000
1000
0000
,
0001
1000
0001
0000
0100
0000
1000
0000
,
1000
0100
0010
0000
0001
0010
0100
0000
,
1000
0100
0010
0000
0001
0000
1000
0000
,
2002
0000
0000
0000
,
0000
3003
0000
0000
;

//--------------- dance-single - ----------------
#NOTES:
     dance-single:
     :
     Hard:
     12:
     0.473877,0.63463,0.034644,0.207862,0.18188,383,379,4,24,0,0,0.473877,0.63463,0.034644,0.207862,0.18188,383,379,4,24,0,0:
0000
0000
0000
0000
,
0000
0000
0000
0000
,
1000
0100
0010
0100
1000
0001
0010
0000
,
0100
1000
0100
0010
0001
1000
0001
0000
,
0010
0100
1000
0100
0010
0001
0100
0000
,
0001
1000
0100
0010
0001
1000
0001
0000
,
1000
0100
0010
0001
1000
0100
0010
0000
,
0001
1000
0001
0100
0001
1000
0001
0000
,
0010
0100
1000
0100
0010
0001
0010
0000
,
0200
0000
2300
0000
3100
0010
0000
0001
,
1000
0001
0010
0001
1000
0010
0100
0000
,
0001
1000
0100
0010
0001
1000
0100
0000
,
0010
1000
0010
0100
0001
1000
0100
0000
,
1000
0100
0001
0100
1000
0001
0010
0000
,
0100
1000
0010
1000
0001
0010
0100
0000
,
0010
0100
1000
0001
0100
0010
1000
0000
,
0001
1000
0001
0010
0100
1000
0001
0010
,
0001
1000
0001
0100
0010
1000
0001
0100
,
0002
0000
0000
0013
0100
1000
0100
0010
,
0100
0000
0100
2000
0000
0000
0000
0000
,
0000
0000
0000
3100
0010
0001
1000
0100
,
0010
0200
0000
2300
0000
0000
3001
0002
,
0000
0103
0010
0100
1000
0100
0000
0020
,
0000
0030
0001
0010
0100
0000
0100
2000
,
0000
3002
0000
0000
1003
0000
0100
0000
,
0010
0100
1000
0001
,
0001
1000
0001
0100
0001
1000
0100
0010
,
0100
1000
0001
0100
0001
0000
0100
0000
,
1000
0100
0010
0001
1000
0100
1000
0010
,
1000
0100
0010
0100
0000
0000
0100
1000
,
0000
0000
1100
0200
0000
2300
0000
3100
,
0000
0000
0010
0100
1000
0001
0000
0020
,
0000
0230
0000
2300
0000
3200
0000
0310
,
0000
0001
1000
0001
1000
0001
0100
0001
,
1001
0000
0000
0000
,
0000
0000
0000
0000
1000
0000
0001
0000
1000
0000
0000
0001
0000
0000
0100
0000
,
1000
0000
1000
0100
1000
0000
0100
1000
0100
0000
0001
1000
0001
0000
0001
0000
,
1000
0000
0001
0000
0000
1000
0000
0000
0001
0000
0000
1000
0000
0000
0001
0000
1000
0000
0000
0000
0100
0000
1000
0000
0100
0000
0000
1000
0000
0000
0100
0000
,
1000
0000
0000
0000
0200
0000
0000
0000
2300
0000
0000
0000
3100
0010
0000
0100
,
0000
0000
1000
0000
0100
0000
1000
0000
0100
0000
1000
0000
0000
0000
0100
0000
0000
0000
1000
0000
0000
0000
0100
0000
1000
0000
0000
0010
0000
0000
1000
0000
,
0100
0000
0010
0001
0010
0000
0001
1000
0001
0000
0001
0100
0001
1000
0000
0001
,
0000
0000
0100
0000
0000
0001
0000
0000
1000
0000
0000
0000
0001
0000
0100
0000
0000
0000
0000
0000
0000
0000
0001
0000
1000
0000
0000
0010
0000
0000
0100
0000
,
0001
0000
1000
0000
0001
0000
0100
0000
0001
0000
1000
0000
0001
0000
1000
0001
,
0000
0100
0001
0100
0001
0100
0000
0001
0000
0000
1000
0000
0001
0000
1000
0000
,
1001
1000
0100
0010
0100
1000
0001
0010
,
0100
1000
0001
0010
0001
0000
1000
0001
,
0000
0000
1000
0000
0000
0000
0001
0000
0000
0000
1000
0000
0000
0001
0000
0000
,
1000
0000
0000
0000
0001
0000
1000
0000
0001
0000
0000
0100
0000
0000
0001
0000
,
1000
0000
0001
0100
0001
0000
1000
0100
,
0010
0000
0100
0000
1000
0100
0000
1000
,
0000
0000
0100
0000
0000
0000
1000
0000
0000
0000
0100
0000
0000
0010
0000
0000
,
0100
0000
1000
0000
0100
0000
0010
0000
0001
0000
0000
1000
0000
0000
0100
0000
,
0010
0001
1000
0100
0010
0001
1000
0010
,
0100
0001
1000
0100
0010
0000
0100
2000
,
0000
3100
0010
0001
2000
0000
3100
0020
,
0000
0000
0031
0000
0100
0000
0001
0000
1000
0000
0000
0100
0000
0000
1000
0000
,
0001
0000
0100
0010
0100
0000
0001
1000
,
0001
0010
0001
1000
0001
0010
0000
0100
,
0000
1000
0100
0010
0001
1000
0000
0100
,
0000
0000
0001
1000
0002
0000
0003
0000
,
2002
0000
0000
0000
,
0000
3003
0000
0000
0000
0000
0000
0000
0000
0000
0000
0000
0000
0000
0000
0000
;

//--------------- dance-single - bonus chart by TiKAL ----------------
#NOTES:
     dance-single:
     bonus chart by TiKAL:
     Edit:
     12:
     0,0,0,0,0:
0000
0000
0000
0000
,
0000
0000
0000
0000
,
0000
0000
0000
0000
,
0000
0000
0000
0000
,
0000
0000
0000
0000
,
0000
0000
0000
0000
,
0001
1000
0100
1000
0000
1000
0001
0000
,
1000
0001
0010
0001
0000
0001
1000
0000
,
0010
0100
0010
1000
0000
0001
0010
0000
,
0100
0000
0110
0000
0100
1000
0001
0100
,
0001
0010
0100
2000
0000
0001
3001
0000
,
1000
0100
0010
0002
0000
1000
1003
0000
,
0010
0100
0001
2000
0000
0010
3010
0000
,
0100
0000
0001
0000
1000
0000
0020
0000
0000
0000
0100
0000
0130
0001
0100
0000
,
0001
0100
0010
2000
0000
0001
3001
0000
,
1000
0010
0100
0002
0000
1000
1003
0000
,
0101
1010
1100
0011
,
1000
0000
0100
0000
0010
0000
0001
0000
1000
0001
1000
0001
1000
0001
1000
0001
,
2000
0000
3010
0100
0001
0010
0100
1000
,
0002
0000
0013
0200
0000
0000
0000
0000
,
0300
0000
0000
1000
0001
0100
0010
1000
,
0100
0020
0000
0032
0000
0000
1003
0020
,
0000
1030
0100
0010
0100
1000
0001
2000
,
0000
0000
3010
0100
0020
0000
1030
0002
,
0000
2000
0000
0000
3003
0000
0000
0000
,
0000
0000
0000
0000
,
0110
0000
0100
0001
1000
0000
0001
0010
,
0100
2000
0000
0020
0000
0000
3030
0000
,
0001
1000
0100
1000
0001
1000
0010
0100
,
0001
2000
0000
3200
0000
0000
1300
0001
,
0100
0000
0001
2000
0000
3200
0000
0020
,
0000
0300
0031
1000
0100
2000
0000
3002
,
0000
0200
0000
0000
0003
0000
0310
0000
,
1000
0000
0100
0000
0010
0000
0001
0000
1000
0001
1000
0001
1000
0001
1000
0001
,
2000
0000
0000
0000
,
3000
0000
0000
0000
0001
0000
0010
0000
0100
0000
0000
0100
0000
0000
0100
0000
,
2000
0000
0000
0000
3000
0000
0000
0000
0000
0000
0000
0000
0001
0100
0000
0010
,
0000
0000
1000
0000
0000
0000
0001
0000
0100
0000
0000
0100
0000
0000
0100
0000
0020
0000
0000
0000
0130
0000
0001
0000
1000
0000
0000
0001
0000
0000
1000
0000
,
0002
0000
0000
0000
0003
0000
0000
0000
0000
0000
0000
0000
1000
0010
0000
0100
,
0000
0000
0001
0000
1000
0000
0001
0000
0100
0000
0010
0000
0000
0000
2000
0000
0000
0000
3001
0000
0000
0000
0010
0000
0100
0000
0000
0100
0000
0000
1000
0000
,
0002
0000
0000
0000
0003
0000
0000
0000
0000
0000
0000
0000
1000
0010
0000
0100
,
0000
0000
0001
0000
0000
0000
1000
0000
0010
0000
0000
0010
0000
0000
0010
0000
0200
0000
0000
0000
0310
0000
1000
0000
0001
0000
0000
1000
0000
0000
0001
0000
,
2000
0000
0000
0000
3000
0000
0000
0000
0000
0000
0000
0000
0001
0100
0000
0010
,
0000
0000
1000
0000
0001
0000
1000
0000
0010
0000
0100
0000
0000
0000
0002
0000
0000
0000
1003
0000
0000
0000
0100
0000
0010
0000
0000
0010
0000
0000
0001
0000
,
1002
0100
0000
0100
,
0000
0000
0013
0000
0100
0000
1000
0001
,
1000
0001
0000
0100
0000
0010
1000
0001
,
0010
0000
0000
0000
0001
0000
0010
0000
0100
0000
0000
0100
1000
0000
0001
0000
,
2001
0010
0000
0010
,
0000
0000
3100
0000
0010
0001
0000
0010
,
0000
0000
1100
0000
0000
0000
0011
0000
0000
0000
1000
0000
0000
0001
0000
0000
,
1010
0000
0000
0000
0100
0000
0001
0000
1000
0000
0000
1000
0100
0000
0010
0000
,
0120
0001
0000
0001
,
0000
0000
0130
0000
1000
0001
1000
0010
,
0000
0100
0001
0100
0010
1000
0000
0100
,
0000
0000
0010
0000
0001
0000
1000
0000
0010
0000
0000
0010
0100
0000
0001
0000
,
0201
0010
0000
1000
,
0000
0000
0310
0000
0100
0001
0000
1001
,
0000
1000
0100
0010
0001
1000
0000
2002
,
0000
0000
0000
0000
3003
0000
0000
0000
0001
1000
0001
1000
0001
1000
0001
1000
,
0002
0003
0000
0000
;
