#TITLE:Bye Bye Bye;
#SUBTITLE:;
#ARTIST:*NSYNC;
#TITLETRANSLIT:;
#SUBTITLETRANSLIT:;
#ARTISTTRANSLIT:;
#GENRE:;
#CREDIT:;
#BANNER:;
#BACKGROUND:;
#LYRICSPATH:;
#CDTITLE:;
#MUSIC:N Sync Bye Bye Bye.ogg;
#OFFSET:-1.186000;
#SAMPLESTART:57.360001;
#SAMPLELENGTH:22.500000;
#SELECTABLE:YES;
#BPMS:0.000000=85.581001
,12.000000=86.279999
,16.000000=172.559998
,416.000000=86.279999
,432.000000=172.559998
;
#STOPS:
;
#BGCHANGES:;
#KEYSOUNDS:;
#ATTACKS:;

//---------------dance-single - ----------------
#NOTES:
     dance-single:
     :
     Challenge:
     13:
     0.613646,0.933765,0.602269,0.373307,0.054752,863.000000,742.000000,121.000000,75.000000,0.000000,0.000000,0.613646,0.933765,0.602269,0.373307,0.054752,863.000000,742.000000,121.000000,75.000000,0.000000,0.000000:
// measure 0
0000
0000
0000
0000
,  // measure 1
0000
0000
0000
0000
,  // measure 2
0000
0000
0000
0000
,  // measure 3
0120
0000
0000
0000
0100
0100
0100
0100
,  // measure 4
0130
0001
1000
0000
0010
1000
0001
0100
,  // measure 5
0001
0010
0100
1000
0010
1000
0001
0000
,  // measure 6
0101
0000
0101
0000
0001
0000
1000
0010
,  // measure 7
0100
0000
0001
0000
0010
0000
0100
0000
1000
0010
1000
0000
1000
0001
1000
0000
,  // measure 8
1001
0000
1000
0100
0010
0000
0100
1000
,  // measure 9
0001
0100
0010
0100
0001
1000
0010
0000
,  // measure 10
1010
0000
1010
0000
1000
0000
0001
0100
,  // measure 11
0010
1000
0100
0010
0002
0000
0000
0000
,  // measure 12
1003
0000
1001
0000
0011
0000
0001
0100
,  // measure 13
0010
0000
0100
0001
1000
0100
0010
0000
,  // measure 14
0110
0110
1100
1000
,  // measure 15
0010
0100
0001
0010
0002
0000
2003
0000
,  // measure 16
3010
0000
0110
0000
0101
0000
0001
1000
,  // measure 17
0010
0000
1000
0100
1000
0010
0100
0000
,  // measure 18
0101
0000
0001
0010
0100
1000
0100
1000
,  // measure 19
0010
0100
0001
0010
0001
0001
0001
0000
,  // measure 20
1001
0000
1100
0000
1010
0000
0010
1000
,  // measure 21
0001
0000
0100
0001
0100
1000
0100
0000
,  // measure 22
0101
0000
0101
0000
0011
0000
0010
0100
,  // measure 23
1000
0000
0010
0001
0010
1000
0100
0000
,  // measure 24
1100
0000
1100
0000
1001
0000
1000
0010
,  // measure 25
0001
0000
0010
1000
0100
0010
0001
0000
,  // measure 26
0101
0000
0100
0001
1000
0010
1000
0001
,  // measure 27
0010
0100
1000
0010
0100
0100
0100
0000
,  // measure 28
0110
0000
0101
0000
1001
0000
1000
0001
,  // measure 29
0100
0000
0001
0010
0100
0000
1000
0000
,  // measure 30
1001
0000
1100
0000
1010
0000
0010
1000
,  // measure 31
0200
0000
2300
0000
3002
0010
0010
0010
,  // measure 32
0013
0001
1000
0000
0010
0010
0010
0100
,  // measure 33
0002
0000
2003
0000
3010
1000
0100
1000
,  // measure 34
1010
0000
0101
0000
1001
0000
0100
1000
,  // measure 35
1020
0001
2000
3030
,  // measure 36
1001
0000
0001
0100
1000
0100
0001
1000
,  // measure 37
0010
0000
0100
0100
0000
0001
0001
0000
,  // measure 38
0011
0001
0101
0100
0120
0000
1030
1000
,  // measure 39
0002
0000
0103
0100
0000
0010
1000
0001
,  // measure 40
1001
0000
1001
0000
0100
1000
0002
0000
,  // measure 41
0103
0001
0010
0000
0200
0000
2300
0000
,  // measure 42
3010
0000
0110
0000
0110
0000
0100
0001
,  // measure 43
0010
0100
1000
0000
0010
0000
1000
0000
,  // measure 44
1100
0000
1000
0010
0001
0010
1000
0001
,  // measure 45
0100
0000
0001
0001
0000
1000
0100
0000
,  // measure 46
1100
1000
1001
1000
0010
0001
0010
1000
,  // measure 47
0002
0000
0103
0100
0000
0001
1000
0000
,  // measure 48
1010
0000
1010
0000
1000
0100
0001
0000
,  // measure 49
0100
1000
0010
0100
0001
0010
0100
1000
,  // measure 50
0001
0000
0101
0000
1010
0000
1000
0100
,  // measure 51
0110
0110
2100
0000
,  // measure 52
3001
0000
0001
0000
0001
0010
0100
1000
,  // measure 53
0010
0001
0010
1000
0200
0000
0000
0000
,  // measure 54
0310
0000
0000
0000
0000
0000
0000
0000
0000
0000
0000
0000
0000
0000
1000
0100
,  // measure 55
0010
0001
1000
0001
1000
0001
1000
0001
,  // measure 56
1001
1001
1010
0010
,  // measure 57
1000
0100
0001
0100
1000
0000
0001
0000
,  // measure 58
0101
0101
0011
0001
,  // measure 59
2000
0000
3200
0000
2300
0000
3001
0010
,  // measure 60
0120
0000
0100
0100
0230
0000
0000
0000
,  // measure 61
0320
0230
2300
3002
,  // measure 62
0023
0000
0000
0000
0031
0000
0100
0010
,  // measure 63
0100
0000
0001
0010
0001
0000
1000
0000
,  // measure 64
1010
0000
1010
0000
1100
0000
0100
0010
,  // measure 65
0001
1000
0010
0001
0020
0000
2030
0000
,  // measure 66
3002
0000
0100
0000
0103
0000
0010
1000
,  // measure 67
0001
0000
0010
0001
1000
1000
1000
0000
,  // measure 68
1010
0000
0010
1000
0001
0010
0001
0100
,  // measure 69
0010
1000
0100
0001
0100
0000
1000
0000
,  // measure 70
1001
0000
0000
0000
0002
0000
0103
0010
,  // measure 71
0100
0000
0001
1000
0100
0010
0001
0000
,  // measure 72
0011
0000
0110
0000
1100
0000
1000
0010
,  // measure 73
2000
0000
3200
0000
0310
0000
0001
0001
,  // measure 74
0101
0000
0100
0000
0020
0000
1030
0100
,  // measure 75
2000
0000
3020
0000
0130
0100
0100
0000
,  // measure 76
0101
0000
0011
0000
1001
0000
0100
0001
,  // measure 77
0021
0001
0200
0330
,  // measure 78
0110
0000
0100
1000
0010
1000
0001
0010
,  // measure 79
0200
0000
1000
1300
0000
0010
0010
0000
,  // measure 80
1010
1000
1010
1000
1200
0000
1300
0001
,  // measure 81
0020
0000
0031
0001
0000
0100
0010
1000
,  // measure 82
1001
0000
1001
0000
0010
1000
0002
0000
,  // measure 83
0013
0100
1000
0010
0200
0000
0302
0000
,  // measure 84
1003
0000
1010
0000
0110
0000
0100
0001
,  // measure 85
1000
0010
0100
0010
1000
0000
0001
0000
,  // measure 86
0011
0000
0001
1000
0010
0001
0010
1000
,  // measure 87
0020
0000
1000
1030
0000
0100
0100
0000
,  // measure 88
1100
0100
0110
0010
0001
0100
0001
1000
,  // measure 89
0020
0000
0130
0100
0000
0001
0001
0000
,  // measure 90
1001
1001
0020
2030
,  // measure 91
3001
0100
0010
0100
0001
1000
0010
0100
,  // measure 92
0010
0000
1010
0000
0101
0000
0001
1000
,  // measure 93
1010
1001
1200
0000
,  // measure 94
1300
0010
0100
0001
0100
0001
1000
0010
,  // measure 95
0001
0000
0010
0000
1000
0100
0010
0100
2000
0000
0000
0000
0000
0000
0000
0000
,  // measure 96
3001
0000
0001
0000
1000
0100
0010
0001
,  // measure 97
0100
0000
0001
0001
0000
0000
1000
0010
,  // measure 98
0001
0010
1000
0100
0001
0100
1000
0001
,  // measure 99
0200
0000
0000
0000
0310
0000
0010
0000
0100
0001
0100
0000
0001
0000
0000
0000
,  // measure 100
1001
0000
1000
0000
0010
1000
0100
1000
,  // measure 101
0020
0000
1030
1000
0000
0000
0100
1000
,  // measure 102
0001
0010
0100
0010
0001
1000
0010
0100
,  // measure 103
0002
0000
1003
1000
0000
0000
1001
0000
,  // measure 104
1001
0000
0000
0000
1000
0100
0010
0100
0010
0001
0100
0010
1000
0100
0010
0100
,  // measure 105
2000
0000
0000
0000
3010
0100
1000
0100
0001
0001
0010
1000
0010
0001
0100
0010
,  // measure 106
2000
0000
0000
0000
3100
0100
0010
0010
0001
0010
0100
1000
0010
0000
0100
0000
,  // measure 107
0110
0000
0001
0000
1000
0000
0020
0130
,  // measure 108
0110
0000
0110
0000
0010
1000
0100
1000
,  // measure 109
0001
0100
1000
0100
0001
0001
0001
0000
,  // measure 110
0011
0000
0011
0000
0001
1000
0010
0100
,  // measure 111
0020
0000
2030
0000
3100
0100
0100
0000
,  // measure 112
0110
0000
0110
0000
0010
0100
1000
0000
,  // measure 113
0001
0000
0100
0000
0001
1000
0001
0000
,  // measure 114
1002
0000
0100
0000
,  // measure 115
0010
0000
0003
0000
,  // measure 116
1001
0000
1000
0010
1000
0100
0001
0100
,  // measure 117
2000
0000
3002
0000
0013
0010
0010
0000
,  // measure 118
0110
0100
1100
1000
0020
0000
1030
0001
,  // measure 119
0200
0000
0301
0010
0001
0001
0001
0000
,  // measure 120
0101
0000
0101
0000
0001
1000
0010
1000
,  // measure 121
0100
0010
0100
1000
0001
0100
0010
1000
,  // measure 122
1100
0000
1001
0000
1010
0000
0100
0001
,  // measure 123
0010
0100
0010
0001
1000
0000
0001
0000
,  // measure 124
0101
0000
0001
0100
1000
0100
0001
0010
,  // measure 125
0200
0000
2300
0000
3001
0001
0001
0000
,  // measure 126
1001
1000
1100
0100
0010
0001
0100
0001
,  // measure 127
2000
0000
3010
0010
0100
0001
0010
0000
,  // measure 128
0110
0110
0200
2300
,  // measure 129
3002
0000
0203
0000
0320
1000
1030
0000
,  // measure 130
0001
0011
1100
0000
,  // measure 131
1001
0110
1001
0110
,  // measure 132
2002
0000
0000
0000
,  // measure 133
0000
0000
0000
0000
,  // measure 134
3003
0000
0000
0000
;

//---------------dance-single - ----------------
#NOTES:
     dance-single:
     :
     Hard:
     10:
     0.453657,0.500231,0.452946,0.577382,0.000000,638.000000,547.000000,91.000000,116.000000,0.000000,0.000000,0.453657,0.500231,0.452946,0.577382,0.000000,638.000000,547.000000,91.000000,116.000000,0.000000,0.000000:
0000
0000
0000
0000
,
0000
0000
0000
0000
,
0000
0000
0000
0000
,
0120
0000
0000
0000
0100
0100
0230
0000
,
0301
0000
1000
0000
1010
0000
1000
0100
,
0010
0000
0001
0100
0010
0000
1000
0000
,
1100
0000
1100
0000
0100
0000
1000
0001
,
0000
0001
1000
0100
0010
0000
0011
0000
,
0011
0000
0001
0000
0101
0000
0100
0010
,
0200
0000
0301
1000
,
1001
0000
1001
0000
1000
0100
0000
0100
,
1000
0001
0010
0100
2000
0000
0000
0000
,
3010
0000
0002
0000
,
2003
3200
0310
0100
,
1100
0000
1001
0000
,
0001
0010
0001
1000
0020
0000
0230
0000
,
0301
0000
0110
0000
,
0020
2030
3001
0100
,
0101
0000
0001
0010
0100
0000
1000
0000
,
0010
0000
0010
0000
1000
0100
1000
0000
,
1001
0000
0000
0000
0100
0000
1000
0010
,
0100
0000
0001
0010
0001
0000
1000
0000
,
1010
0000
0000
0000
0100
0000
0001
0010
,
0200
2300
3020
0230
,
0301
0000
0000
0000
0001
0000
0010
0100
,
1000
0000
1000
0010
0100
0000
0001
0000
,
0011
0000
0001
0100
0001
0000
1000
0000
,
0010
0000
0010
0000
1000
0001
0100
0000
,
0110
0000
1020
0000
,
2030
3002
0023
0230
,
0310
0000
0110
0000
1100
0000
0000
1000
,
0020
0230
0302
2000
,
3003
0000
0120
0000
,
0230
0302
0023
0230
,
1300
0000
1001
0000
1100
0000
1000
0001
,
0200
0010
0020
0000
,
0330
0000
0000
1000
0100
0010
0001
0100
,
0010
0000
1000
0100
0000
1000
0001
0000
,
0101
0000
0101
0000
1001
0000
0100
0001
,
0010
0000
0100
1000
0000
0001
1000
0000
,
1010
1010
2000
3002
,
0023
0230
2300
3002
,
0103
0000
0110
0000
0101
0000
0001
1000
,
0020
0100
2000
0000
,
3030
0000
0000
0100
0001
0100
1000
0100
,
0001
0000
1000
0010
0000
0010
1000
0000
,
1100
0000
1100
0000
1010
0000
1000
0001
,
0100
0000
0001
0010
0000
0100
1000
0000
,
1010
1010
0200
2300
,
3002
2003
3200
0320
,
0130
0000
1100
0000
1001
0000
0100
1000
,
0100
1000
0020
0000
,
1030
0000
0010
0000
0100
0001
1000
0010
,
0100
0000
0001
0000
,
1001
0000
0200
0000
,
2300
3002
2003
3200
,
0310
0000
0110
0000
,
0100
1000
0001
1000
0100
0000
0010
0000
,
0001
1000
1001
0000
,
0100
0000
0001
0000
0010
0000
0100
1000
,
0002
0000
2003
0000
,
3002
2003
3200
0320
,
0032
0000
0000
0000
1003
0000
0010
0100
,
0001
0100
0010
1000
,
1010
0000
1010
0000
0100
0000
0001
0010
,
0002
0000
0013
0100
1000
0000
0100
0000
,
0020
0000
0000
0000
0130
0000
1000
0010
,
0100
0001
1000
0100
,
0020
0001
0100
0100
,
0130
0000
0100
1000
0001
0000
0100
0000
,
0101
0000
0020
0000
,
0230
0302
2003
3020
,
1030
0000
1100
0000
0110
0000
0000
0010
,
0002
0203
0020
0000
,
0330
0000
0020
0000
,
2030
3020
0032
0023
,
1030
0000
1001
0000
1010
0000
0100
0001
,
2000
0010
0200
0000
,
3300
0000
0000
1000
0010
0100
0001
0010
,
0001
0000
0100
0010
0000
1000
0001
0000
,
1001
0000
1001
0000
1010
0000
0010
0100
,
0001
0000
0010
0001
0000
1000
0001
0000
,
0101
0101
0200
0302
,
2003
3200
2300
3020
,
0130
0000
1001
0000
0101
0000
0100
0010
,
2000
0100
0002
0000
,
3003
0000
0000
0010
1000
0010
0001
0010
,
1000
0000
0100
1000
0000
0010
0100
0000
,
0101
0000
0101
0000
0011
0000
0010
0100
,
1000
0000
0010
1000
0000
0001
0010
0000
,
0110
0110
0200
2300
,
3002
2003
3200
0320
,
0031
0000
1001
0000
0011
0000
0010
0100
,
1000
0100
0020
0000
,
0031
0000
0001
0000
1001
0000
1000
0010
,
0000
1000
0100
0010
0002
0000
0000
0000
,
0103
0000
0000
0000
1000
0100
0001
0100
,
1000
0000
0001
0001
0000
0000
0100
0010
,
1000
0100
1000
0001
0010
0100
1000
0010
,
0100
0000
0001
0001
0000
0000
0011
0000
,
1100
0000
0000
0000
1000
0010
0100
0000
,
0002
0000
0103
0001
0000
0000
1000
0100
,
0001
0100
1000
0010
1000
0001
0100
0001
,
0010
0000
0100
0100
0000
0000
1100
0000
,
2001
0000
0000
0000
3010
0100
0001
0100
,
0020
0000
1030
2000
0000
3000
0100
1000
,
0002
0000
0013
0200
0000
0000
1300
0001
,
0010
0000
0100
0000
1000
0000
0002
0103
,
0101
0000
0101
0000
0001
1000
0100
0000
,
1000
0000
0010
0000
0100
0001
0100
0000
,
0110
0110
0010
1000
,
0002
0000
2003
0000
3100
0010
0001
0000
,
1001
1001
0002
0020
,
0033
0000
0000
0000
0100
1000
0001
0000
,
1002
0000
0100
0000
,
0010
0000
0003
0000
,
1001
0000
0000
1000
0100
0001
0100
1000
,
0001
0000
0100
0001
0000
1000
0001
0000
,
1001
0000
1001
0000
1100
0000
1000
0010
,
0100
0000
0001
0010
0000
0100
1000
0000
,
1020
0000
0100
0230
,
0000
0000
0310
1000
,
1001
0000
1100
0000
1010
0000
0100
0001
,
0020
0100
0200
0000
,
0330
0000
0000
1000
0001
0100
0001
1000
,
0100
0000
0010
0100
0000
1000
0010
0000
,
1010
0000
1010
0000
1100
0000
0100
0010
,
0001
0000
1000
0010
0000
0100
0010
0000
,
0110
0110
0200
2300
,
3002
2003
3200
0320
,
0031
0101
0011
0000
,
1001
0100
1001
0010
,
2002
0000
0000
0000
,
0000
0000
0000
0000
,
3003
0000
0000
0000
;

//---------------dance-single - ----------------
#NOTES:
     dance-single:
     :
     Medium:
     7:
     0.344154,0.433534,0.418104,0.661998,0.000000,484.000000,400.000000,84.000000,133.000000,0.000000,0.000000,0.344154,0.433534,0.418104,0.661998,0.000000,484.000000,400.000000,84.000000,133.000000,0.000000,0.000000:
0000
0000
0000
0000
,
0000
0000
0000
0000
,
0000
0000
0000
0000
,
2002
0000
0000
3003
,
1001
0100
0020
0000
,
0001
0000
0000
0000
0031
0100
0001
0000
,
0011
0011
0001
2000
,
0000
0000
3010
1010
,
1010
1000
0002
0000
,
0100
0000
0103
0010
,
0110
0000
0110
0000
0010
2000
0000
0000
,
3002
0000
0203
0000
,
0310
0000
1020
0000
,
1030
0100
0010
0001
,
0100
0000
0201
0000
,
0301
1000
0010
1000
,
0001
0000
0021
0000
,
0130
1000
0001
0100
,
0120
0100
1000
1000
,
0100
0100
0001
0001
,
0130
0000
1002
0000
,
0103
0001
0010
0100
,
1000
0000
2010
0000
,
3010
1000
0001
0100
,
0001
0000
0102
0000
,
0103
0001
1000
0010
,
2010
0010
0100
0100
,
0010
0010
0001
0001
,
3001
0000
1002
0000
,
2003
3002
0023
0230
,
1300
1100
0110
0000
,
0002
0203
0320
0000
,
1030
0000
2001
0000
,
3200
2300
3020
0230
,
0301
0011
0110
0000
,
0002
0000
2000
0000
,
3003
0000
0010
0100
,
0002
0000
0000
0100
0000
0000
0013
0000
,
0110
0110
0100
1000
,
0020
0000
0000
0100
0000
0000
0031
0000
,
1001
1001
0200
2300
,
3002
0023
0230
2300
,
3010
0110
0101
0000
,
0021
0000
0200
0000
,
0330
0000
0100
1000
,
0002
0000
0000
1000
0000
0000
0013
0000
,
0011
0011
0001
1000
,
0020
0000
0000
1000
0000
0000
0130
0000
,
0101
0101
0200
0302
,
2003
3200
0320
0032
,
0103
0110
1010
0000
,
1001
1001
2002
0000
,
3003
0000
0000
0000
0000
0020
0000
0000
,
0230
0000
2300
0000
,
3001
0000
0200
0000
,
0310
0010
0010
0010
,
1010
0000
1200
0000
,
1300
0100
1000
0000
0001
0000
0100
0000
,
0101
0101
2001
0000
,
3100
0010
0100
1000
,
0002
0000
0200
0303
,
0020
2030
3002
0203
,
0000
0300
0120
0000
,
1030
0100
1000
0100
,
0010
0000
0021
0000
,
0032
0000
1003
0010
1000
0000
0001
0000
,
0200
0000
0310
0000
,
0010
1000
0001
0100
,
0020
0100
0100
0001
,
0001
0100
0100
1000
,
1030
0000
2001
0000
,
3200
2300
3002
0203
,
0310
1010
1100
0000
,
0010
2000
0002
0000
,
3003
0000
0120
0000
,
2030
3200
0320
0230
,
1300
1010
0110
0000
,
0020
0000
2000
0000
,
3030
0000
1000
0001
,
0020
0000
0000
0100
0000
0000
0130
0000
,
1100
1100
1000
0010
,
0200
0000
0000
0001
0000
0000
0301
0000
,
0011
0011
0002
2003
,
3020
0230
0302
0023
,
0031
0101
1001
0000
,
0020
0000
0200
0000
,
0330
0000
0100
0001
,
2000
0000
0000
0001
0000
0000
3010
0000
,
1010
1010
0010
0100
,
0002
0000
0000
0010
0000
0000
1003
0000
,
1001
1001
0020
2030
,
3002
0203
0320
2030
,
3100
0110
0011
0000
,
0200
0000
0002
0000
,
0303
0000
1001
1000
,
0010
0000
1000
0100
2000
0000
0000
0000
,
3001
0000
0101
0100
,
0010
0000
1000
0100
0000
0000
0100
0000
,
1000
1000
0001
0001
,
0100
0000
0010
0100
0000
0000
0001
0000
,
0011
0000
0100
0010
,
1000
0000
0100
1000
0000
0000
0001
0000
,
0001
0100
0100
0010
,
1000
0000
0001
1000
0000
0000
0010
0000
,
0210
0000
0301
1000
,
0020
0000
1000
1000
0000
0030
1000
0000
,
0002
0000
0100
0100
0000
0003
0100
0000
,
0210
0320
2030
3002
,
0103
0000
0010
0010
,
0010
1000
0001
0100
,
0002
0000
1000
1003
,
0010
1000
0200
0000
,
2300
0000
0001
0002
,
3003
0000
0000
0000
0010
1000
0010
0000
,
0220
0000
0000
0000
,
0000
0000
0330
0000
,
0110
0000
0010
1000
,
0002
0000
0000
0100
0000
0000
0013
0000
,
0011
0011
0001
1000
,
0020
0000
0000
1000
0000
0000
0130
0000
,
0210
0000
0302
2000
,
0000
3003
0100
0001
,
0011
0110
1100
0000
,
1020
0000
0200
0000
,
0330
0000
0001
0100
,
0002
0000
0000
0100
0000
0000
1003
0000
,
1010
1010
1000
0001
,
0200
0000
0000
0010
0000
0000
1300
0000
,
1001
0000
0020
2030
,
3002
0203
0320
2030
,
3100
0110
0011
0000
,
1001
0100
1000
0001
,
2002
0000
0000
0000
,
0000
0000
0000
0000
,
3003
0000
0000
0000
;

//---------------dance-single - ----------------
#NOTES:
     dance-single:
     :
     Easy:
     4:
     0.219718,0.333488,0.114481,0.214029,0.000000,309.000000,286.000000,23.000000,43.000000,0.000000,0.000000,0.219718,0.333488,0.114481,0.214029,0.000000,309.000000,286.000000,23.000000,43.000000,0.000000,0.000000:
0000
0000
0000
0000
,
0000
0000
0000
0000
,
0000
0000
0000
0000
,
2002
0000
0000
3003
,
0001
0000
1000
0000
,
0001
0000
1000
0000
,
0010
0010
0000
2000
,
0000
0000
3001
0000
,
1001
0000
0001
0000
,
0100
0000
0001
0000
,
1000
1000
0000
0000
,
0010
0000
0010
0000
,
0110
0000
0200
0000
,
0301
0000
0001
0000
,
0010
0010
0010
0000
,
0100
0000
1000
0000
,
0001
0001
0001
0000
,
0100
0000
0010
0000
,
1000
0000
0100
0000
,
0010
0000
0001
0000
,
1001
0000
0002
0000
,
1003
0000
1000
0000
,
0010
0010
0020
0000
,
1030
0000
0100
0000
,
1000
1000
2000
0000
,
3001
0000
1000
0000
,
0001
0000
1000
0000
,
0010
0000
0100
0000
,
0101
0000
0002
0000
,
1003
0000
0010
0000
,
1000
1000
1000
0000
,
0001
0001
0002
0000
,
0103
0000
0010
0000
,
0100
0000
0001
0000
,
0010
0010
0010
0000
,
0022
0000
0000
0033
,
0001
0000
1000
0000
,
0001
0000
0001
0000
,
1000
1000
0010
0000
,
0100
0000
0001
0000
,
0100
0100
0100
0000
,
0010
0000
1000
0000
,
0010
0010
0010
0000
,
0220
0000
0000
0330
,
0110
0000
0100
0000
,
0001
0000
1000
0000
,
1000
1000
0010
0000
,
0100
0000
0001
0000
,
1000
1000
1000
0000
,
0100
0000
0010
0001
,
1000
1000
1000
0000
,
0001
0001
0002
0000
,
0103
0000
0000
0000
,
0001
0000
1000
0000
,
1001
0000
0000
0000
,
0000
0000
0000
0000
,
1001
0000
2000
0000
,
3100
0000
1000
0000
,
0001
0001
0002
0000
,
0013
0000
0100
0000
,
1000
0000
0001
0000
,
0200
0000
0000
0000
,
0310
0000
0020
0000
,
1030
0000
0001
0000
,
0100
0100
0200
0000
,
0301
0000
0010
0000
,
0100
0100
1000
0000
,
0010
0000
1000
0000
,
0001
0000
0100
0000
,
0010
0000
1000
0000
,
1100
0000
2000
0000
,
3010
0000
1000
0000
,
0001
0001
0001
0000
,
1000
1000
0200
0000
,
0310
0000
0002
0000
,
0103
0000
0001
0000
,
1000
1000
1000
0000
,
2002
0000
0000
3003
,
1001
0000
1000
0000
,
0001
0000
0001
0000
,
1000
1000
0010
0000
,
0100
0000
0100
0000
,
0001
0001
1000
0000
,
0001
0000
0100
0000
,
0001
0001
0001
0000
,
0202
0000
0000
0303
,
0101
0000
0001
0000
,
1000
0000
0010
0000
,
1000
1000
1000
0000
,
0100
0000
0010
0000
,
0100
0100
0100
0000
,
1000
0000
0001
0100
,
0010
0010
0010
0000
,
1000
0001
0002
0000
,
0103
0000
0100
0000
,
0001
0000
2000
0000
,
3010
0000
1001
0000
,
0100
0000
0110
0000
,
0010
1000
0010
1000
,
0001
1000
0001
0100
,
0101
0000
0001
0000
,
0000
0000
1000
0000
,
0010
0100
0001
1000
,
0100
0000
0010
0000
,
0002
0000
0000
0000
,
0203
0000
0000
0000
,
0320
0000
0000
0000
,
2030
0000
0000
0000
,
3100
0000
0010
0010
,
0020
0000
0001
0000
,
0031
0000
1000
1000
,
0010
1000
0002
0000
,
0103
0000
0100
0200
,
0000
0300
0001
1000
,
2002
0000
0000
0000
,
0000
0000
3003
0000
,
1001
0000
1000
0000
,
0001
0000
1000
0000
,
0001
0001
0001
0000
,
0100
0000
0001
0000
,
2000
0000
3010
0020
,
0000
0000
1030
0000
,
0001
0100
0001
0000
,
2002
0000
0000
3003
,
1001
0000
1000
0000
,
0100
0000
1000
0000
,
0001
0001
0001
0000
,
0010
0000
0100
0000
,
1000
1000
1000
0000
,
0001
0000
0100
0010
,
1000
0001
0100
0000
,
0010
0010
0010
0000
,
0220
0000
0000
0000
,
0000
0000
0000
0000
,
0330
0000
0000
0000
;
