#TITLE:Better Off Alone;
#SUBTITLE:;
#ARTIST:Alice Deejay;
#TITLETRANSLIT:;
#SUBTITLETRANSLIT:;
#ARTISTTRANSLIT:;
#GENRE:;
#CREDIT:;
#BANNER:;
#BACKGROUND:;
#LYRICSPATH:;
#CDTITLE:;
#MUSIC:Better Off Alone.mp3;
#OFFSET:-0.040000;
#SAMPLESTART:68.212997;
#SAMPLELENGTH:12.000000;
#SELECTABLE:YES;
#BPMS:0.000000=137.000000
;
#STOPS:
;
#BGCHANGES:;
#KEYSOUNDS:;
#ATTACKS:;

//---------------dance-single - ----------------
#NOTES:
     dance-single:
     :
     Hard:
     11:
     0.482310,0.512843,0.272272,0.350064,0.058344,434.000000,399.000000,35.000000,45.000000,0.000000,0.000000,0.482310,0.512843,0.272272,0.350064,0.058344,434.000000,399.000000,35.000000,45.000000,0.000000,0.000000:
// measure 0
0000
0000
0000
0000
,  // measure 1
0000
0000
1001
0000
0100
0000
0010
0100
,  // measure 2
1000
0000
0001
0100
0010
0000
1000
0001
,  // measure 3
0010
0100
0100
1000
0100
0000
1000
0100
,  // measure 4
0010
0000
0001
1000
0010
0100
0001
1000
,  // measure 5
0100
0010
0110
0000
0100
0000
1000
0100
,  // measure 6
0010
0001
1000
0010
0100
0001
1000
0010
,  // measure 7
0100
0010
0110
0000
0100
0000
1000
0100
,  // measure 8
0010
2002
0000
0000
,  // measure 9
3003
0000
1000
0000
0001
1000
0000
1000
,  // measure 10
0100
0000
0010
0000
0000
0000
0001
0000
0010
0000
0000
0000
0100
0000
0000
0010
,  // measure 11
0000
0100
1000
0000
0100
0010
0000
0001
,  // measure 12
1000
0000
0100
0000
0000
0000
0100
0000
0010
0000
0100
0000
1000
0000
0000
0100
,  // measure 13
0000
0010
0100
0000
0100
1000
0000
0100
,  // measure 14
0010
0000
0001
0000
0000
0000
0010
0000
0100
0000
1000
0000
0100
0000
0000
0010
,  // measure 15
0000
0001
2000
0000
3001
0010
0100
1000
,  // measure 16
0001
0000
0100
0000
0010
0000
1000
0000
0100
0000
0010
0000
0001
0000
0000
0100
,  // measure 17
0000
0010
1010
0000
1000
0200
0000
0320
,  // measure 18
0000
0000
0230
0000
0000
0000
2300
0000
0000
0000
3100
0000
0010
0000
0000
0100
,  // measure 19
0000
1000
0100
0000
1000
0020
0000
0230
,  // measure 20
0000
0000
0320
0000
0000
0000
2030
0000
0000
0000
3010
0000
0100
0000
0000
0001
,  // measure 21
0000
0010
0100
0000
1000
0002
0000
0203
,  // measure 22
0000
0000
0320
0000
0000
0000
0230
0000
0000
0000
0301
0000
1000
0000
0000
0100
,  // measure 23
0000
0010
0001
0000
1000
0200
0000
2300
,  // measure 24
0000
0000
3020
0000
0000
0000
2030
0000
0000
0000
3001
0000
0100
0000
0000
0010
,  // measure 25
0000
0100
0101
0000
0100
0002
0000
0023
,  // measure 26
0000
0000
0230
0000
0000
0000
0320
0000
0000
0000
0031
0000
1000
0000
0000
0001
,  // measure 27
0000
0010
0001
0000
0100
0002
0000
0203
,  // measure 28
0000
0000
0320
0000
0000
0000
2030
0000
0000
0000
3001
0000
0100
0000
0000
0010
,  // measure 29
0000
0100
0001
0100
0010
1000
0100
0010
,  // measure 30
0100
1000
0001
0010
0100
1000
0001
0100
,  // measure 31
0010
0100
0001
0010
0001
1000
0100
0010
,  // measure 32
0100
1000
0004
0000
0000
0000
0000
0000
,  // measure 33
0000
0000
0103
0000
0100
0010
0000
1100
,  // measure 34
0000
0000
1010
0000
0000
0000
0101
0000
0000
0000
0010
0000
0001
0000
0000
1000
,  // measure 35
0000
0100
0010
0000
0100
1000
0000
1100
,  // measure 36
0000
0000
1001
0000
0000
0000
0101
0000
0000
0000
0001
0000
0010
0000
0000
0100
,  // measure 37
0000
1000
0100
0000
0100
0010
0000
1001
,  // measure 38
0000
0000
1100
0000
0000
0000
0011
0000
0000
0000
0001
0000
0010
0000
0000
0100
,  // measure 39
0000
1000
0100
0000
0010
0100
0000
0100
,  // measure 40
0000
2002
0000
0000
0000
0000
0000
3003
,  // measure 41
0000
0000
1000
0000
0100
0010
0100
1000
,  // measure 42
0000
0002
0000
0000
0013
0200
0000
0000
,  // measure 43
1300
0010
0000
0000
1000
0100
0010
0100
,  // measure 44
0000
0000
1000
0000
0000
0000
0100
0000
0000
0000
0010
0000
0100
0000
0000
0100
,  // measure 45
0000
0100
1000
0000
0100
0010
0100
1000
,  // measure 46
0000
0002
0000
0000
0013
0002
0000
0000
,  // measure 47
1003
0100
0010
0000
0001
1000
0000
0110
,  // measure 48
0000
0000
1001
0000
0000
0000
0110
0000
0000
0000
0000
0000
0100
0000
0000
1000
,  // measure 49
0000
0100
1000
0000
0100
1000
0100
0010
,  // measure 50
0000
0002
0000
0000
0013
0200
0000
0000
,  // measure 51
1300
0100
0010
0000
0001
1000
0000
0110
,  // measure 52
0000
0101
0000
1010
0000
0100
0010
0000
,  // measure 53
0100
1000
0100
0000
0100
0010
0100
1000
,  // measure 54
0000
0002
0000
0000
0103
0020
0000
0000
,  // measure 55
1030
0001
0100
0000
0010
0100
0000
1000
,  // measure 56
0000
0001
0011
0000
0110
0000
1010
0000
,  // measure 57
1001
0000
1000
0100
0001
0100
1000
0010
,  // measure 58
0100
0001
0100
1000
0100
0001
1000
0100
,  // measure 59
0010
0001
1000
0010
0001
0010
0100
0001
,  // measure 60
0010
0100
1000
0100
0001
0100
1000
0001
,  // measure 61
0010
0100
1000
0001
0010
1000
0010
0001
,  // measure 62
0100
0010
1000
0100
0001
0100
1000
0001
,  // measure 63
0010
0100
1000
0001
0100
0010
1000
0100
,  // measure 64
0001
0100
1100
0000
0011
0000
0110
0000
,  // measure 65
1001
0000
1000
0000
0100
0010
0000
0001
,  // measure 66
0010
0001
0020
0000
0031
0200
0000
0320
,  // measure 67
0000
0000
1030
0100
0010
0100
0010
0001
,  // measure 68
1000
0001
0100
0010
1000
0100
0010
0001
,  // measure 69
1000
0001
0020
0000
0130
2000
0000
0000
,  // measure 70
0000
0000
3002
0000
0103
0020
0000
2030
,  // measure 71
0000
0000
3001
0010
0100
1000
0100
0001
,  // measure 72
0100
1000
1010
0000
0110
0000
0101
0000
,  // measure 73
0110
1001
0000
0000
;

//---------------dance-single - Copied from----------------
#NOTES:
     dance-single:
     Copied from:
     Challenge:
     16:
     0.727910,0.940213,0.217817,0.147805,0.618446,655.000000,627.000000,28.000000,19.000000,8.000000,0.000000,0.727910,0.940213,0.217817,0.147805,0.618446,655.000000,627.000000,28.000000,19.000000,8.000000,0.000000:
0000
0000
0000
0000
,
0000
0000
1001
1000
0100
0010
0001
0010
,
0100
0010
0001
0010
0100
0010
0100
1000
,
0001
0002
2003
3001
0100
0010
1000
0100
,
0010
0001
1000
0100
0010
0001
1000
0100
,
0010
0001
0011
0001
0100
0010
1000
0100
,
0010
0001
1000
0010
0100
0001
1000
0010
,
1000
1010
0110
0010
0100
0010
1000
0100
,
0010
0001
4M00
0000
00M0
0000
000M
0000
,
30M0
0000
1001
0000
0001
1000
0000
1000
,
0100
0000
0010
0001
0010
0000
0001
0000
0010
0000
0100
1000
0200
0000
0000
0320
,
0000
0000
0130
1000
0100
0000
0010
0000
0001
0000
0010
0001
0010
0000
0001
0000
,
1000
0000
0100
0010
0100
0000
1000
0000
0010
0000
0100
0001
0200
0000
0000
0302
,
0000
0000
0013
0000
0100
0000
0000
0000
1000
0001
0100
0010
1000
0001
0010
0100
,
1000
0001
0010
0001
1000
0100
0010
0001
0010
0100
1000
0001
0100
0010
0100
0001
,
0010
0001
1000
0100
0010
0100
1000
0001
0100
0010
1000
0100
0010
0001
0010
0100
,
1000
0001
0100
0010
1000
0100
0010
0100
1000
0001
0010
0100
1000
0001
0100
0010
,
1000
0100
0010
0001
1000
0000
0000
0000
1000
0000
0100
0000
0000
0000
0010
0000
,
0000
0000
0001
0000
0000
0000
0010
0000
0000
0000
0100
0000
1000
0000
0000
0100
,
0000
1000
0100
0000
0100
0010
0000
0001
,
0000
0000
1000
0000
0000
0000
0001
0000
0000
0000
0001
0000
0100
0000
0000
0010
,
0000
1000
0100
0000
0010
0000
0001
0010
,
0000
0000
0100
0000
0000
0000
1000
0000
0000
0000
0100
0000
1000
0000
0000
0100
,
0000
0010
0100
0000
1000
0100
0000
0010
,
0000
0000
0001
0000
0040
0000
0000
0000
0000
0000
0000
0000
0031
0000
0000
0010
,
0000
0000
0100
0000
1100
0000
1000
0100
0010
0001
0010
0000
0100
0000
1000
0001
,
0100
0010
1000
0000
0100
0000
0010
0001
0000
0001
0010
0000
0001
0000
1000
0100
,
0000
1000
0100
0000
0010
0000
0001
0010
0000
0100
1000
0000
0001
0010
0100
1000
,
0001
0100
0010
0100
0001
0010
0001
1000
0100
0010
0100
0010
0001
0100
0010
1000
,
0010
0100
0001
0100
0010
1000
0010
0100
0001
0010
0100
0010
0100
1000
0010
0100
,
0001
0100
0001
1000
0010
1000
0001
0100
0001
1000
0010
1000
0010
0100
0001
0100
,
0010
1000
0100
0010
0001
0010
0100
1000
0001
0100
0010
0100
0001
0010
0001
1000
,
0100
0010
0001
1000
0004
4000
0000
0000
0000
0000
0000
0000
0000
0000
0000
0000
,
0000
0000
3003
0000
0110
0000
0001
0000
1000
0100
1000
0000
0100
0000
0010
0000
,
0001
1000
0001
0000
0100
0000
0010
0000
0100
0010
0100
0000
0002
0000
0000
2003
,
0000
0000
3100
0000
0010
0000
0001
0000
1000
0100
1000
0000
0010
0000
0100
0000
,
0010
0100
0001
0000
0100
0000
0001
0000
0010
0001
0010
0000
0002
0000
0000
1003
,
0000
0000
0010
0000
0100
0000
0010
0000
0100
0001
0100
0010
1000
0000
0001
0000
,
1000
0100
1000
0010
0100
0000
0010
0000
0001
0000
0010
0001
0020
0000
0000
0130
,
0000
0000
1000
0100
1000
0000
0010
0000
0100
0001
0100
0010
1000
0000
0001
0000
,
1000
0100
0010
0000
0014
0000
0000
0000
0000
0000
0000
0000
0000
0000
0000
0000
,
0003
0000
1001
1000
0100
0010
0001
0010
,
0100
1000
0020
0000
0000
0000
0000
0000
0100
0000
0100
0000
0000
0000
0000
0000
,
1000
0000
1030
0000
0001
0000
1000
0000
0001
1000
0100
0000
0010
0000
0001
0000
,
00M0
0000
1000
0000
00M0
0000
0100
0000
M000
0000
0010
0000
0200
0000
0000
0301
,
0000
1000
1010
0100
1000
0100
0010
0001
,
0000
0002
0000
0000
0010
0010
0000
0000
,
1000
1003
0100
0010
0001
0010
0M00
0010
,
0000
0000
0100
0000
0110
0000
1000
0000
1100
0000
0100
0000
0110
0000
0000
1001
,
0000
0000
0010
0000
1010
0000
0100
0000
1000
0100
0010
0000
0001
0000
0001
0000
,
0000
2000
0000
0000
0010
0010
0000
0000
,
0100
0000
3100
0000
1000
0000
0001
0000
0010
0100
1000
0000
0000
0000
1100
0000
,
0000
0000
0011
0000
0000
0000
0101
0000
0000
0000
0100
0000
0020
0000
0000
1030
,
0000
0010
0110
0000
0001
0010
0100
1000
,
0000
0020
0000
0000
0001
0001
0000
0000
,
1000
1030
0001
0010
0100
0010
0000
1000
,
0000
0000
0001
0000
0101
0000
0100
0000
0110
0000
0010
0000
1010
0000
0000
1000
,
0000
0000
0001
0000
1000
0000
0100
0000
0010
0001
0010
0000
0100
0000
1000
0000
,
0001
0100
0001
0000
0100
0000
0010
0000
1000
0100
1000
0000
0001
0000
0010
0000
,
0100
1000
0100
0000
0010
0000
0001
0000
0100
0010
0100
0000
0001
0000
1000
0000
,
0010
0100
0010
0000
1000
0000
0100
0000
0010
0001
0010
0000
0100
0000
1000
0000
,
0001
0100
0010
0000
0100
0000
0001
0000
1000
0100
1000
0000
0001
0000
0010
0000
,
0001
1000
0010
0000
0100
0000
0001
0000
0100
0010
0100
0000
0001
0000
1000
0000
,
0100
0010
0100
0000
0010
0000
0001
0000
1000
0010
1000
0000
0100
0000
1000
0000
,
0001
1000
0001
0000
1001
0000
1000
0000
1010
0000
0010
0000
0110
0000
0100
0000
,
0101
0000
0001
0000
1001
0000
1000
0000
0001
0100
0001
0000
1000
0000
0100
0000
,
0010
0001
0010
0000
0001
0000
0100
0000
0010
1000
0010
0000
0100
0000
0001
0000
,
1000
0010
1000
0000
0001
0000
0100
0000
0010
1000
0010
0000
0100
0000
0001
0000
,
1000
0100
1000
0000
0001
0000
0100
0000
0010
1000
0010
0000
0100
0000
0001
0000
,
1000
0100
1000
0000
0001
0000
0010
0000
0100
1000
0100
1000
0001
0100
0010
1000
,
0100
0010
0001
0010
0100
1000
0001
0100
0010
0100
0001
0100
0010
1000
0100
0010
,
0100
1000
0001
0100
0010
1000
0001
0100
0001
0010
0100
1000
0100
1000
0100
0010
,
0001
1000
0001
0100
0020
0000
0000
0000
2030
0000
0000
0000
3200
0000
0000
0000
,
0310
0110
0000
0000
;

//---------------dance-single - ----------------
#NOTES:
     dance-single:
     :
     Easy:
     6:
     0.243378,0.313404,0.046675,0.256713,0.000000,219.000000,213.000000,6.000000,33.000000,0.000000,0.000000,0.243378,0.313404,0.046675,0.256713,0.000000,219.000000,213.000000,6.000000,33.000000,0.000000,0.000000:
0000
0000
0000
0000
,
0000
1001
0100
0010
,
0100
1000
0001
1000
,
0001
1001
0100
0010
,
0100
0010
0001
1000
,
0001
1001
0001
0010
,
0100
0010
0100
0010
,
0100
0110
0100
1000
,
0100
0020
0000
0000
,
0000
0031
0000
1000
,
0000
0100
0000
0010
,
0001
1000
0100
0010
,
0000
0001
0000
0010
,
0100
1000
0001
0100
,
0000
0010
0000
1000
,
0100
0010
0001
1000
,
0100
0020
0000
0030
,
0100
0002
0000
0003
,
0010
2000
0000
3000
,
0010
0200
0000
0300
,
1000
0020
0000
0030
,
0100
0002
0000
0003
,
0100
0020
0000
0030
,
1000
0200
0000
0300
,
0010
2000
0000
3000
,
0010
0100
0010
0001
,
1000
0100
0000
1000
,
0100
0010
0000
0100
,
0000
1000
0000
0100
,
0010
0002
0000
2003
,
0000
3200
0000
0310
,
0001
1000
0100
0010
,
0001
2002
0000
3003
,
0000
0001
1000
0100
,
0010
0001
1000
0000
,
0100
0010
0001
1000
,
0010
0100
0000
0001
,
0010
0100
1000
0001
,
0100
0010
0000
0100
,
1000
0001
0010
0100
,
1000
0020
0000
0000
,
0000
0030
1000
0100
,
0000
2000
0000
0000
0000
3200
0000
0000
,
0000
0320
0000
0000
0000
0000
0031
0000
,
0000
0001
0000
1000
,
0100
1000
0100
1000
,
0000
0200
0000
0000
0000
0320
0000
0000
,
0000
0032
0000
0000
0000
0000
1003
0000
,
0100
0010
0000
0001
,
0010
0100
1000
0100
,
0000
0020
0000
0000
0000
0230
0000
0000
,
0000
2300
0000
0000
0000
3000
0100
0000
,
0010
0001
0000
0001
,
0010
0100
1000
0100
,
0000
0020
0000
0000
0000
0032
0000
0000
,
0000
0023
0000
0000
0000
0000
0130
0000
,
1000
0100
0000
0100
,
0000
1000
0100
1000
,
0100
0010
0100
0010
,
0100
0001
0010
0001
,
0010
0001
1000
0001
,
1000
0100
0010
0100
,
0010
0001
0010
0100
,
1000
0100
0010
0001
,
0010
0100
0010
0100
,
0010
0100
1000
0100
,
0000
2000
0000
3020
,
0000
0130
0010
0001
,
0010
0100
0010
0001
,
0010
0100
0010
0001
,
0000
0200
0000
0320
,
0000
0031
1000
0100
,
0010
0200
0000
0000
,
0300
1001
0000
0000
;

//---------------dance-single - ----------------
#NOTES:
     dance-single:
     :
     Medium:
     9:
     0.380069,0.398878,0.077792,0.116688,0.000000,342.000000,332.000000,10.000000,15.000000,0.000000,0.000000,0.380069,0.398878,0.077792,0.116688,0.000000,342.000000,332.000000,10.000000,15.000000,0.000000,0.000000:
0000
0000
0000
0000
,
0000
0000
1001
0100
,
0010
0100
1000
0100
,
0010
0100
0010
0000
0001
0000
1000
0000
,
0100
0010
0001
1000
,
0001
1001
0100
0010
,
0001
1000
0100
0010
,
0100
0010
0100
0000
1000
0000
0001
0000
,
1000
2002
0000
3003
,
0000
0000
0100
0000
0010
0100
0000
1000
,
0100
1000
0000
0100
0010
0000
0100
0000
,
1000
0000
0100
0000
0010
0100
0000
0001
,
1000
0001
0000
0001
0010
0000
1000
0000
,
0001
0010
0100
0000
0100
1000
0000
1000
,
0100
1000
0000
0000
0001
0000
0010
0000
,
0100
0010
0100
0000
0100
1000
0000
0000
,
0100
1000
0100
1000
,
0001
2000
0000
3200
,
0000
0320
0000
0031
,
0010
0200
0000
1300
,
0100
0020
0000
0031
,
1000
0200
0000
0310
,
0001
2000
0000
3010
,
0100
0002
0000
0013
,
0100
2000
0000
3100
,
0010
0000
0110
0000
0100
0010
0000
0100
,
0000
1000
0000
0100
0000
0010
0100
0000
,
1000
0100
0010
0000
0100
1000
0000
0100
,
0000
0010
0000
0001
0000
1000
0010
0000
,
0100
0010
0100
0000
0001
1000
0000
0100
,
0000
1000
0000
0100
0000
0000
0001
1000
,
0001
1000
0100
0010
0100
0010
0100
0010
,
0100
0001
2000
0000
0000
0000
3200
0000
,
0000
0000
0301
0000
0010
0100
0000
0010
,
0000
0100
0000
1000
0000
0001
0010
0000
,
0100
0000
1000
0000
0100
0010
0000
0001
,
0000
1000
0000
0010
0000
0100
0001
0000
,
0010
0000
0100
0000
1000
0100
0000
0010
,
0000
0001
0000
1000
0000
0100
0010
0000
,
0001
1000
0100
0000
0100
0010
0000
0001
,
0000
1000
0000
0010
0000
0100
0010
1000
,
0000
0100
0010
0000
0001
1000
0000
0100
,
0000
0010
0000
0100
0000
1000
0001
0000
,
0100
0001
1000
0000
0100
0010
0000
0001
,
0000
1000
0000
0010
0000
0100
0010
1000
,
0000
0001
0010
0000
0100
0010
0000
0110
,
0000
1001
0000
0110
0000
0100
0010
0100
,
0000
1000
0100
0000
0010
0001
0000
0100
,
0000
1000
0000
0001
0000
0100
0001
0000
,
0010
0000
0001
0010
0001
0000
1000
0001
,
0000
0010
0000
0100
0000
1000
0100
0000
,
0010
0100
1000
0000
0100
0010
0000
0001
,
0000
1000
0000
0010
0000
0100
0001
0000
,
0010
0001
0010
0000
0100
1000
0000
0100
,
0000
0010
0000
0001
0000
1000
0001
0000
,
0100
0010
0100
0000
0001
1000
0000
0010
,
0000
0100
0000
0001
0000
1000
0000
0100
,
0000
0000
0001
0010
0001
0000
0010
0001
,
0010
0000
0001
1000
0001
0000
0100
0010
,
0100
0000
0001
0010
0001
0000
0010
1000
,
0010
0000
0100
0010
0001
0000
0001
0010
,
0100
0000
1000
0100
0010
0000
0010
0100
,
1000
0000
0001
0100
1000
0000
1000
0100
,
0001
0000
1000
0010
0001
0000
0001
0010
,
1000
0001
1000
0001
,
0010
0000
0100
0000
1000
0100
0000
0010
,
0100
0000
0100
0000
1000
0100
0000
0010
,
0000
0000
0001
0000
1000
0100
0000
0010
,
0100
0010
0000
0001
0010
0001
0000
0100
,
1000
0100
0010
0000
0100
1000
0000
0001
,
0010
0000
0001
0000
1000
0001
0000
0010
,
0000
0000
0110
0000
0100
0010
0000
0100
,
0010
0100
0000
2002
0000
0000
0000
3003
,
0000
0110
0000
0000
;
