#VERSION:0.83;
#TITLE:Zenox;
#SUBTITLE:(Euro Mix);
#ARTIST:Tony Thai (Mixed by Dave Phaneuf);
#TITLETRANSLIT:;
#SUBTITLETRANSLIT:;
#ARTISTTRANSLIT:;
#GENRE:;
#ORIGIN:;
#CREDIT:;
#BANNER:zenoxeuro bn.png;
#BACKGROUND:zenoxeuro bg.png;
#PREVIEWVID:;
#JACKET:;
#CDIMAGE:;
#DISCIMAGE:;
#LYRICSPATH:;
#CDTITLE:;
#MUSIC:Zenox (Euromix).mp3;
#OFFSET:-0.095000;
#SAMPLESTART:12.408000;
#SAMPLELENGTH:12.000000;
#SELECTABLE:YES;
#BPMS:0.000=165.000;
#STOPS:;
#DELAYS:;
#WARPS:;
#TIMESIGNATURES:0.000=4=4;
#TICKCOUNTS:0.000=4;
#COMBOS:0.000=1;
#SPEEDS:0.000=1.000=0.000=0;
#SCROLLS:0.000=1.000;
#FAKES:;
#LABELS:0.000=Song Start;
#BGCHANGES:;
#KEYSOUNDS:;
#ATTACKS:
;

//---------------dance-single - ----------------
#NOTEDATA:;
#CHARTNAME:;
#STEPSTYPE:dance-single;
#DESCRIPTION:;
#CHARTSTYLE:;
#DIFFICULTY:Easy;
#METER:4;
#RADARVALUES:0.363461,0.471026,0.343815,0.000000,0.000000,259.000000,224.000000,35.000000,0.000000,0.000000,0.000000,0.000000,0.000000,0.000000,0.363461,0.471026,0.343815,0.000000,0.000000,259.000000,224.000000,35.000000,0.000000,0.000000,0.000000,0.000000,0.000000,0.000000;
#CREDIT:;
#NOTES:
// measure 0
0000
0000
0000
0000
,  // measure 1
0000
0000
0000
0000
,  // measure 2
0000
0000
0000
0000
,  // measure 3
0000
0000
0000
0000
,  // measure 4
0000
0000
0010
0000
,  // measure 5
0010
0000
1000
1000
,  // measure 6
0001
0001
0100
0100
,  // measure 7
0101
0000
1000
1100
,  // measure 8
0001
0101
1001
1000
,  // measure 9
0010
0001
0010
1000
,  // measure 10
0100
0001
0010
0010
,  // measure 11
0001
0000
0100
1000
,  // measure 12
0001
0100
1001
1000
,  // measure 13
0010
0010
0001
0010
,  // measure 14
0100
0100
0001
0100
,  // measure 15
1000
0000
1000
0101
,  // measure 16
0001
1100
1001
1000
,  // measure 17
0010
0010
0001
0010
,  // measure 18
0100
0000
0001
0001
,  // measure 19
1000
0000
0010
0100
,  // measure 20
0101
1100
1001
0100
,  // measure 21
0100
1010
0001
0101
,  // measure 22
1000
0011
0100
0100
,  // measure 23
0010
0000
1100
0101
,  // measure 24
1100
0101
1001
0100
,  // measure 25
1000
0100
0001
0100
,  // measure 26
1000
0100
1001
0100
,  // measure 27
1000
0100
0001
0100
,  // measure 28
1000
0100
1001
0010
,  // measure 29
1000
0010
0001
0010
,  // measure 30
1000
0010
1001
0010
,  // measure 31
1000
0010
0001
0010
,  // measure 32
1000
0010
1001
0000
,  // measure 33
1000
0000
0010
0000
,  // measure 34
0100
0000
0001
0000
,  // measure 35
0100
0000
1000
0000
,  // measure 36
0100
0000
0010
0000
,  // measure 37
0010
0000
0100
0000
,  // measure 38
0100
0000
0001
0000
,  // measure 39
0001
0000
1000
0010
,  // measure 40
0100
0001
0010
0010
,  // measure 41
0100
0100
1000
0100
,  // measure 42
0001
0100
0010
0010
,  // measure 43
0001
0001
0100
0001
,  // measure 44
1100
0101
1001
0001
,  // measure 45
1001
1000
0010
0100
,  // measure 46
0001
0100
1001
0001
,  // measure 47
1001
1000
0100
0010
,  // measure 48
0100
0010
1100
1000
,  // measure 49
0101
0001
0100
0010
,  // measure 50
0100
0010
0101
0001
,  // measure 51
1100
1000
0010
0100
,  // measure 52
0010
0100
1001
0100
,  // measure 53
0000
0000
0001
0000
1000
0000
0000
0001
,  // measure 54
0000
0010
0100
0001
,  // measure 55
0100
1000
0100
0001
,  // measure 56
0100
1000
1001
0100
,  // measure 57
0000
0000
0001
0000
0010
0000
0000
0100
,  // measure 58
0000
1000
0100
0001
,  // measure 59
0100
1000
0100
0001
,  // measure 60
0100
1000
0100
0000
,  // measure 61
0001
0000
0010
0000
0100
0000
0000
1000
,  // measure 62
0000
0001
0010
0000
,  // measure 63
0100
0000
0001
0000
,  // measure 64
1000
0000
1000
0010
,  // measure 65
1000
0000
0100
0000
0001
0000
0000
1000
,  // measure 66
0000
0100
0010
0010
,  // measure 67
0010
0010
0100
0100
,  // measure 68
0100
0100
0010
0000
;

//---------------dance-single - ----------------
#NOTEDATA:;
#CHARTNAME:;
#STEPSTYPE:dance-single;
#DESCRIPTION:;
#CHARTSTYLE:;
#DIFFICULTY:Medium;
#METER:6;
#RADARVALUES:0.468711,0.538316,0.412578,0.000000,0.000000,334.000000,292.000000,42.000000,0.000000,0.000000,0.000000,0.000000,0.000000,0.000000,0.468711,0.538316,0.412578,0.000000,0.000000,334.000000,292.000000,42.000000,0.000000,0.000000,0.000000,0.000000,0.000000,0.000000;
#CREDIT:;
#NOTES:
// measure 0
0000
0000
0000
0000
,  // measure 1
0000
0000
0000
0000
,  // measure 2
0000
0000
0000
0000
,  // measure 3
0000
0000
0000
0000
,  // measure 4
0000
0000
0010
0010
,  // measure 5
0010
0100
0001
0000
0010
0000
0010
0000
,  // measure 6
0010
0100
1000
0000
0100
0000
0100
0000
,  // measure 7
0100
0010
0001
0000
0100
0000
0100
0000
,  // measure 8
0100
0010
1000
0000
1000
0000
1100
0000
,  // measure 9
0001
0101
1000
1100
,  // measure 10
0001
0101
1000
1010
,  // measure 11
0001
0011
1000
1010
,  // measure 12
0001
0011
0100
0110
,  // measure 13
1000
1001
0010
0110
,  // measure 14
0001
1001
0010
1010
,  // measure 15
1000
1010
0001
0101
,  // measure 16
0100
0000
0101
0000
1000
0100
0001
0000
,  // measure 17
1000
0100
0001
0000
1000
0000
1000
0000
,  // measure 18
1000
0000
1000
0000
0001
0100
1000
0000
,  // measure 19
0001
0100
1000
0000
0001
0000
0001
0000
,  // measure 20
0001
0000
0001
0000
1000
0100
0001
0000
,  // measure 21
1000
0000
1000
0000
1000
0100
0001
0000
,  // measure 22
1000
0000
1000
0000
0001
0100
1000
0000
,  // measure 23
0001
0000
0001
0000
0001
0100
1000
0000
,  // measure 24
0001
0001
1001
0110
,  // measure 25
1000
0100
0001
0100
1000
0000
0110
0000
,  // measure 26
0001
0100
1000
0100
0001
0000
0110
0000
,  // measure 27
1000
0010
0001
0010
1000
0000
0110
0000
,  // measure 28
0001
0010
1000
0010
0001
0000
0001
0000
,  // measure 29
1000
1000
0100
0100
,  // measure 30
0010
0000
0010
0000
0001
0010
0100
0000
,  // measure 31
1000
0010
0100
0000
0001
0010
0100
1000
,  // measure 32
0010
0100
0001
0000
1000
0000
0000
0000
,  // measure 33
1000
0000
0010
0000
,  // measure 34
0010
0000
0100
0000
,  // measure 35
0100
0000
0001
0000
,  // measure 36
0001
0000
0010
0010
,  // measure 37
1000
1000
0100
0100
,  // measure 38
1000
1000
0010
0010
,  // measure 39
0001
0001
0100
0100
,  // measure 40
0001
0001
0010
1001
,  // measure 41
0010
1001
0100
1001
,  // measure 42
0100
0000
1001
0000
1000
0100
0001
0000
,  // measure 43
0001
0100
1000
0000
1000
0000
1000
0000
,  // measure 44
0001
0001
0001
0000
1000
0010
0100
0000
,  // measure 45
0001
0000
0001
0000
0001
0010
0100
0000
,  // measure 46
1000
0000
1000
0000
1000
0010
0100
0000
,  // measure 47
0001
0000
0001
0000
0001
0010
0100
0000
,  // measure 48
1000
0000
1000
0000
0010
1000
0010
0000
,  // measure 49
1010
0000
0011
0000
0001
0010
0001
0000
,  // measure 50
0011
0000
0101
0000
0100
0001
0100
0000
,  // measure 51
0101
0000
1100
0000
1000
0100
1000
0000
,  // measure 52
1100
1010
1001
1000
,  // measure 53
0001
0010
0100
1000
0010
0000
0000
0100
,  // measure 54
0000
0001
1000
1000
,  // measure 55
0001
0000
0001
0000
1000
0010
0100
0000
,  // measure 56
0001
0010
0100
0000
1001
0000
1000
0000
,  // measure 57
0001
0010
0100
1000
0010
0000
0000
0100
,  // measure 58
0000
0001
1000
0100
,  // measure 59
0001
0100
1000
0100
,  // measure 60
0001
0000
0100
0000
1000
0010
0100
0000
,  // measure 61
0001
0010
0100
1000
0010
0000
0000
0100
,  // measure 62
0000
1000
1001
0010
,  // measure 63
0100
0100
0010
0001
,  // measure 64
0010
0000
1001
0000
1000
0100
0001
0000
,  // measure 65
1001
0000
0100
0000
1001
0000
0000
0110
,  // measure 66
0000
0000
1001
0000
1000
0000
0001
0100
,  // measure 67
1000
0100
0110
0010
,  // measure 68
0100
0001
0100
0000
;

//---------------dance-single - ----------------
#NOTEDATA:;
#CHARTNAME:;
#STEPSTYPE:dance-single;
#DESCRIPTION:;
#CHARTSTYLE:;
#DIFFICULTY:Hard;
#METER:8;
#RADARVALUES:0.603430,0.639250,0.216112,0.000000,0.078586,430.000000,408.000000,22.000000,0.000000,0.000000,0.000000,0.000000,0.000000,0.000000,0.603430,0.639250,0.216112,0.000000,0.078586,430.000000,408.000000,22.000000,0.000000,0.000000,0.000000,0.000000,0.000000,0.000000;
#CREDIT:;
#NOTES:
// measure 0
0000
0000
0000
0000
,  // measure 1
0000
0000
0000
0000
,  // measure 2
0000
0000
0000
0000
,  // measure 3
0000
0000
0000
0000
,  // measure 4
0000
0000
0000
0000
0010
1000
0100
0010
,  // measure 5
0001
0100
0010
1000
0100
0010
0001
1000
,  // measure 6
0010
0100
0001
1000
0010
1000
0100
0010
,  // measure 7
0001
1000
0100
1000
0001
0010
0100
1000
,  // measure 8
0100
0000
0001
0000
0100
0000
1000
0000
0010
0000
0000
1000
0000
0000
0001
0000
,  // measure 9
0100
0000
0000
0010
0000
0000
1000
0000
0010
0000
0000
0001
0000
0000
0010
0000
,  // measure 10
0100
0000
0000
0001
0000
0000
1000
0000
0001
0000
0000
0001
0000
0000
0001
0000
,  // measure 11
1000
0000
0000
1000
0000
0000
1000
0000
0010
0000
0000
0010
0000
0000
0010
0000
,  // measure 12
0100
0000
0000
0100
0000
0000
0100
0000
1000
0000
0000
1100
0000
0000
1000
0000
,  // measure 13
0001
0000
0000
0101
0000
0000
0001
0000
1000
0000
0000
1010
0000
0000
1000
0000
,  // measure 14
0001
0000
0000
0011
0000
0000
0001
0000
0010
0000
0000
0010
0000
0000
0010
0000
,  // measure 15
1000
0000
0000
1000
0000
0000
1000
0000
0100
0000
0000
0100
0000
0000
0100
0000
,  // measure 16
0001
0000
0000
0001
0000
0000
0001
0000
1000
0000
0100
0000
0001
0000
0100
0000
,  // measure 17
1000
0100
0001
0000
0100
1000
0010
1000
,  // measure 18
0100
1000
0010
0000
0100
0001
0010
0001
,  // measure 19
0100
0001
0010
0000
0001
0100
1000
0100
,  // measure 20
0001
0100
1000
0000
0010
0010
1000
0000
,  // measure 21
0010
0010
0100
0000
0001
0001
0010
0000
,  // measure 22
0100
0100
1000
0000
0010
1000
1010
0000
,  // measure 23
0001
0100
0101
0000
0100
0010
0110
0000
,  // measure 24
1000
0001
1001
0001
1001
0100
1000
0000
,  // measure 25
1001
0001
0100
1000
1000
0100
0001
0000
,  // measure 26
1001
0001
0100
1000
1000
0100
0001
0000
,  // measure 27
0010
1000
0100
1000
0010
0010
0010
0000
,  // measure 28
0001
0100
0010
0000
1001
1000
0100
0000
,  // measure 29
1001
0001
0100
1000
1000
0100
0001
0000
,  // measure 30
1001
0001
0100
1000
1000
0100
0001
0000
,  // measure 31
1100
1000
0001
1000
1000
0010
0011
0000
,  // measure 32
0010
1001
0010
1000
,  // measure 33
0010
1000
0100
0010
0001
0001
0100
1000
,  // measure 34
0100
0000
0010
0010
1000
0000
1000
0000
,  // measure 35
0001
0000
0001
0000
0100
0010
1000
0100
,  // measure 36
0010
0001
0100
0010
1000
0000
1000
0000
,  // measure 37
0001
0000
0001
0000
0010
0010
0010
0000
,  // measure 38
0100
0100
0100
0000
0001
0000
1000
0000
,  // measure 39
0001
0100
1000
0100
0001
0100
0010
0010
,  // measure 40
0010
0001
1000
0100
1001
0100
0001
0000
,  // measure 41
0001
0100
1000
0000
1000
0100
0001
0000
,  // measure 42
0001
0100
1000
0000
0100
0010
1000
0000
,  // measure 43
0010
0100
0001
0000
0001
0000
1000
0000
,  // measure 44
0001
0000
1000
0000
1001
0000
0010
1000
,  // measure 45
0010
0000
0010
0001
0100
0000
0001
1000
,  // measure 46
0001
0000
0100
0010
0001
0000
0100
1000
,  // measure 47
0100
0000
0001
0010
0001
0000
0100
0001
,  // measure 48
0100
0000
0100
1000
0100
0000
0001
1000
,  // measure 49
0001
0000
0010
0100
0010
0000
0001
1000
,  // measure 50
0001
0000
0100
0010
0100
0000
0001
1000
,  // measure 51
1000
0000
1000
0001
0001
0000
0010
0010
,  // measure 52
0100
0000
0001
0100
0001
0100
0010
1000
,  // measure 53
0100
0000
1000
0001
0100
0010
1000
0100
,  // measure 54
0010
0000
1000
0010
0100
0001
0010
0100
,  // measure 55
1000
0000
0001
0100
0001
1000
0010
1000
,  // measure 56
0001
0000
0100
0010
1000
0100
0010
0001
,  // measure 57
1000
0000
0100
0010
1000
0001
1000
0001
,  // measure 58
0100
0000
1001
0000
1010
0010
1000
0000
,  // measure 59
0101
0001
0100
0000
1000
1000
0001
0001
,  // measure 60
1000
1000
0001
0001
0010
0000
1000
0000
,  // measure 61
0100
0000
0001
0000
0100
0000
0000
0010
,  // measure 62
0000
1000
0001
0001
,  // measure 63
0001
0001
1000
1000
,  // measure 64
1000
0000
1000
0000
0010
1000
0100
1000
,  // measure 65
0010
1000
0100
1000
0001
0100
0001
0010
,  // measure 66
0001
0100
0001
0010
0100
1000
0010
1000
,  // measure 67
0001
0100
0010
1000
0100
0010
0001
1000
,  // measure 68
0010
0100
0001
1000
0100
0000
0000
0000
;
