#TITLE:Zenox;
#SUBTITLE:(DWI Version);
#ARTIST:Tony Thai;
#TITLETRANSLIT:;
#SUBTITLETRANSLIT:;
#ARTISTTRANSLIT:;
#GENRE:;
#CREDIT:;
#BANNER:Zenox DWI bn.png;
#BACKGROUND:Zenox DWI bg.png;
#LYRICSPATH:;
#CDTITLE:;
#MUSIC:Zenox DWI.mp3;
#OFFSET:-0.050000;
#SAMPLESTART:38.880001;
#SAMPLELENGTH:12.000000;
#SELECTABLE:YES;
#BPMS:0.000000=148.000000
,160.000000=74.000000
,168.000000=148.000000
,264.000000=74.000000
;
#STOPS:
;
#BGCHANGES:;
#KEYSOUNDS:;
#ATTACKS:;

//---------------dance-single - ----------------
#NOTES:
     dance-single:
     :
     Easy:
     1:
     0.113066,0.139125,0.000000,0.000000,0.000000,96.000000,96.000000,0.000000,0.000000,0.000000,0.000000,0.113066,0.139125,0.000000,0.000000,0.000000,96.000000,96.000000,0.000000,0.000000,0.000000,0.000000:
// measure 0
0000
0000
0000
0000
,  // measure 1
0000
0000
0000
0000
,  // measure 2
0000
0000
0000
0000
,  // measure 3
0000
0000
0000
0000
,  // measure 4
1000
0000
0000
0000
,  // measure 5
0000
0000
0000
0000
,  // measure 6
0001
0000
0000
0000
,  // measure 7
0000
0000
0000
0000
,  // measure 8
0010
0000
0000
0000
,  // measure 9
0100
0000
0000
0000
,  // measure 10
0010
0000
0000
0000
,  // measure 11
0100
0000
0000
0000
,  // measure 12
0001
0000
0000
0000
,  // measure 13
1000
0000
0000
0000
,  // measure 14
0001
0000
0000
0000
,  // measure 15
1000
0000
0000
0000
,  // measure 16
0010
0000
0000
0000
,  // measure 17
1000
0000
0000
0000
,  // measure 18
0100
0000
0000
0000
,  // measure 19
0001
0000
0000
0000
,  // measure 20
0100
0000
0000
0000
,  // measure 21
1000
0000
0000
0000
,  // measure 22
0010
0000
0000
0000
,  // measure 23
1000
0000
0000
0000
,  // measure 24
0010
0000
0010
0000
,  // measure 25
0001
0000
0001
0000
,  // measure 26
1000
0000
1000
0000
,  // measure 27
0100
0000
0100
0000
,  // measure 28
0001
0000
0001
0000
,  // measure 29
0010
0000
0010
0000
,  // measure 30
1000
0000
1000
0000
,  // measure 31
0100
0000
0100
0000
,  // measure 32
0010
0000
1000
0000
,  // measure 33
0100
0000
1000
0000
,  // measure 34
0010
0000
0001
0000
,  // measure 35
0100
0000
0001
0000
,  // measure 36
0010
0000
1000
0000
,  // measure 37
0100
0000
1000
0000
,  // measure 38
0010
0000
0100
0000
,  // measure 39
0001
0000
1000
0000
,  // measure 40
0010
0000
0000
0000
,  // measure 41
0010
0000
0000
0000
,  // measure 42
0100
0000
0100
0000
,  // measure 43
0010
0000
0010
0000
,  // measure 44
0100
0000
0100
0000
,  // measure 45
0010
0000
0010
0000
,  // measure 46
0001
0001
0000
0000
,  // measure 47
1000
1000
0000
0000
,  // measure 48
0001
0001
0000
0000
,  // measure 49
1000
1000
0000
0000
,  // measure 50
0010
0010
0000
0000
,  // measure 51
0100
0100
0000
0000
,  // measure 52
0010
0010
0000
0000
,  // measure 53
0100
0100
0000
0000
,  // measure 54
0001
0000
0000
0000
,  // measure 55
1000
0000
1000
0000
,  // measure 56
0001
0000
0000
0000
,  // measure 57
1000
0000
0000
0000
,  // measure 58
0010
0000
0000
0000
,  // measure 59
0100
0000
0010
0000
,  // measure 60
0100
0000
0000
0000
,  // measure 61
0010
0000
0000
0000
,  // measure 62
0001
0000
0000
0000
,  // measure 63
0100
0000
0010
0000
,  // measure 64
1000
0000
0000
0000
,  // measure 65
1000
0000
0000
0000
,  // measure 66
0001
0000
0010
0100
,  // measure 67
1000
0000
0010
0000
;

//---------------dance-single - ----------------
#NOTES:
     dance-single:
     :
     Medium:
     3:
     0.256755,0.278250,0.041222,0.000000,0.004122,218.000000,213.000000,5.000000,0.000000,0.000000,0.000000,0.256755,0.278250,0.041222,0.000000,0.004122,218.000000,213.000000,5.000000,0.000000,0.000000,0.000000:
// measure 0
0000
0000
0000
0000
,  // measure 1
0000
0000
0000
0000
,  // measure 2
0000
0000
0000
0000
,  // measure 3
0000
0000
0000
0000
,  // measure 4
1000
0000
1000
0000
,  // measure 5
0001
0000
0001
0000
,  // measure 6
0100
0000
0100
0000
,  // measure 7
0010
0000
0010
0000
,  // measure 8
0001
0001
1000
1000
,  // measure 9
0100
0100
0010
0010
,  // measure 10
0001
0001
1000
1000
,  // measure 11
0010
0010
0100
0100
,  // measure 12
0001
0100
1000
0100
,  // measure 13
0001
0100
1000
0100
,  // measure 14
0001
0010
1000
0010
,  // measure 15
0001
0010
1000
0010
,  // measure 16
1001
0100
0000
0010
,  // measure 17
0001
0001
1000
1000
,  // measure 18
0010
0100
0000
0001
,  // measure 19
0100
0100
1000
1000
,  // measure 20
0100
0010
0000
0001
,  // measure 21
0010
0010
0100
0100
,  // measure 22
1000
0001
0000
0010
,  // measure 23
0100
0100
1000
1000
,  // measure 24
0001
0000
0100
1000
,  // measure 25
0100
0010
0010
0001
,  // measure 26
1000
0000
0010
0010
,  // measure 27
0001
1000
0001
0100
,  // measure 28
0010
0000
0001
0001
,  // measure 29
1000
0000
0100
0010
,  // measure 30
0001
0001
1000
1000
,  // measure 31
0100
0100
0010
0010
,  // measure 32
1001
1000
0001
0001
,  // measure 33
1000
1000
0001
0001
,  // measure 34
0100
0001
1000
0010
,  // measure 35
0100
0001
0010
1000
,  // measure 36
1000
0100
0001
0000
,  // measure 37
1000
0100
0001
0000
,  // measure 38
0001
0100
1000
0000
,  // measure 39
0001
0100
1000
0100
,  // measure 40
1001
0000
1000
0000
,  // measure 41
0001
0001
1000
1000
,  // measure 42
0010
0010
0010
0010
,  // measure 43
0100
0100
0100
0100
,  // measure 44
0001
0001
0001
0001
,  // measure 45
1000
1000
1000
1000
,  // measure 46
0001
0100
0001
0100
,  // measure 47
0010
1000
0010
1000
,  // measure 48
0001
0100
0001
0100
,  // measure 49
0010
1000
0010
1000
,  // measure 50
0001
1000
0001
1000
,  // measure 51
0010
0100
0010
0100
,  // measure 52
0001
1000
0001
1000
,  // measure 53
0100
0010
0100
0010
,  // measure 54
1000
0000
0000
0010
,  // measure 55
0001
0000
0000
1000
0000
0000
0100
0000
,  // measure 56
0001
0000
1000
0000
,  // measure 57
0001
0000
1000
0000
,  // measure 58
0010
0000
0000
0010
,  // measure 59
0001
0000
0000
1000
0000
0000
0100
0000
,  // measure 60
0010
0000
0010
0000
,  // measure 61
0100
0000
0100
0000
,  // measure 62
0001
0000
0000
1000
,  // measure 63
1000
0000
0000
0001
0000
0000
0010
0000
,  // measure 64
0100
0000
0100
0000
,  // measure 65
0100
0000
0100
0000
,  // measure 66
1001
0000
0000
0000
0000
0000
1000
0000
0001
0000
0000
1000
0000
0000
0001
0000
,  // measure 67
1000
0000
1001
0000
;

//---------------dance-single - ----------------
#NOTES:
     dance-single:
     :
     Hard:
     7:
     0.453444,0.584324,0.181377,0.000000,0.090689,385.000000,363.000000,22.000000,0.000000,0.000000,0.000000,0.453444,0.584324,0.181377,0.000000,0.090689,385.000000,363.000000,22.000000,0.000000,0.000000,0.000000:
// measure 0
0000
0000
0000
0000
,  // measure 1
0000
0000
0000
0000
,  // measure 2
0000
0000
0000
0000
,  // measure 3
0000
0000
0000
0000
,  // measure 4
0010
1000
0000
0001
0100
0000
0010
1000
,  // measure 5
0100
0010
0000
0001
0100
0000
0010
1000
,  // measure 6
0001
1000
0100
0000
0001
0001
0000
1000
,  // measure 7
0010
1000
0000
0001
0100
0010
1000
0001
,  // measure 8
0010
0000
1000
0000
0001
0000
0100
0010
,  // measure 9
1000
0000
0001
0000
1000
0000
0010
0010
,  // measure 10
0010
0000
0100
0000
0001
0000
1000
0100
,  // measure 11
0010
0000
0001
0000
1000
0000
0100
0100
,  // measure 12
0100
1000
0001
0000
0010
0000
0010
0100
,  // measure 13
0001
1000
0000
1000
0001
0000
0001
0100
,  // measure 14
1000
0100
0001
0000
0001
0000
0001
0000
,  // measure 15
0001
0000
0001
0100
1000
0100
0001
0100
,  // measure 16
1000
0000
0000
1000
0000
0000
1000
0000
0000
0000
0001
0000
0001
0000
0000
0000
,  // measure 17
0100
0000
0000
0100
0000
0000
0100
0000
0000
0000
0010
0000
0010
0000
0010
0000
,  // measure 18
1000
0000
0000
0001
0000
0000
1000
0000
0000
0000
0001
0000
1000
0000
0000
0000
,  // measure 19
0100
0000
0000
0010
0000
0000
0100
0000
0000
0000
0010
0000
0100
0000
0010
0000
,  // measure 20
1001
0100
1000
0001
,  // measure 21
1001
1000
1000
0001
,  // measure 22
1001
0010
0100
0010
,  // measure 23
1001
1000
0001
0001
,  // measure 24
1000
0000
0000
0010
0000
0000
0100
0000
0001
0000
0000
0010
0000
0000
0100
0000
,  // measure 25
1000
0000
0000
1000
0000
0000
1000
0000
0001
0000
0000
0001
0000
0000
0001
0000
,  // measure 26
0010
0000
0000
0010
0000
0000
0010
0000
0100
0000
0000
0100
0000
0000
0100
0000
,  // measure 27
0001
0000
0000
0001
0000
0000
0001
0000
1000
0000
0000
1000
0000
0000
1000
0000
,  // measure 28
0001
0000
0000
0100
0000
0000
1000
0000
0100
0000
0000
0001
0000
0000
0100
0000
,  // measure 29
1000
0000
0000
0100
0000
0000
0001
0000
0100
0000
0000
1000
0000
0000
0100
0000
,  // measure 30
0001
0000
0000
0010
0000
0000
1000
0000
0010
0000
0000
0001
0000
0000
0010
0000
,  // measure 31
1000
0000
0000
0010
0000
0000
0001
0000
0010
0000
0000
1000
0000
0000
0010
0000
,  // measure 32
0010
0100
0010
0000
0001
1000
0001
0000
,  // measure 33
0010
0100
0010
0000
0001
1000
0001
0000
,  // measure 34
1000
0100
0001
0000
0100
1000
0010
0000
,  // measure 35
1000
0100
0001
0000
0100
1000
0010
0000
,  // measure 36
0001
0001
0001
0000
1000
1000
1000
0000
,  // measure 37
0001
0001
0001
0000
1000
1000
1000
0000
,  // measure 38
0010
0010
0010
0000
0100
0100
0100
0000
,  // measure 39
0010
0010
0010
0001
1000
0100
0100
0100
,  // measure 40
1001
1000
1000
1000
0110
0100
0100
0100
,  // measure 41
1001
0001
0001
0001
0110
0010
0010
0010
,  // measure 42
0010
0100
1000
0100
0010
0100
1000
0100
,  // measure 43
0010
0100
1000
0100
0010
0100
1000
0100
,  // measure 44
0010
0100
0001
0100
0010
0100
0001
0100
,  // measure 45
0010
0100
0001
0100
0010
0100
0001
0100
,  // measure 46
1001
0000
1000
0000
0100
0001
0010
0001
,  // measure 47
0100
0000
0001
0000
1000
0000
0001
0010
,  // measure 48
0100
0000
0001
0000
1000
0010
0100
0001
,  // measure 49
0010
0000
0100
0000
0100
0100
0100
0100
,  // measure 50
0010
0000
1000
0000
0001
0010
0001
1000
,  // measure 51
0100
0001
1000
1001
,  // measure 52
0110
0110
1001
1000
,  // measure 53
0001
0001
1000
1000
0001
0001
1000
1000
,  // measure 54
1001
0110
1001
1000
,  // measure 55
0100
0100
0100
0010
0000
0000
0001
0000
,  // measure 56
1001
1000
1000
0100
,  // measure 57
0100
0000
0100
0000
0001
0001
1000
1000
,  // measure 58
1001
0000
1000
0000
0001
0001
0010
0010
,  // measure 59
0100
0000
0000
0001
0000
0000
1000
0000
,  // measure 60
1001
1000
0001
0001
,  // measure 61
1000
0100
0001
0100
1000
0100
0001
0100
,  // measure 62
1000
0000
0001
0000
0001
0000
1000
0010
,  // measure 63
0100
0000
0000
0001
0000
0000
0010
0000
,  // measure 64
1001
1000
1000
1000
,  // measure 65
0001
0001
0001
0100
,  // measure 66
1000
0001
1000
0000
0000
0000
0100
0000
0010
0000
0000
0001
0000
0000
0100
0000
,  // measure 67
1001
0000
1001
0000
;
