#TITLE:Young Forever;
#SUBTITLE:(D.P. D21 Mix);
#ARTIST:Rebecca;
#TITLETRANSLIT:;
#SUBTITLETRANSLIT:;
#ARTISTTRANSLIT:;
#GENRE:;
#CREDIT:;
#BANNER:YoungforeverDpd21 bn.png;
#BACKGROUND:YoungforeverDpd21 bg.png;
#LYRICSPATH:;
#CDTITLE:;
#MUSIC:Rebecca - Young Forever (D.P. D21 Mix).mp3;
#OFFSET:-1.590000;
#SAMPLESTART:57.070000;
#SAMPLELENGTH:12.000000;
#SELECTABLE:YES;
#BPMS:0.000000=160.000000
;
#STOPS:
;
#BGCHANGES:;
#KEYSOUNDS:;
#ATTACKS:;

//---------------dance-single - ----------------
#NOTES:
     dance-single:
     :
     Easy:
     4:
     0.333627,0.389758,0.147277,0.315593,0.000000,222.000000,208.000000,14.000000,30.000000,0.000000,0.000000,0.333627,0.389758,0.147277,0.315593,0.000000,222.000000,208.000000,14.000000,30.000000,0.000000,0.000000:
// measure 0
0000
0000
0000
0000
,  // measure 1
0000
0000
0000
0000
,  // measure 2
0000
0000
0000
0000
,  // measure 3
0000
0000
0000
0000
,  // measure 4
1001
0000
0010
0100
0010
0000
0000
0000
,  // measure 5
1000
0100
1000
0010
,  // measure 6
1001
0000
0010
0100
0010
0000
1000
0000
,  // measure 7
0001
0100
0001
0010
,  // measure 8
1001
0000
0100
0010
0100
0000
0000
0000
,  // measure 9
0010
0100
0010
0001
,  // measure 10
1001
0000
0100
0010
0100
0000
1000
0000
,  // measure 11
0001
0100
0010
1000
,  // measure 12
0200
0000
0000
0300
,  // measure 13
1001
0100
0020
0030
,  // measure 14
0001
0100
0001
0010
,  // measure 15
0100
1000
0020
0030
,  // measure 16
1000
0100
0010
0001
,  // measure 17
0100
0010
2000
3000
,  // measure 18
0010
0100
0001
0010
,  // measure 19
0100
0010
0002
0003
,  // measure 20
1000
0010
0110
0110
,  // measure 21
1000
0100
0001
0100
,  // measure 22
1000
0100
0001
0100
,  // measure 23
1000
0010
0001
0010
,  // measure 24
1000
0010
0001
0010
,  // measure 25
1000
0100
0010
0001
,  // measure 26
0100
0001
0010
0100
,  // measure 27
1000
0100
1000
0001
,  // measure 28
0100
0001
0010
0100
,  // measure 29
1001
0000
1000
0001
0000
0000
0001
0000
,  // measure 30
1001
0000
0010
0100
0000
0000
0010
0000
,  // measure 31
0001
0101
1000
1010
,  // measure 32
0010
0110
0000
0010
,  // measure 33
1001
0000
0000
1000
0000
0100
0000
0010
,  // measure 34
0000
0001
0000
2000
0000
3000
0000
0100
,  // measure 35
0010
0000
0000
0001
0000
0001
0000
1000
,  // measure 36
0020
0000
0000
0030
,  // measure 37
2000
0000
0000
3002
0000
0000
0003
0000
,  // measure 38
1000
0000
0000
0010
0000
0100
0000
0200
,  // measure 39
0000
0000
0000
0002
0000
0000
0303
0000
,  // measure 40
2000
3001
0002
1003
,  // measure 41
0002
0000
0000
2003
0000
0000
3000
0000
,  // measure 42
0001
0000
0000
0010
0000
0100
0000
0200
,  // measure 43
0000
0000
0000
2000
0000
0000
3300
0000
,  // measure 44
0002
1003
2000
3001
,  // measure 45
2000
0000
0000
3020
0000
0000
0030
0100
,  // measure 46
0001
0000
0001
1000
0000
0001
0000
0200
,  // measure 47
0000
0000
0000
0020
0000
0000
0330
0000
,  // measure 48
2000
3001
0002
1003
,  // measure 49
0002
0000
0000
0023
0000
0000
0030
0100
,  // measure 50
1000
0000
1000
0001
0000
1000
0000
0200
,  // measure 51
0000
0000
0000
0020
0000
0000
0330
0000
,  // measure 52
0001
0100
1000
0010
,  // measure 53
1001
0000
0100
1000
0001
0000
0100
0000
,  // measure 54
0001
0001
1000
1000
,  // measure 55
0001
0000
0100
0001
1000
0000
0100
0000
,  // measure 56
1000
1000
0001
0001
,  // measure 57
0010
0000
1000
0100
0001
0000
1000
0000
,  // measure 58
0010
0010
0100
0100
,  // measure 59
0010
0000
0001
0100
1000
0000
0001
0000
,  // measure 60
0010
0000
0010
0000
0100
0000
0100
0010
,  // measure 61
0200
0000
0000
0300
;

//---------------dance-single - ----------------
#NOTES:
     dance-single:
     :
     Medium:
     6:
     0.446339,0.487197,0.210396,0.326113,0.021040,297.000000,277.000000,20.000000,31.000000,0.000000,0.000000,0.446339,0.487197,0.210396,0.326113,0.021040,297.000000,277.000000,20.000000,31.000000,0.000000,0.000000:
// measure 0
0000
0000
0000
0000
,  // measure 1
0000
0000
0000
0000
,  // measure 2
0000
0000
0000
0000
,  // measure 3
0000
0000
0000
0000
,  // measure 4
0001
0000
0001
0000
0001
1000
0100
0010
,  // measure 5
0001
0000
1000
0000
0001
0000
0100
0010
,  // measure 6
1000
0000
1000
0000
1000
0001
0010
0100
,  // measure 7
1000
0000
0001
0000
1000
0000
0100
0010
,  // measure 8
0001
0000
0011
0000
0001
1000
0100
0010
,  // measure 9
0100
0000
0110
0000
0010
0000
0100
0010
,  // measure 10
1000
0000
1010
0000
1000
0001
0100
0010
,  // measure 11
0100
0000
0110
0000
0010
0000
0100
0010
,  // measure 12
1000
0000
0000
0001
0000
0000
1000
0000
0000
0001
0000
0000
1000
0000
0001
0000
,  // measure 13
1001
0000
0010
1000
0000
0100
0000
0010
,  // measure 14
0000
0000
0100
1000
0000
0010
0000
0100
,  // measure 15
0001
0000
0010
0001
0000
0100
0000
0010
,  // measure 16
0000
0000
0100
0001
0000
0010
0000
0100
,  // measure 17
1000
0000
0001
1000
0000
0100
0000
0010
,  // measure 18
0000
0100
0000
1000
0000
1000
0001
0000
,  // measure 19
0010
0100
1000
0000
0010
0100
0001
0000
,  // measure 20
1000
0100
1000
0000
0001
0100
0001
0000
,  // measure 21
2001
0100
0010
3001
,  // measure 22
0002
0010
0100
1003
,  // measure 23
2000
0010
0100
3001
,  // measure 24
0002
0100
0010
1003
,  // measure 25
0001
0000
0010
0100
0000
0100
0000
0010
,  // measure 26
0000
0001
0000
1000
0000
0010
0000
0100
,  // measure 27
0001
0000
1000
0100
0000
0100
1000
0000
,  // measure 28
0010
0000
0000
0100
0000
0000
0010
0000
0000
0100
0000
0000
0010
0000
0000
0000
,  // measure 29
1001
0000
0100
0001
0000
0100
1000
0000
,  // measure 30
0001
0000
0100
1000
0000
0100
0001
0000
,  // measure 31
1000
0000
0001
0000
0010
0100
0010
0200
,  // measure 32
0000
1300
0001
0110
,  // measure 33
2000
0000
3001
0100
0000
0010
0000
1000
,  // measure 34
0000
0001
0000
2002
0000
3003
0000
0100
,  // measure 35
0010
0000
1000
0001
0000
0010
0000
0001
,  // measure 36
2002
0000
0000
3003
,  // measure 37
2000
0000
0000
3002
0000
0000
0003
0100
,  // measure 38
0020
0000
1030
0200
0000
0320
0000
0031
,  // measure 39
1000
0100
1000
0000
0001
0000
0110
0000
,  // measure 40
0001
1000
0100
0000
0110
0000
0110
0000
,  // measure 41
0002
0000
0000
2003
0000
0000
3000
0100
,  // measure 42
0020
0000
0031
0200
0000
0320
0000
1030
,  // measure 43
0001
0100
0001
0000
1000
0000
0110
0000
,  // measure 44
0001
1000
0100
0000
0110
0000
0110
0000
,  // measure 45
2000
0000
0000
3002
0000
0000
0003
0100
,  // measure 46
0020
0000
1030
0002
0000
2003
0000
3100
,  // measure 47
0010
0001
1000
0000
0001
0100
0001
0000
,  // measure 48
0100
0010
1000
0000
0001
0100
0001
0000
,  // measure 49
0002
0000
0000
2003
0000
0000
3000
0100
,  // measure 50
0020
0000
0031
2000
0000
3002
0000
0103
,  // measure 51
0010
1000
0001
0000
1000
0100
1000
0000
,  // measure 52
0100
0010
0001
0000
1000
0100
1000
0000
,  // measure 53
0010
0000
0010
0000
0010
0100
0001
0010
,  // measure 54
0100
0000
0010
0000
0100
0000
1000
0001
,  // measure 55
0010
0000
0010
0000
0010
0100
1000
0010
,  // measure 56
0100
0000
0010
0000
0100
0000
0001
1000
,  // measure 57
0010
0000
1001
0000
0010
1000
0100
0000
,  // measure 58
0010
0001
0100
0000
0010
0000
1001
0000
,  // measure 59
0100
0000
1001
0000
0100
1000
0010
0000
,  // measure 60
0100
0001
0010
0000
0110
0000
0010
0100
,  // measure 61
0020
0000
0000
0030
;

//---------------dance-single - ----------------
#NOTES:
     dance-single:
     :
     Hard:
     8:
     0.640204,0.682076,0.315593,0.031559,0.105198,426.000000,396.000000,30.000000,3.000000,0.000000,0.000000,0.640204,0.682076,0.315593,0.031559,0.105198,426.000000,396.000000,30.000000,3.000000,0.000000,0.000000:
// measure 0
0000
0000
0000
0000
,  // measure 1
0000
0000
0000
0000
,  // measure 2
0000
0000
0000
0000
,  // measure 3
0000
0000
0000
0000
,  // measure 4
1000
0000
0001
0100
0001
0000
0100
0000
0001
0000
0010
0000
0100
0000
1000
0000
,  // measure 5
0001
0100
0001
0000
0110
0000
0100
0010
,  // measure 6
0001
0000
1000
0100
1000
0000
0100
0000
1000
0000
0010
0000
0100
0000
0001
0000
,  // measure 7
1000
0100
1000
0000
0110
0000
0010
0100
,  // measure 8
1000
0000
0001
0010
0001
0000
1000
0000
0010
0000
0100
0000
0001
0000
0100
0000
,  // measure 9
0010
1000
0100
0000
0110
0000
0100
0010
,  // measure 10
0001
0000
1000
0010
1000
0000
0001
0000
0010
0000
0100
0000
1000
0000
0100
0000
,  // measure 11
0010
0001
0100
0000
0110
0000
0100
0010
,  // measure 12
1000
0001
0000
1000
0001
0000
1000
0001
0000
1000
0001
0000
0010
0000
0100
0000
,  // measure 13
1001
0000
0010
0001
0100
0001
0000
1000
,  // measure 14
0001
0000
1000
0100
1000
0010
0000
0100
,  // measure 15
0001
0000
1000
0010
0100
0010
0000
1000
,  // measure 16
0001
0000
0010
0100
1000
0010
0000
1000
,  // measure 17
0100
0000
0010
0001
1000
0100
0000
0010
,  // measure 18
0001
0010
0000
0100
0000
0010
0001
1000
,  // measure 19
0001
1000
0100
0000
0010
0001
1000
0000
,  // measure 20
0110
0000
0110
0000
1000
0010
0100
0001
,  // measure 21
1001
0000
0010
0001
0000
0001
1000
0100
,  // measure 22
1000
0000
1000
0001
0000
0001
0010
0100
,  // measure 23
1000
0000
1000
0100
0000
0010
0001
1000
,  // measure 24
0001
0000
0001
0100
0000
0100
0010
1000
,  // measure 25
0001
0000
1000
0010
0000
0010
0100
0001
,  // measure 26
0000
0001
0010
0100
0000
0100
1000
0001
,  // measure 27
1000
0000
0100
0010
0001
0000
0110
0000
,  // measure 28
1000
0001
0000
0100
0001
0000
1000
0100
0000
1000
0001
0000
0010
0000
0000
0000
,  // measure 29
0001
0100
1000
0100
0001
0010
0100
1000
,  // measure 30
0010
0100
0001
0010
0100
1000
0010
0100
,  // measure 31
0001
1000
0001
0100
0001
0010
0100
1000
,  // measure 32
0001
0000
0011
0000
1100
0000
0001
0100
,  // measure 33
0010
1000
0010
1000
0100
0001
0100
1000
,  // measure 34
0010
0100
0010
0100
0001
0010
1000
0010
,  // measure 35
0001
1000
0010
0001
0010
0100
0001
0010
,  // measure 36
2002
0000
0000
3003
,  // measure 37
1001
1000
0001
0010
0000
0010
0001
1000
,  // measure 38
0010
0000
0100
0010
0000
1000
0000
0001
,  // measure 39
1000
0010
1000
0010
0100
0001
0100
0001
,  // measure 40
1000
0100
0010
0001
1000
0010
0100
0001
,  // measure 41
1000
0001
1000
0010
0000
0010
1000
0001
,  // measure 42
0010
0000
0100
0010
0000
0001
0000
1000
,  // measure 43
0001
0100
0001
0100
0010
1000
0010
1000
,  // measure 44
0001
0010
0100
1000
0001
0100
0010
0000
,  // measure 45
1001
0100
0010
0001
1000
0100
0010
0001
,  // measure 46
1000
0100
0001
0100
1000
0010
1000
0001
,  // measure 47
0100
0010
1000
0100
0010
0001
0100
0010
,  // measure 48
1000
0100
0001
0100
1000
0010
0100
0000
,  // measure 49
0001
0010
0100
1000
0001
0010
0100
1000
,  // measure 50
0001
0100
1000
0100
0001
0010
0001
1000
,  // measure 51
0100
0010
0001
0100
0010
1000
0100
0010
,  // measure 52
0001
1000
0000
0001
0100
0000
0010
1000
0000
0001
0010
0000
0100
0000
0010
0000
,  // measure 53
0001
0000
1000
0100
1000
0000
0001
0000
0010
0000
0100
0000
1000
0000
0001
0000
,  // measure 54
1001
1100
1001
0011
,  // measure 55
1000
0000
0001
0100
0001
0000
1000
0000
0010
0000
0100
0000
0001
0000
1000
0000
,  // measure 56
1001
0101
1001
1010
,  // measure 57
1000
0000
0010
0100
0010
0000
1000
0000
0001
0000
0010
0000
0100
0000
1000
0000
,  // measure 58
1001
1100
0110
1001
,  // measure 59
0001
0000
0100
0010
0100
0000
0001
0000
1000
0000
0010
0000
0100
0000
0001
0000
,  // measure 60
1001
0000
1100
0000
0110
0000
0011
1000
,  // measure 61
0200
0000
0000
0300
;
