#TITLE:You;
#SUBTITLE:;
#ARTIST:浜崎あゆみ;
#TITLETRANSLIT:;
#SUBTITLETRANSLIT:;
#ARTISTTRANSLIT:Ayumi Hamasaki;
#GENRE:;
#CREDIT:;
#BANNER:You Bn.png;
#BACKGROUND:you bg.png;
#LYRICSPATH:;
#CDTITLE:;
#MUSIC:You.mp3;
#OFFSET:-0.470000;
#SAMPLESTART:69.320007;
#SAMPLELENGTH:12.000000;
#SELECTABLE:YES;
#BPMS:0.000000=87.989998
;
#STOPS:
;
#BGCHANGES:;
#KEYSOUNDS:;
#ATTACKS:;

//---------------dance-single - ----------------
#NOTES:
     dance-single:
     :
     Easy:
     3:
     0.204118,0.199793,0.008072,0.000000,0.000000,177.000000,176.000000,1.000000,0.000000,0.000000,0.000000,0.204118,0.199793,0.008072,0.000000,0.000000,177.000000,176.000000,1.000000,0.000000,0.000000,0.000000:
// measure 0
0000
0000
0000
0000
,  // measure 1
0000
0000
0000
0000
,  // measure 2
0000
0000
0000
0000
,  // measure 3
0000
0000
0000
0000
,  // measure 4
0000
1000
0010
0100
,  // measure 5
0001
0010
0100
0010
,  // measure 6
0001
1000
0100
0010
,  // measure 7
0001
0010
0100
0010
,  // measure 8
0100
1000
0001
0010
,  // measure 9
0100
0001
0001
1000
,  // measure 10
0010
0100
0100
0010
,  // measure 11
1000
0001
0001
0100
,  // measure 12
0010
0100
0001
0100
,  // measure 13
1000
0100
0001
0100
,  // measure 14
0010
0100
0001
0010
,  // measure 15
0100
1000
0010
0100
,  // measure 16
0010
0100
0001
0010
,  // measure 17
1000
0010
0010
0001
,  // measure 18
0010
0100
1000
0010
,  // measure 19
0100
0001
0001
0010
,  // measure 20
0100
0010
0010
0100
,  // measure 21
0100
1000
0010
0100
,  // measure 22
0010
1000
0010
0001
,  // measure 23
0010
0100
0001
1000
,  // measure 24
0001
0001
0010
0100
,  // measure 25
1000
0010
0100
0000
0001
0000
0010
0000
,  // measure 26
0100
1000
0001
0000
0010
0000
0100
0000
,  // measure 27
1000
0100
0001
0000
0100
0000
0001
0000
,  // measure 28
0010
0100
1000
0000
0010
0000
0100
0000
,  // measure 29
0001
0100
0001
0010
,  // measure 30
0100
1000
0010
0000
0100
0000
0001
0000
,  // measure 31
0100
0001
0010
0000
0100
0000
1000
0000
,  // measure 32
0001
0010
0000
0000
0100
0000
1000
0000
,  // measure 33
0010
0100
0001
0100
,  // measure 34
0001
1000
0010
0000
0100
0000
0010
0000
,  // measure 35
1000
0100
0001
0000
0100
0000
1000
0000
,  // measure 36
0010
0001
0010
0100
,  // measure 37
1000
0010
0100
0000
0001
0000
0010
0000
,  // measure 38
0001
0100
0001
1000
,  // measure 39
0010
0100
0001
1000
,  // measure 40
0010
0100
0000
0000
0001
0000
0010
0100
,  // measure 41
0010
0000
1000
0000
0001
0000
0010
0100
,  // measure 42
1000
0000
0010
0000
0100
0000
0001
0010
,  // measure 43
0100
0001
0010
0100
,  // measure 44
1000
0010
0100
0100
,  // measure 45
1001
0000
0000
0000
;

//---------------dance-single - ----------------
#NOTES:
     dance-single:
     :
     Medium:
     5:
     0.253706,0.272445,0.008072,0.000000,0.004036,220.000000,219.000000,1.000000,0.000000,0.000000,0.000000,0.253706,0.272445,0.008072,0.000000,0.004036,220.000000,219.000000,1.000000,0.000000,0.000000,0.000000:
// measure 0
0000
0000
0000
0000
,  // measure 1
0000
0000
0000
0000
,  // measure 2
0000
0000
0000
0000
,  // measure 3
0000
0000
0000
0000
,  // measure 4
0000
0000
1000
0000
0010
0100
0000
0001
,  // measure 5
0000
0000
0010
0000
0100
1000
0000
0010
,  // measure 6
0100
0000
0001
0000
0010
0100
0000
1000
,  // measure 7
0000
0010
0000
0100
0000
0001
0010
0100
,  // measure 8
0010
0000
1000
0000
0001
0000
1000
0001
,  // measure 9
1000
0001
0010
0000
0100
0000
1000
0010
,  // measure 10
0000
0000
0100
0001
0100
0010
0000
1000
,  // measure 11
0100
0000
0100
0000
0010
0000
0001
0100
,  // measure 12
0000
0000
0010
1000
0010
0100
0000
0001
,  // measure 13
0010
0000
0100
1000
1000
0000
0001
0100
,  // measure 14
0100
0000
0010
1000
1000
0001
1000
0100
,  // measure 15
0100
0000
0010
0001
0001
0000
1000
0010
,  // measure 16
0010
0000
1000
0010
0100
0001
0000
0010
,  // measure 17
0100
0000
1000
0000
0010
0000
0100
0001
,  // measure 18
0000
0010
0100
0000
1000
0000
0010
0000
,  // measure 19
0000
0100
0001
0010
0100
0100
1000
0000
,  // measure 20
0010
0000
1000
0000
0000
0001
0001
0000
,  // measure 21
0000
0000
0001
0010
0100
1000
0001
0010
,  // measure 22
0100
0000
1000
0010
0100
0001
1000
0010
,  // measure 23
0100
0000
0001
0010
0100
1000
0010
0100
,  // measure 24
0001
0000
0000
0000
0010
0000
0000
0100
0000
0000
0010
0000
0001
0000
0000
0000
,  // measure 25
1000
0000
0100
1000
0010
1000
0000
0001
,  // measure 26
0000
0001
0010
0100
1000
0010
0000
0000
,  // measure 27
0000
0000
0100
0001
0010
0001
0000
1000
,  // measure 28
0000
1000
0010
0000
0100
0000
0001
0000
,  // measure 29
1000
0000
0100
0010
0001
0100
0000
0010
,  // measure 30
0000
0010
1000
0100
0000
0010
0000
0001
,  // measure 31
0000
0100
0000
1000
1000
0000
0010
0100
,  // measure 32
0000
0001
0000
0010
0000
0100
1000
0100
,  // measure 33
0100
1000
0100
1000
0010
0100
0000
0001
,  // measure 34
0000
0001
0010
0100
1000
0001
0000
0001
,  // measure 35
1000
0000
1000
0010
0100
0001
0000
0010
,  // measure 36
0000
0010
0100
0000
1000
0000
0010
0000
,  // measure 37
0001
0000
0100
0001
0010
0100
0000
1000
,  // measure 38
0000
1000
0010
0100
0000
0001
0000
0100
,  // measure 39
0000
0010
1000
0000
0001
0000
0001
0010
,  // measure 40
0100
1000
0000
0010
0100
0000
0001
0000
,  // measure 41
0010
0000
0100
0000
1000
0001
0000
0010
,  // measure 42
0000
0000
0001
0010
0100
1000
0000
0010
,  // measure 43
0100
0000
0001
0000
0100
0010
0000
1000
,  // measure 44
0000
0100
0010
0000
0100
0000
0010
0100
,  // measure 45
1001
0000
0000
0000
;

//---------------dance-single - ----------------
#NOTES:
     dance-single:
     :
     Hard:
     6:
     0.327511,0.363261,0.145304,0.016145,0.068616,284.000000,266.000000,18.000000,2.000000,0.000000,0.000000,0.327511,0.363261,0.145304,0.016145,0.068616,284.000000,266.000000,18.000000,2.000000,0.000000,0.000000:
// measure 0
0000
0000
0000
0000
,  // measure 1
0000
0000
0000
0000
,  // measure 2
0000
0000
0000
0000
,  // measure 3
0000
0000
0000
0000
,  // measure 4
0000
0000
0100
1000
0010
1000
0000
0001
,  // measure 5
0000
0000
0010
0100
1000
0010
0000
0100
,  // measure 6
0001
0100
0100
0001
0010
0001
0000
1000
,  // measure 7
0000
0100
1000
0010
1000
0100
1000
0010
,  // measure 8
1000
0001
1000
0000
0010
0000
0100
0001
,  // measure 9
1000
0001
1000
0000
0010
0000
0100
0000
0001
0000
0001
0000
0010
0000
0100
0000
,  // measure 10
0000
1000
0010
0100
0010
1000
0000
0001
,  // measure 11
0010
0001
0100
0010
0010
1000
0100
0010
,  // measure 12
0000
0001
0100
0010
0100
0001
0000
0000
,  // measure 13
0100
0000
0000
0010
0000
0000
1000
0000
0000
0010
0000
0010
0000
0000
0000
0000
0000
0000
0100
0000
0000
0010
0000
0010
,  // measure 14
0000
0000
0000
0000
1000
0000
0010
0000
0010
0000
0100
0000
0001
0000
0010
0010
,  // measure 15
0000
0000
0000
0000
0000
0000
0100
0000
0000
0010
0000
0000
0010
0000
0000
0001
0000
0000
0100
0000
0000
0010
0000
0010
,  // measure 16
0000
0100
0001
0010
0100
1000
0000
0001
,  // measure 17
0010
0001
1001
0000
0010
0000
0100
0100
,  // measure 18
0000
0000
0010
0000
0001
0000
0000
0100
0000
0000
1000
0000
0000
0000
0100
0000
,  // measure 19
0001
0000
0001
0000
0010
0000
0010
0000
0100
0000
1000
0000
0010
0000
0000
0100
,  // measure 20
0000
0001
0002
0000
0000
0100
0203
0000
,  // measure 21
0300
0000
0000
0000
1000
0000
0010
0010
0000
0000
0010
0000
0100
0000
0010
0010
,  // measure 22
0000
0000
0000
0000
0001
0000
0010
0010
0000
0000
0001
0000
1000
0000
0010
0010
,  // measure 23
0000
0000
0000
0000
1000
0000
0010
0010
0000
0000
0010
0000
0100
0000
0010
0010
,  // measure 24
0000
0000
0001
0100
0001
0010
0100
1000
,  // measure 25
0010
0100
0010
0000
1000
0000
0100
0000
0010
0000
0001
0000
0000
0000
0100
0000
,  // measure 26
0000
0010
1000
0100
0001
0100
0000
1000
,  // measure 27
0010
0100
0001
0010
0100
1000
0000
0010
,  // measure 28
0000
0100
0101
0001
0011
0010
0110
0100
,  // measure 29
1100
1000
1001
0100
0010
0001
0000
0010
,  // measure 30
0000
0010
0100
1000
0000
1010
0000
0101
,  // measure 31
0000
0001
0000
0010
0010
0010
0100
1000
,  // measure 32
0000
0010
1000
0100
0010
0001
0010
0100
,  // measure 33
1000
0010
0100
0000
1001
0000
0001
0000
0010
0000
0100
0000
0000
0000
0010
0000
,  // measure 34
0000
0010
0001
0100
0010
1000
0000
0100
,  // measure 35
1000
0100
0010
0001
0100
0001
0000
0010
,  // measure 36
0000
0010
0011
0001
0101
0100
0110
0010
,  // measure 37
1010
1000
1001
0001
0010
0100
0000
1000
,  // measure 38
0000
1000
0010
0100
0000
0011
0000
1100
,  // measure 39
0000
0000
1000
0000
0010
0000
0100
0001
0000
0000
0010
0000
0100
0000
1000
0000
,  // measure 40
0010
0000
0100
0000
0000
0000
0000
0000
0010
0000
0000
0000
0100
0010
0100
0000
,  // measure 41
1001
0000
1000
0010
0100
0001
0000
0010
,  // measure 42
0000
0000
0010
0001
0100
0010
0000
1000
,  // measure 43
0100
0010
0001
0010
0100
1000
0000
0010
,  // measure 44
0000
0100
0000
0010
0000
0100
0001
1000
,  // measure 45
1001
0000
0000
0000
;
