#VERSION:0.83;
#TITLE:You Are My Dream;
#SUBTITLE:;
#ARTIST:bambee;
#TITLETRANSLIT:;
#SUBTITLETRANSLIT:;
#ARTISTTRANSLIT:;
#GENRE:;
#ORIGIN:;
#CREDIT:;
#BANNER:dream bn2.png;
#BACKGROUND:dream bg.png;
#PREVIEWVID:;
#JACKET:;
#CDIMAGE:;
#DISCIMAGE:;
#LYRICSPATH:;
#CDTITLE:;
#MUSIC:Bambee - You Are My Dream (Short Edit).mp3;
#OFFSET:-2.440000;
#SAMPLESTART:59.329998;
#SAMPLELENGTH:12.000000;
#SELECTABLE:YES;
#BPMS:0.000=135.000;
#STOPS:;
#DELAYS:;
#WARPS:;
#TIMESIGNATURES:0.000=4=4;
#TICKCOUNTS:0.000=4;
#COMBOS:0.000=1;
#SPEEDS:0.000=1.000=0.000=0;
#SCROLLS:0.000=1.000;
#FAKES:;
#LABELS:0.000=Song Start;
#BGCHANGES:;
#KEYSOUNDS:;
#ATTACKS:
;

//---------------dance-single - ----------------
#NOTEDATA:;
#CHARTNAME:;
#STEPSTYPE:dance-single;
#DESCRIPTION:;
#CHARTSTYLE:;
#DIFFICULTY:Easy;
#METER:2;
#RADARVALUES:0.187911,0.255222,0.107979,0.176692,0.000000,134.000000,123.000000,11.000000,18.000000,0.000000,0.000000,0.000000,0.000000,0.000000,0.187911,0.255222,0.107979,0.176692,0.000000,134.000000,123.000000,11.000000,18.000000,0.000000,0.000000,0.000000,0.000000,0.000000;
#CREDIT:;
#NOTES:
// measure 0
0000
0000
0000
0000
,  // measure 1
0000
0000
0000
0000
,  // measure 2
0000
0000
0000
0000
,  // measure 3
0000
0000
0000
0000
,  // measure 4
2000
0000
0000
3000
,  // measure 5
0002
0000
0000
0003
,  // measure 6
0020
0000
0000
0030
,  // measure 7
0200
0000
0000
0300
,  // measure 8
0020
0030
0001
0001
,  // measure 9
2000
3000
0100
0100
,  // measure 10
0020
0030
0001
0001
,  // measure 11
2000
3000
0010
0010
,  // measure 12
0200
0300
0001
0001
,  // measure 13
2000
3000
0100
0100
,  // measure 14
0020
0030
0001
0001
,  // measure 15
2000
3000
0001
1000
,  // measure 16
1001
0000
1000
0000
,  // measure 17
0100
0000
0010
0000
,  // measure 18
0100
0000
1000
0000
,  // measure 19
0010
0000
0010
0000
,  // measure 20
0100
0000
0001
0000
,  // measure 21
1000
0000
0010
0000
,  // measure 22
0100
0000
0100
0000
,  // measure 23
0001
0000
0010
0001
,  // measure 24
1001
0000
1000
0000
,  // measure 25
0100
0000
0010
0000
,  // measure 26
0001
0000
0001
0000
,  // measure 27
0010
0000
1000
0000
,  // measure 28
0100
0000
0001
0000
,  // measure 29
0100
0000
0010
0000
,  // measure 30
0001
0000
0100
0000
,  // measure 31
0020
0030
1000
0001
,  // measure 32
1001
0000
1000
0001
,  // measure 33
0100
0000
0100
0000
,  // measure 34
0020
0030
1000
0001
,  // measure 35
1000
0000
0001
0000
,  // measure 36
1001
0000
0001
1000
,  // measure 37
0100
0000
0100
0000
,  // measure 38
0020
0030
0001
1000
,  // measure 39
0001
0000
1000
0000
,  // measure 40
1001
0000
0001
1000
,  // measure 41
0100
0100
0100
0100
,  // measure 42
0020
0030
0001
1000
,  // measure 43
1001
0000
0001
1000
,  // measure 44
1001
0000
1000
0001
,  // measure 45
0100
0100
0100
0100
,  // measure 46
0020
0030
1000
0001
,  // measure 47
1000
1000
0001
0001
,  // measure 48
1001
0000
0001
0100
,  // measure 49
0010
0010
0010
0010
,  // measure 50
0200
0300
0001
1000
,  // measure 51
1001
0000
1001
0010
,  // measure 52
1001
0000
0000
0000
;

//---------------dance-single - ----------------
#NOTEDATA:;
#CHARTNAME:;
#STEPSTYPE:dance-single;
#DESCRIPTION:;
#CHARTSTYLE:;
#DIFFICULTY:Medium;
#METER:5;
#RADARVALUES:0.360396,0.382833,0.196325,0.068714,0.000000,257.000000,237.000000,20.000000,7.000000,0.000000,0.000000,0.000000,0.000000,0.000000,0.360396,0.382833,0.196325,0.068714,0.000000,257.000000,237.000000,20.000000,7.000000,0.000000,0.000000,0.000000,0.000000,0.000000;
#CREDIT:;
#NOTES:
// measure 0
0000
0000
0000
0000
,  // measure 1
0000
0000
0000
0000
,  // measure 2
0000
0000
0000
0000
,  // measure 3
0000
0000
0000
0000
,  // measure 4
1000
1000
0010
0010
,  // measure 5
0100
0100
0100
0100
,  // measure 6
0001
0001
0010
0010
,  // measure 7
2002
0000
0000
3003
,  // measure 8
1000
0100
1000
0000
1000
0100
1000
0000
,  // measure 9
0001
0100
0001
0000
0001
0100
0001
0000
,  // measure 10
1000
0010
1000
0000
1000
0010
1000
0000
,  // measure 11
0001
0010
0001
0000
0001
0010
0001
0000
,  // measure 12
1000
0100
1000
0000
0100
1000
0100
0000
,  // measure 13
0010
0001
0010
0000
0001
0010
0001
0000
,  // measure 14
0100
1000
0100
0000
1000
0100
1000
0000
,  // measure 15
0010
0001
0010
0000
0001
0010
0001
0000
,  // measure 16
1001
0000
1000
0000
0001
0010
0001
0000
,  // measure 17
0100
0000
1000
0000
0100
0001
0100
0000
,  // measure 18
0010
0000
1000
0000
0001
0010
0001
0000
,  // measure 19
1000
0000
0010
0000
0100
0001
0100
0000
,  // measure 20
0010
0000
1000
0000
0001
1000
0001
0000
,  // measure 21
0010
0000
0100
0000
1000
0001
1000
0000
,  // measure 22
0100
0000
0010
0000
0001
0010
0001
0000
,  // measure 23
1000
0000
0020
0000
0030
0100
0100
0100
,  // measure 24
0001
1000
0000
1000
0000
1000
0000
0010
,  // measure 25
0000
0100
0000
0100
0000
0100
0000
0001
,  // measure 26
0000
0010
0000
0010
0000
0010
0000
0001
,  // measure 27
0000
1000
0000
1000
0000
1000
0000
0010
,  // measure 28
0100
0001
0000
0001
0000
0001
0000
1000
,  // measure 29
0000
0010
0000
0010
0000
0010
0000
0100
,  // measure 30
0000
0001
0000
0001
0000
0010
0000
0100
,  // measure 31
2000
0000
0002
3003
0000
0100
0100
0100
,  // measure 32
0010
0000
1001
0000
1000
0100
0001
0100
,  // measure 33
1000
1000
0010
0010
,  // measure 34
0100
0000
1001
0000
0001
0100
1000
0100
,  // measure 35
0001
0010
1001
0100
,  // measure 36
0010
0000
1001
0000
1000
0100
0001
0100
,  // measure 37
1000
0010
0100
0001
,  // measure 38
0100
0000
1001
0000
1000
0010
0001
0010
,  // measure 39
1000
0100
1001
0010
,  // measure 40
0100
0000
1001
0000
0001
0100
1000
0100
,  // measure 41
0001
0010
1001
0100
,  // measure 42
0100
0000
1001
0000
0001
0010
1000
0010
,  // measure 43
0001
0100
1001
1001
,  // measure 44
0010
0000
1001
0000
0001
0010
1000
0010
,  // measure 45
0001
0100
0010
1001
,  // measure 46
0100
0000
1001
0000
0001
0010
1000
0010
,  // measure 47
0001
1000
1000
0110
,  // measure 48
1001
0000
0100
0000
0010
0001
0100
0001
,  // measure 49
0010
0000
0100
0000
1000
0001
1000
0010
,  // measure 50
0100
0000
0001
1000
0100
0001
1000
0000
,  // measure 51
2002
0000
3003
0100
,  // measure 52
1001
0000
0000
0000
;

//---------------dance-single - ----------------
#NOTEDATA:;
#CHARTNAME:;
#STEPSTYPE:dance-single;
#DESCRIPTION:;
#CHARTSTYLE:;
#DIFFICULTY:Hard;
#METER:7;
#RADARVALUES:0.422098,0.433878,0.137427,0.323936,0.000000,301.000000,287.000000,14.000000,33.000000,0.000000,0.000000,0.000000,0.000000,0.000000,0.422098,0.433878,0.137427,0.323936,0.000000,301.000000,287.000000,14.000000,33.000000,0.000000,0.000000,0.000000,0.000000,0.000000;
#CREDIT:;
#NOTES:
// measure 0
0000
0000
0000
0000
,  // measure 1
0000
0000
0000
0000
,  // measure 2
0000
0000
0000
0000
,  // measure 3
0000
0000
0000
0000
,  // measure 4
2002
0000
3003
0000
1000
0010
0100
0020
,  // measure 5
0000
1030
1000
0001
,  // measure 6
0020
0000
0000
0130
1000
0001
0010
0020
,  // measure 7
0200
0000
0000
0330
,  // measure 8
1000
0100
1000
0100
1000
0001
1000
0001
,  // measure 9
0010
0100
0010
0100
0010
0001
0010
0001
,  // measure 10
1000
0100
1000
0100
1000
0010
1000
0010
,  // measure 11
0100
0001
0100
0001
0010
0100
1000
0100
,  // measure 12
0010
0001
0010
0001
0010
0100
0010
0100
,  // measure 13
1000
0001
1000
0001
1000
0100
1000
0100
,  // measure 14
0010
0001
0010
0001
1000
0001
1000
0010
,  // measure 15
0100
0001
0100
0001
1000
0010
0100
0010
,  // measure 16
1000
0000
0001
0010
0001
1000
0010
0200
,  // measure 17
0002
0303
0000
0001
0010
0100
0010
0002
,  // measure 18
1003
0000
1000
0010
0100
0010
1000
0002
,  // measure 19
0020
0033
0000
0001
1000
0010
0100
0002
,  // measure 20
0000
1003
1000
0100
0010
0001
1000
0020
,  // measure 21
0200
0000
0330
0000
0001
0010
0100
2000
,  // measure 22
0002
3003
0000
1000
0100
0010
0100
2000
,  // measure 23
0000
3002
0000
0013
0100
0010
0010
0010
,  // measure 24
1001
0000
1000
0100
1000
0000
0001
0010
,  // measure 25
1000
0000
0010
0001
0010
0100
1000
0002
,  // measure 26
2000
3003
0000
1000
0200
0000
0310
0002
,  // measure 27
0000
1003
0000
0100
0010
0100
1000
0002
,  // measure 28
0000
0023
0000
0130
2000
0000
3010
0100
,  // measure 29
0001
0000
1000
0100
1000
0010
0100
0002
,  // measure 30
0000
1003
0000
1000
0100
0010
0100
2000
,  // measure 31
0000
0002
0000
3003
0000
0100
0100
0100
,  // measure 32
1001
0000
1000
0100
1000
0000
0001
0100
,  // measure 33
0001
0000
1000
1000
0000
0001
0010
0100
,  // measure 34
1000
0000
1001
1000
0100
0001
0100
2000
,  // measure 35
0000
0000
3010
0100
0000
0010
0100
0001
,  // measure 36
1000
0000
1001
0000
1000
0100
1000
0010
,  // measure 37
0100
0000
0001
0000
1000
0100
0010
0100
,  // measure 38
1000
0000
0110
0000
0001
0010
0100
1000
,  // measure 39
0001
0000
1000
1000
0000
0010
0100
0001
,  // measure 40
1000
0000
0001
0000
0010
0100
1000
0100
,  // measure 41
0000
0100
0000
0100
0000
1000
0010
0100
,  // measure 42
1001
0000
0000
1000
0100
0010
0001
2000
,  // measure 43
0000
0000
3010
0100
0000
0001
1000
0010
,  // measure 44
0000
1001
0000
0000
1000
0010
0100
0010
,  // measure 45
0000
0010
0000
0010
0000
0100
0001
0010
,  // measure 46
1001
0000
0000
0001
0100
0010
1000
0002
,  // measure 47
0000
0000
1003
0100
0000
1000
0001
0010
,  // measure 48
0000
1001
0000
0000
0001
0010
0100
0010
,  // measure 49
0001
0000
1001
0000
0110
0000
1000
0010
,  // measure 50
0100
0010
1000
0001
0100
0010
1000
2002
,  // measure 51
0000
0000
0000
0000
3003
0000
0100
0010
,  // measure 52
1001
0000
0000
0000
;
