#VERSION:0.83;
#TITLE:You;
#SUBTITLE:(Agressive Mix);
#ARTIST:浜崎あゆみ;
#TITLETRANSLIT:;
#SUBTITLETRANSLIT:;
#ARTISTTRANSLIT:Ayumi Hamasaki;
#GENRE:;
#ORIGIN:;
#CREDIT:;
#BANNER:Youagre bn.png;
#BACKGROUND:youagre bg.png;
#PREVIEWVID:;
#JACKET:;
#CDIMAGE:;
#DISCIMAGE:;
#LYRICSPATH:;
#CDTITLE:;
#MUSIC:You Agressive.mp3;
#OFFSET:-0.205000;
#SAMPLESTART:66.889999;
#SAMPLELENGTH:12.000000;
#SELECTABLE:YES;
#BPMS:0.000=152.100;
#STOPS:;
#DELAYS:;
#WARPS:;
#TIMESIGNATURES:0.000=4=4;
#TICKCOUNTS:0.000=4;
#COMBOS:0.000=1;
#SPEEDS:0.000=1.000=0.000=0;
#SCROLLS:0.000=1.000;
#FAKES:;
#LABELS:0.000=Song Start;
#BGCHANGES:;
#KEYSOUNDS:;
#ATTACKS:
;

//---------------dance-single - ----------------
#NOTEDATA:;
#CHARTNAME:;
#STEPSTYPE:dance-single;
#DESCRIPTION:;
#CHARTSTYLE:;
#DIFFICULTY:Easy;
#METER:4;
#RADARVALUES:0.332559,0.424359,0.153389,0.000000,0.009023,258.000000,241.000000,17.000000,0.000000,0.000000,0.000000,0.000000,0.000000,0.000000,0.332559,0.424359,0.153389,0.000000,0.009023,258.000000,241.000000,17.000000,0.000000,0.000000,0.000000,0.000000,0.000000,0.000000;
#CREDIT:;
#NOTES:
// measure 0
0000
0000
0000
0000
,  // measure 1
0000
0000
0000
0000
,  // measure 2
0000
0000
0000
0000
,  // measure 3
0000
0000
0000
0000
,  // measure 4
0000
0000
0000
0000
,  // measure 5
0000
0000
0000
0000
,  // measure 6
0000
0000
0000
0000
,  // measure 7
0000
0000
0000
0000
,  // measure 8
0000
1000
0010
1000
,  // measure 9
0001
0010
0001
0010
,  // measure 10
0100
1000
0100
1000
,  // measure 11
0001
0100
0001
0100
,  // measure 12
0010
1000
0010
1000
,  // measure 13
0001
0010
0001
0010
,  // measure 14
0100
1000
0100
1000
,  // measure 15
0001
0100
0001
0100
,  // measure 16
0010
0000
0000
1000
0000
0000
0000
0000
0000
0000
0000
0000
0000
0000
0000
0000
,  // measure 17
0000
0001
0010
0100
,  // measure 18
1000
0001
0100
1000
,  // measure 19
0100
0001
1000
0100
,  // measure 20
0010
0001
0100
1000
,  // measure 21
0100
0001
0010
0100
,  // measure 22
1000
0001
0010
1000
,  // measure 23
0010
0001
1000
0100
,  // measure 24
0010
0001
0010
1000
,  // measure 25
0010
0001
0100
1000
,  // measure 26
0110
1001
0001
0010
,  // measure 27
0100
0010
0001
0100
,  // measure 28
1000
0100
0001
1000
,  // measure 29
0010
0100
1000
0100
,  // measure 30
0001
0010
1001
0100
,  // measure 31
1001
1000
0010
0001
,  // measure 32
0100
0001
0110
1000
,  // measure 33
0110
0000
1000
0000
0001
0100
0000
0010
,  // measure 34
1000
1001
0100
1000
,  // measure 35
0010
1000
0001
1000
,  // measure 36
0001
0010
0100
0000
0100
0000
0001
0000
,  // measure 37
0100
0000
1000
0000
0010
0100
0001
0000
,  // measure 38
0010
0100
1100
0001
,  // measure 39
0101
1000
1010
0001
,  // measure 40
0011
0010
1001
0100
,  // measure 41
0100
0000
0100
0010
0001
1000
0100
0000
,  // measure 42
0010
0100
1000
0001
,  // measure 43
0010
0001
0100
0001
,  // measure 44
1000
0100
1000
0001
,  // measure 45
0010
0100
0100
0010
,  // measure 46
0010
0100
0001
1000
,  // measure 47
0010
1000
0100
0001
,  // measure 48
0010
0100
1000
0010
,  // measure 49
1000
0001
0010
0100
,  // measure 50
0110
1001
1000
0001
,  // measure 51
0010
0100
1000
0100
,  // measure 52
0001
1000
0010
0100
,  // measure 53
0001
0010
1001
0010
,  // measure 54
1001
1000
0100
0010
,  // measure 55
0001
0100
1000
0100
,  // measure 56
0001
0000
0010
0100
1000
0000
0010
0100
,  // measure 57
0001
0010
0100
1001
,  // measure 58
0100
1000
0100
0010
,  // measure 59
0001
0100
1000
0100
,  // measure 60
0001
1000
0010
0100
,  // measure 61
0001
0010
0100
0010
,  // measure 62
0100
0001
0010
0100
,  // measure 63
1000
0010
0100
0001
,  // measure 64
1000
0001
0010
0100
,  // measure 65
1000
0010
1000
0010
,  // measure 66
1000
0001
0100
0001
,  // measure 67
0100
0000
0000
0010
0000
0000
0000
0000
0000
0000
0000
0000
0000
0000
0000
0000
;

//---------------dance-single - ----------------
#NOTEDATA:;
#CHARTNAME:;
#STEPSTYPE:dance-single;
#DESCRIPTION:;
#CHARTSTYLE:;
#DIFFICULTY:Medium;
#METER:7;
#RADARVALUES:0.440834,0.454670,0.415054,0.000000,0.009023,342.000000,296.000000,46.000000,0.000000,0.000000,0.000000,0.000000,0.000000,0.000000,0.440834,0.454670,0.415054,0.000000,0.009023,342.000000,296.000000,46.000000,0.000000,0.000000,0.000000,0.000000,0.000000,0.000000;
#CREDIT:;
#NOTES:
// measure 0
0000
0000
0000
0000
,  // measure 1
0000
0000
0000
0000
,  // measure 2
0000
0000
0000
0000
,  // measure 3
0000
0000
0000
0000
,  // measure 4
0000
0000
0000
0000
,  // measure 5
0000
0000
0000
0000
,  // measure 6
0000
0000
0000
0000
,  // measure 7
0000
0000
0000
0000
,  // measure 8
0000
0010
0101
0010
,  // measure 9
1100
0010
0101
0010
,  // measure 10
1100
0100
0011
0100
,  // measure 11
1010
0100
0011
0100
,  // measure 12
1010
0010
0101
0010
,  // measure 13
1001
0100
1001
1000
,  // measure 14
0110
0001
0110
1000
,  // measure 15
0011
0001
1100
0100
,  // measure 16
0010
0000
0000
0010
0000
0000
0000
0000
0000
0000
0000
0000
0000
0000
0000
0000
,  // measure 17
0000
0000
1000
0010
0100
0000
0001
0010
,  // measure 18
0100
0000
1100
0000
0010
0100
0001
0000
,  // measure 19
0101
0000
1000
0010
0000
0100
0000
0001
,  // measure 20
0000
0010
0000
0100
1000
0010
0100
0000
,  // measure 21
0110
0000
1001
0000
0001
0010
0100
0000
,  // measure 22
1100
0000
0011
0000
0001
1000
0010
0000
,  // measure 23
0100
0000
0001
0010
0100
1000
0000
0010
,  // measure 24
0000
0100
0000
0001
0000
0100
0000
0001
,  // measure 25
0000
0100
0010
1000
0010
1000
0010
1000
,  // measure 26
0010
1000
0010
0000
1000
0000
0100
0000
,  // measure 27
1000
0000
0010
0100
0001
0000
0010
0100
,  // measure 28
1000
0010
0100
0001
,  // measure 29
0100
0000
0010
1000
0100
0000
0010
0001
,  // measure 30
0100
0010
1001
0100
,  // measure 31
1001
0010
0101
0010
,  // measure 32
1100
0010
1001
0100
,  // measure 33
1001
0000
0001
0010
0100
1000
0000
0010
,  // measure 34
0100
0010
1000
0001
,  // measure 35
0100
1001
0110
1001
,  // measure 36
0000
0010
0100
0001
0010
0000
0100
1000
,  // measure 37
0010
0000
0100
0001
1000
0000
0010
1000
,  // measure 38
0001
0000
1000
0100
1000
0000
0010
1000
,  // measure 39
0010
0000
0100
0001
0100
0000
0001
0010
,  // measure 40
0001
0010
1001
0100
,  // measure 41
1001
0000
1000
0100
1000
0001
0010
0000
,  // measure 42
0100
0000
1000
0010
0100
0000
0010
0000
,  // measure 43
1001
0000
0001
0010
0100
1000
0000
0010
,  // measure 44
0100
0000
0001
0010
0100
0000
0010
0000
,  // measure 45
1001
0100
0011
0100
,  // measure 46
1010
0000
0100
0010
0001
0000
1001
0000
,  // measure 47
1000
0010
0100
0001
0000
0010
0000
0100
,  // measure 48
0000
1000
0100
0010
0000
0010
0001
0100
,  // measure 49
0000
0001
0010
0000
1001
0000
0100
0000
,  // measure 50
1001
0000
0001
0010
0100
1000
0000
0010
,  // measure 51
0000
0010
1000
0100
0001
0100
0000
1000
,  // measure 52
0010
0000
0100
0001
0010
0100
0000
0010
,  // measure 53
0000
0010
1000
0000
0001
0000
0100
0000
,  // measure 54
0010
0000
1000
0010
0100
0001
0000
0010
,  // measure 55
0000
0010
0001
0100
0000
0010
0000
1000
,  // measure 56
0000
0100
0010
0001
1000
0000
0100
1000
,  // measure 57
0001
0010
1001
0100
,  // measure 58
0100
0000
0010
0001
0100
0000
0010
1000
,  // measure 59
0100
0000
0010
0100
1000
0000
0010
0100
,  // measure 60
0001
0000
1000
0100
0010
0000
1001
0000
,  // measure 61
0110
1001
0010
1001
,  // measure 62
0100
0000
0010
1000
0100
0000
0010
0000
,  // measure 63
1001
0000
0010
0001
0100
0000
0010
0000
,  // measure 64
1001
0000
1000
0001
0100
0000
0001
1000
,  // measure 65
0010
0000
1000
0010
0100
0000
0010
1000
,  // measure 66
0100
0000
0010
0001
0100
0000
0001
0010
,  // measure 67
0100
0000
0000
1000
0000
0000
0000
0000
0000
0000
0000
0000
0000
0000
0000
0000
;

//---------------dance-single - ----------------
#NOTEDATA:;
#CHARTNAME:;
#STEPSTYPE:dance-single;
#DESCRIPTION:;
#CHARTSTYLE:;
#DIFFICULTY:Hard;
#METER:8;
#RADARVALUES:0.525907,0.575915,0.045115,0.000000,0.036092,408.000000,403.000000,5.000000,0.000000,0.000000,0.000000,0.000000,0.000000,0.000000,0.525907,0.575915,0.045115,0.000000,0.036092,408.000000,403.000000,5.000000,0.000000,0.000000,0.000000,0.000000,0.000000,0.000000;
#CREDIT:;
#NOTES:
// measure 0
0000
0000
0000
0000
,  // measure 1
0000
0000
0000
0000
,  // measure 2
0000
0000
0000
0000
,  // measure 3
0000
0000
0000
0000
,  // measure 4
0000
0000
0000
0000
,  // measure 5
0000
0000
0000
0000
,  // measure 6
0000
0000
0000
0000
,  // measure 7
0000
0000
0000
0000
,  // measure 8
0000
0000
0010
0000
1000
0010
0000
1000
,  // measure 9
0010
0000
0100
0000
0001
0100
0000
0001
,  // measure 10
0100
0000
0001
0000
0010
0001
0000
0010
,  // measure 11
0001
0000
1000
0000
0100
1000
0000
0100
,  // measure 12
1000
0010
0100
0000
0001
0010
0000
0001
,  // measure 13
0010
0100
1000
0000
0010
1000
0000
0010
,  // measure 14
1000
0100
0010
0000
0001
0100
0000
0001
,  // measure 15
0100
0010
1000
0000
0100
1000
0000
0100
,  // measure 16
1000
0000
0100
0010
0000
0000
0000
0000
0000
0000
0000
0000
0000
0000
0000
0000
,  // measure 17
0000
0000
0001
0010
0100
1000
0001
0010
,  // measure 18
0100
1000
0001
0100
1000
0100
0001
0010
,  // measure 19
0100
1000
0010
0100
0001
0100
0010
1000
,  // measure 20
0100
1000
0010
0100
0001
0100
1000
0100
,  // measure 21
0001
0000
1000
0010
0100
0001
1000
0010
,  // measure 22
0100
0001
1000
0100
0001
0100
1000
0010
,  // measure 23
0100
0001
0010
0100
1000
0010
1000
0100
,  // measure 24
0001
0100
1000
0010
0100
0010
1000
0010
,  // measure 25
0100
0010
1000
0001
0010
0001
1000
0100
,  // measure 26
1000
0001
1000
0001
1000
0000
0000
0000
0010
0000
0000
0000
0100
0000
0000
0000
,  // measure 27
0010
0000
1000
0010
0100
0001
1000
0100
,  // measure 28
0001
0100
1000
0000
0001
0000
0010
0000
,  // measure 29
0001
0000
1000
0010
0100
0001
0000
0001
,  // measure 30
0010
0100
1000
0010
0010
0000
0100
0010
,  // measure 31
0010
0000
1000
0010
0010
0100
0001
0010
,  // measure 32
0010
0000
0100
1000
1000
0010
0100
0001
,  // measure 33
0001
0010
0100
1000
0010
0100
0000
0010
,  // measure 34
0010
0000
1001
0000
0010
0000
0100
0001
,  // measure 35
0000
0010
0100
0000
1000
0010
0000
0000
,  // measure 36
0000
0000
0100
0000
0001
0000
0010
0000
0100
0000
1000
0000
0001
0000
0000
0010
,  // measure 37
0000
0100
0100
1000
0010
0100
0001
0100
,  // measure 38
1000
0100
0001
0010
0010
0100
1000
0010
,  // measure 39
0010
0000
0100
0001
0001
0010
0100
1000
,  // measure 40
1000
0000
0100
0010
1000
0100
0001
0100
,  // measure 41
1000
0000
0010
0100
0001
0010
0100
0000
,  // measure 42
0100
0000
1000
0010
0100
0010
0000
1000
,  // measure 43
0000
1000
0001
0010
0100
0010
0001
0100
,  // measure 44
0010
1000
0100
1000
0010
0100
0000
0001
,  // measure 45
0000
0001
0010
0100
1000
0100
0001
0100
,  // measure 46
1000
0100
0001
0010
0100
1000
0000
0010
,  // measure 47
0000
0010
0100
0001
0000
0110
0000
1001
,  // measure 48
0000
1000
0010
0100
0001
0010
0100
1000
,  // measure 49
0000
0010
0100
0001
0100
1000
0100
0001
,  // measure 50
0100
0010
1000
0001
0010
0100
0000
1000
,  // measure 51
0000
1000
0010
0100
0001
0010
0001
0100
,  // measure 52
1000
0100
0001
0010
0100
1000
0000
0010
,  // measure 53
0000
0010
0100
0001
1000
0100
0010
0001
,  // measure 54
1000
0010
0100
0001
0010
0001
0000
1000
,  // measure 55
0000
1000
0010
0100
0000
1001
0000
0110
,  // measure 56
0000
1000
0010
0100
0010
1000
0001
0010
,  // measure 57
0100
1000
0010
0100
0001
0100
1000
0100
,  // measure 58
0001
1000
0001
1000
0001
0000
0000
0000
0010
0000
0100
0000
1000
0000
0100
0000
,  // measure 59
0001
1000
0100
0010
0001
0010
0100
1000
,  // measure 60
0010
1000
0001
0010
0100
1000
0001
0010
,  // measure 61
0001
0100
0010
1000
0100
1000
0001
0010
,  // measure 62
0100
0000
1000
0010
0100
0001
1000
0010
,  // measure 63
0100
0001
1000
0100
0001
0100
1000
0010
,  // measure 64
1000
0100
0001
0100
1000
0100
1000
0010
,  // measure 65
0100
0001
0010
0100
1000
0100
0010
0100
,  // measure 66
1000
0100
0010
0001
0010
0100
0010
0001
,  // measure 67
0100
0010
1000
0001
0000
0000
0000
0000
0000
0000
0000
0000
0000
0000
0000
0000
;
