#VERSION:0.83;
#TITLE:Xenon;
#SUBTITLE:(Cusimo Hardcore Mix);
#ARTIST:Mr.T;
#TITLETRANSLIT:;
#SUBTITLETRANSLIT:;
#ARTISTTRANSLIT:;
#GENRE:;
#ORIGIN:;
#CREDIT:;
#BANNER:Xenon CHM - bn.png;
#BACKGROUND:Xenon CHM - bg.png;
#PREVIEWVID:;
#JACKET:;
#CDIMAGE:;
#DISCIMAGE:;
#LYRICSPATH:;
#CDTITLE:;
#MUSIC:Xenon (Cusimo Hardcore Mix) -Short Edit-.mp3;
#OFFSET:-0.150000;
#SAMPLESTART:28.384998;
#SAMPLELENGTH:12.000000;
#SELECTABLE:YES;
#BPMS:0.000=170.000;
#STOPS:;
#DELAYS:;
#WARPS:;
#TIMESIGNATURES:0.000=4=4;
#TICKCOUNTS:0.000=4;
#COMBOS:0.000=1;
#SPEEDS:0.000=1.000=0.000=0;
#SCROLLS:0.000=1.000;
#FAKES:;
#LABELS:0.000=Song Start;
#BGCHANGES:;
#KEYSOUNDS:;
#ATTACKS:
;

//---------------dance-single - ----------------
#NOTEDATA:;
#CHARTNAME:;
#STEPSTYPE:dance-single;
#DESCRIPTION:;
#CHARTSTYLE:;
#DIFFICULTY:Easy;
#METER:4;
#RADARVALUES:0.378151,0.552032,0.327272,0.336898,0.004813,275.000000,241.000000,34.000000,35.000000,0.000000,0.000000,0.000000,0.000000,0.000000,0.378151,0.552032,0.327272,0.336898,0.004813,275.000000,241.000000,34.000000,35.000000,0.000000,0.000000,0.000000,0.000000,0.000000;
#CREDIT:;
#NOTES:
// measure 0
0000
0000
0000
0000
,  // measure 1
0000
0000
0000
0000
,  // measure 2
0000
0000
0000
0000
,  // measure 3
0000
0000
0000
0000
,  // measure 4
1000
0100
1000
0100
,  // measure 5
0010
0001
0100
0010
,  // measure 6
1000
0100
1000
0100
,  // measure 7
0010
0001
1000
0001
,  // measure 8
0001
0100
0001
0100
,  // measure 9
0010
1000
0100
0010
,  // measure 10
0001
0100
0001
0100
,  // measure 11
0010
0000
0010
0000
0010
0000
0010
1000
,  // measure 12
0001
1000
0010
1000
,  // measure 13
0001
0010
0001
1000
,  // measure 14
0100
1000
0001
1000
,  // measure 15
0001
0100
0001
1000
,  // measure 16
0001
0010
0001
0100
,  // measure 17
0010
1000
0100
0010
,  // measure 18
0001
0001
1000
1000
,  // measure 19
0100
0000
0100
0000
0100
0000
0100
0010
,  // measure 20
0002
0003
2000
3000
,  // measure 21
0020
0030
0200
0300
,  // measure 22
0001
0100
1000
0100
,  // measure 23
0001
0001
1000
0001
,  // measure 24
2000
3000
0002
0003
,  // measure 25
0020
0030
0200
0300
,  // measure 26
1000
0100
0001
0100
,  // measure 27
1000
1000
0001
1000
,  // measure 28
1001
0200
0300
0020
,  // measure 29
0030
0002
0003
2000
,  // measure 30
3001
0100
1000
0100
,  // measure 31
0001
0001
1000
0001
,  // measure 32
1001
0200
0300
0020
,  // measure 33
0030
2000
3000
0002
,  // measure 34
1003
0100
0001
0100
,  // measure 35
1000
1000
0001
1000
,  // measure 36
0200
0000
0320
0000
,  // measure 37
0032
0000
0000
0000
2003
0000
3000
0010
,  // measure 38
0200
0000
0000
0301
,  // measure 39
2000
0000
3002
0000
,  // measure 40
0203
0000
0000
0310
,  // measure 41
2000
0000
3002
0000
,  // measure 42
0023
0000
0000
0031
,  // measure 43
2000
0001
0001
3001
,  // measure 44
1001
1100
0001
0110
,  // measure 45
2000
3000
0002
0003
,  // measure 46
1001
0101
1000
0110
,  // measure 47
0002
0003
2000
3000
,  // measure 48
1001
0110
0010
1001
,  // measure 49
0020
0030
0200
0300
,  // measure 50
1001
0110
1001
0110
,  // measure 51
0020
0100
0100
0130
,  // measure 52
1001
1000
0001
0010
,  // measure 53
0100
1000
0001
1000
,  // measure 54
0010
0010
0100
0100
,  // measure 55
1001
0000
0100
0000
0000
0000
0100
0010
,  // measure 56
1000
0001
1000
0010
,  // measure 57
0100
0001
1000
0001
,  // measure 58
0100
0100
0010
0010
,  // measure 59
1001
0010
0010
0010
,  // measure 60
1001
0100
0001
0010
,  // measure 61
1000
0010
0001
0100
,  // measure 62
1000
1000
0001
0001
,  // measure 63
0110
0000
0100
0000
0000
0000
0100
1000
,  // measure 64
0001
0100
1000
0010
,  // measure 65
0001
0010
1000
0100
,  // measure 66
1001
0001
1001
1000
,  // measure 67
0110
0110
0110
0110
,  // measure 68
1001
1001
0100
1001
,  // measure 69
1000
1001
0100
1001
,  // measure 70
0010
0110
0001
0110
,  // measure 71
1001
0000
0000
0000
1000
0000
0000
0000
0010
0000
0000
0100
0000
0000
0000
0000
;

//---------------dance-single - ----------------
#NOTEDATA:;
#CHARTNAME:;
#STEPSTYPE:dance-single;
#DESCRIPTION:;
#CHARTSTYLE:;
#DIFFICULTY:Medium;
#METER:6;
#RADARVALUES:0.495034,0.552032,0.577540,0.202139,0.033690,360.000000,300.000000,60.000000,21.000000,0.000000,0.000000,0.000000,0.000000,0.000000,0.495034,0.552032,0.577540,0.202139,0.033690,360.000000,300.000000,60.000000,21.000000,0.000000,0.000000,0.000000,0.000000,0.000000;
#CREDIT:;
#NOTES:
// measure 0
0000
0000
0000
0000
,  // measure 1
0000
0000
0000
0000
,  // measure 2
0000
0000
0000
0000
,  // measure 3
0000
0000
0000
0000
,  // measure 4
1001
1010
0001
0101
,  // measure 5
1000
1100
0001
0011
,  // measure 6
0100
0110
0001
1001
,  // measure 7
1000
0001
0100
0010
0100
0001
1000
0000
,  // measure 8
0001
0011
1000
1100
,  // measure 9
0001
0101
1000
1010
,  // measure 10
0100
0110
1000
1001
,  // measure 11
0001
1000
0100
0010
0100
1000
0001
0000
,  // measure 12
1001
0101
0010
1100
,  // measure 13
0001
1010
0100
0011
,  // measure 14
1000
0110
0001
0110
,  // measure 15
1000
0001
0010
0100
0010
0001
1000
0000
,  // measure 16
0010
1001
0100
1001
,  // measure 17
0010
1100
0010
0101
,  // measure 18
1000
0110
0001
0110
,  // measure 19
0001
1000
0010
0100
0010
1000
0001
0100
,  // measure 20
0010
0000
1000
0000
0000
0001
0100
0000
,  // measure 21
0100
0000
0001
0000
0000
1000
0100
0000
,  // measure 22
0010
0000
1001
0000
0000
0100
0010
0000
,  // measure 23
0001
0110
1000
0110
,  // measure 24
0001
0000
1000
0000
0000
0100
0010
0000
,  // measure 25
0001
0000
0100
0000
0000
0100
0010
0000
,  // measure 26
1000
0000
0110
0000
0000
0100
0001
0000
,  // measure 27
0010
1001
0100
1001
,  // measure 28
1000
0001
0100
0000
0000
0001
1000
0000
,  // measure 29
0001
1000
0100
0000
0000
1000
0001
0000
,  // measure 30
0100
0010
0100
0000
0000
0001
1000
0000
,  // measure 31
0001
0110
1000
0110
,  // measure 32
0001
1000
0010
0000
0000
1000
0001
0000
,  // measure 33
1000
0001
0010
0000
0000
0001
1000
0000
,  // measure 34
0100
0010
0100
0000
0000
1000
0001
0000
,  // measure 35
0010
1001
0100
1001
,  // measure 36
1002
0010
0023
0100
,  // measure 37
0230
0000
1000
0000
2300
0000
0000
3001
,  // measure 38
0200
0010
0000
0310
,  // measure 39
2000
0001
3002
0100
,  // measure 40
0203
0010
0000
0310
,  // measure 41
2000
0001
3002
0010
,  // measure 42
0023
0001
0000
0031
,  // measure 43
2000
0100
0000
3100
,  // measure 44
0010
1002
0103
2001
,  // measure 45
3100
0010
0001
0000
0100
0010
1000
0000
,  // measure 46
0100
2001
3010
1002
,  // measure 47
0013
0100
1000
0000
0010
0100
0001
0000
,  // measure 48
1000
0102
0013
2100
,  // measure 49
3001
0010
0001
0000
1000
0100
1000
0000
,  // measure 50
0001
2100
3010
0102
,  // measure 51
0023
0100
0100
0130
,  // measure 52
1001
0000
0000
1000
0010
0000
0000
0100
,  // measure 53
0001
0000
0000
1000
0100
0000
0000
0010
,  // measure 54
0001
0000
0000
0001
1000
0000
0000
1000
,  // measure 55
0100
1001
0100
1001
,  // measure 56
1001
0000
0000
0001
0010
0000
0000
0100
,  // measure 57
1000
0000
0000
0001
0100
0000
0000
0010
,  // measure 58
1000
0000
0000
1000
0001
0000
0000
0001
,  // measure 59
0010
1001
0010
1001
,  // measure 60
1001
0010
0100
1000
,  // measure 61
0001
1000
0100
0010
,  // measure 62
0001
0100
0010
0010
,  // measure 63
1000
1000
0001
0100
0010
0010
0100
0001
,  // measure 64
1000
0100
0010
0001
,  // measure 65
1000
0001
0010
0100
,  // measure 66
1001
0010
1001
0100
,  // measure 67
1001
1010
0101
0110
,  // measure 68
1001
0000
0000
0000
0100
0000
0000
0000
1000
0000
0000
1000
0000
1000
0000
0000
,  // measure 69
0001
0000
0000
0000
0100
0000
0000
0000
0001
0000
0000
0001
0000
0001
0000
0000
,  // measure 70
0010
0000
0000
0000
0100
0000
0000
0000
0010
0000
0000
0010
0000
0010
0000
0000
,  // measure 71
0001
0000
0000
0000
1000
0000
0000
0000
0010
0000
0000
1001
0000
0000
0000
0000
;

//---------------dance-single - ----------------
#NOTEDATA:;
#CHARTNAME:;
#STEPSTYPE:dance-single;
#DESCRIPTION:;
#CHARTSTYLE:;
#DIFFICULTY:Hard;
#METER:9;
#RADARVALUES:0.653170,0.690039,0.240641,0.115508,0.582352,475.000000,450.000000,25.000000,12.000000,0.000000,0.000000,0.000000,0.000000,0.000000,0.653170,0.690039,0.240641,0.115508,0.582352,475.000000,450.000000,25.000000,12.000000,0.000000,0.000000,0.000000,0.000000,0.000000;
#CREDIT:;
#NOTES:
// measure 0
0000
0000
0000
0000
,  // measure 1
0000
0000
0000
0000
,  // measure 2
0000
0000
0000
0000
,  // measure 3
0000
0000
0000
0000
,  // measure 4
0001
1000
0100
1000
0001
1000
0100
1000
,  // measure 5
0001
0100
0010
0100
0001
0100
0010
0100
,  // measure 6
0001
1000
0010
1000
0001
1000
0010
1000
,  // measure 7
0001
0010
0100
0010
0001
0010
0100
1000
,  // measure 8
0001
0100
0001
0010
0001
0100
0001
0010
,  // measure 9
0100
1000
0010
1000
0100
1000
0010
1000
,  // measure 10
0001
0010
0001
0100
0001
0010
0001
0100
,  // measure 11
0010
0000
0000
0010
1000
0000
0000
1000
0001
0000
0000
0001
0010
0000
0100
0000
,  // measure 12
1000
0001
0100
0001
1000
0001
0010
0001
,  // measure 13
0100
0010
1000
0100
0010
0100
1000
0010
,  // measure 14
0100
0001
0010
0100
0010
0001
0100
0010
,  // measure 15
1000
0001
0010
0001
1000
0001
0100
0001
,  // measure 16
1000
0100
0010
0001
0100
0010
1000
0001
,  // measure 17
0010
0100
1000
0001
1000
0010
0100
0001
,  // measure 18
1000
0100
0001
0100
1000
0001
0100
1000
,  // measure 19
0100
0010
0100
0010
0100
0010
1000
0001
,  // measure 20
1001
0000
0000
1000
0000
0001
0000
0000
0100
0000
0000
0010
0000
0000
1000
0000
,  // measure 21
0100
0000
0000
0010
0000
0001
0000
0000
0100
0000
0000
0010
0000
0100
0000
0000
,  // measure 22
0001
0000
0000
1000
0000
0100
0000
0000
1000
0000
0000
0001
0000
0010
0000
0000
,  // measure 23
0100
0000
1001
0000
0100
0000
1001
0001
,  // measure 24
1000
0000
0000
0001
0000
1000
0000
0000
0100
0000
0000
0010
0000
0000
0001
0000
,  // measure 25
0100
0000
0000
0010
0000
1000
0000
0000
0100
0000
0000
0010
0000
0100
0000
0000
,  // measure 26
1000
0000
0000
1000
0000
0001
0000
0000
0100
0000
0000
0100
0000
0010
0000
0000
,  // measure 27
1001
0000
0110
0000
0100
0000
1001
1000
,  // measure 28
1001
0000
0000
1000
0000
0100
0000
0000
0001
0000
0000
0100
0000
0000
0010
0000
,  // measure 29
0001
0000
0000
0100
0000
1000
0000
0000
0100
0000
0000
0010
0000
1000
0000
0000
,  // measure 30
0001
0000
0000
0010
0000
0100
0000
0000
1000
0000
0000
0100
0000
0010
0000
0000
,  // measure 31
0001
0000
0110
0000
1000
0000
0110
0010
,  // measure 32
1000
0000
0000
0001
0000
0100
0000
0000
1000
0000
0000
0100
0000
0000
0010
0000
,  // measure 33
1000
0000
0000
0100
0000
0001
0000
0000
0100
0000
0000
0010
0000
0001
0000
0000
,  // measure 34
0100
0000
0000
0100
0000
0010
0000
0000
1000
0000
0000
1000
0000
0001
0000
0000
,  // measure 35
0110
0000
1001
0000
0010
0000
0110
1000
,  // measure 36
1002
0100
0023
0100
,  // measure 37
0032
0000
0000
0000
1000
0000
0000
0000
0203
0000
0000
0000
0310
0000
1000
0001
,  // measure 38
0200
0010
0000
0310
,  // measure 39
2000
0100
3002
0100
,  // measure 40
2003
0100
0000
3001
,  // measure 41
0200
0001
0320
1000
,  // measure 42
2030
0001
0000
3010
,  // measure 43
0200
0001
1000
0301
,  // measure 44
1000
0010
0000
0000
0100
0001
0000
0000
1000
0010
0000
0000
0100
0001
0000
0000
,  // measure 45
1000
0100
0010
0001
1000
0100
0010
0001
,  // measure 46
0100
0010
0000
0000
1000
0001
0000
0000
0100
0010
0000
0000
0000
1000
0000
0000
,  // measure 47
0001
0010
0100
1000
0001
0010
0100
1000
,  // measure 48
0001
0100
0000
0000
0010
1000
0000
0000
0001
0100
0000
0000
0010
1000
0000
0000
,  // measure 49
0001
0100
0010
1000
0001
0100
0010
1000
,  // measure 50
0001
1000
0000
0000
0000
0100
0000
0000
1000
0001
0000
0000
0000
0110
0000
0000
,  // measure 51
1000
0010
0100
0001
1000
0010
0100
0001
,  // measure 52
1001
0000
0000
0100
0000
0010
0000
0000
0001
0000
0000
0100
0000
0000
0010
0000
,  // measure 53
1000
0000
0000
0100
0000
0010
0000
0000
0001
0000
0000
0010
0000
0100
0000
0000
,  // measure 54
1000
0000
0000
0100
0000
0001
0000
0000
0010
0000
0000
1000
0000
0001
0000
0000
,  // measure 55
0100
0000
1001
0000
0100
0000
1001
1000
,  // measure 56
0001
0000
0000
0100
0000
0010
0000
0000
1000
0000
0000
0100
0000
0000
0010
0000
,  // measure 57
0001
0000
0000
0100
0000
0010
0000
0000
1000
0000
0000
0010
0000
0100
0000
0000
,  // measure 58
0001
0000
0000
0100
0000
1000
0000
0000
0010
0000
0000
0001
0000
1000
0000
0000
,  // measure 59
0010
0000
1001
0000
0010
0000
1001
1000
,  // measure 60
0010
0000
0000
0010
1000
0000
0001
0000
1000
0000
0000
1000
0100
0000
0010
0000
,  // measure 61
0001
0000
0000
0001
0100
0000
0010
0000
0100
0000
0000
0100
0001
0000
1000
0000
,  // measure 62
0100
0000
0000
0100
1000
0000
0010
0000
0100
0000
0000
0100
0001
0000
0010
0000
,  // measure 63
0100
0000
1001
0000
0100
0000
1001
0001
,  // measure 64
0010
0000
0000
0010
0001
0000
1000
0000
0001
0000
0000
0001
0100
0000
0010
0000
,  // measure 65
1000
0000
0000
1000
0100
0000
0010
0000
0100
0000
0000
0100
1000
0000
0001
0000
,  // measure 66
0010
0000
0000
0010
0001
0000
0100
0000
0010
0000
0000
0010
1000
0000
0100
0000
,  // measure 67
0010
1001
0110
1001
,  // measure 68
1000
0010
0000
1000
0000
0001
0100
0001
0010
0000
0000
0100
0000
1000
0000
0000
,  // measure 69
0001
0010
0000
0001
0000
1000
0100
1000
0010
0000
0000
0100
0000
0001
0000
0000
,  // measure 70
0100
0010
0000
0100
0000
0001
1000
0001
1000
0000
0000
0010
0000
0100
0000
0000
,  // measure 71
0001
1000
0000
0001
0000
0100
0010
0100
0010
0000
0000
1001
0000
0000
0000
0000
;
