#VERSION:0.83;
#TITLE:Witch Doctor;
#SUBTITLE:(Hyper KCP Mix);
#ARTIST:Cartoons;
#TITLETRANSLIT:;
#SUBTITLETRANSLIT:;
#ARTISTTRANSLIT:;
#GENRE:;
#ORIGIN:;
#CREDIT:;
#BANNER:wdkcp bn2.png;
#BACKGROUND:wdkcp bg.png;
#PREVIEWVID:;
#JACKET:;
#CDIMAGE:;
#DISCIMAGE:;
#LYRICSPATH:;
#CDTITLE:;
#MUSIC:Cartoons - Witch Doctor (Hyper Kcp Mix) ver 2.mp3;
#OFFSET:-0.660000;
#SAMPLESTART:33.120003;
#SAMPLELENGTH:12.000000;
#SELECTABLE:YES;
#BPMS:0.000=170.000;
#STOPS:;
#DELAYS:;
#WARPS:;
#TIMESIGNATURES:0.000=4=4;
#TICKCOUNTS:0.000=4;
#COMBOS:0.000=1;
#SPEEDS:0.000=1.000=0.000=0;
#SCROLLS:0.000=1.000;
#FAKES:;
#LABELS:0.000=Song Start;
#BGCHANGES:;
#KEYSOUNDS:;
#ATTACKS:
;

//---------------dance-single - ----------------
#NOTEDATA:;
#CHARTNAME:;
#STEPSTYPE:dance-single;
#DESCRIPTION:;
#CHARTSTYLE:;
#DIFFICULTY:Easy;
#METER:4;
#RADARVALUES:0.409180,0.491257,0.425488,0.083022,0.000000,276.000000,235.000000,41.000000,8.000000,0.000000,0.000000,0.000000,0.000000,0.000000,0.409180,0.491257,0.425488,0.083022,0.000000,276.000000,235.000000,41.000000,8.000000,0.000000,0.000000,0.000000,0.000000,0.000000;
#CREDIT:;
#NOTES:
// measure 0
0000
0000
0000
0000
,  // measure 1
0000
0000
0000
0000
,  // measure 2
0000
0000
0000
0000
,  // measure 3
0000
0000
0000
0000
,  // measure 4
0001
0001
0100
0100
,  // measure 5
0010
0010
1000
1000
,  // measure 6
0001
0001
0100
0010
,  // measure 7
1001
0110
1001
0000
,  // measure 8
0010
1001
0100
0010
,  // measure 9
1000
0001
0100
0010
,  // measure 10
0010
1001
0100
0010
,  // measure 11
1000
0010
1001
0000
,  // measure 12
0010
1001
0100
0010
,  // measure 13
0001
1000
0100
0010
,  // measure 14
0010
1001
0100
0010
,  // measure 15
1000
0001
1001
0000
,  // measure 16
1001
0000
1001
0000
,  // measure 17
1001
0100
0000
0100
,  // measure 18
0000
1000
0000
0010
,  // measure 19
1001
0100
0000
0001
,  // measure 20
0000
0010
0000
0010
,  // measure 21
1001
0100
0100
0100
,  // measure 22
1000
0001
1000
0110
,  // measure 23
1001
0100
0010
0001
,  // measure 24
1000
0010
0100
0010
,  // measure 25
1001
0100
1000
0001
,  // measure 26
0100
0010
1000
0100
,  // measure 27
1001
0100
0010
0001
,  // measure 28
1000
0010
0100
0010
,  // measure 29
1001
0100
1000
0001
,  // measure 30
1000
0010
1001
0110
,  // measure 31
1000
1000
0100
0100
,  // measure 32
1000
1000
0010
0010
,  // measure 33
0100
0100
0001
0001
,  // measure 34
0010
0100
1001
0100
,  // measure 35
0010
1000
0010
1000
,  // measure 36
0001
0100
0100
0010
,  // measure 37
1000
1000
0001
0010
,  // measure 38
0100
1000
0100
0010
,  // measure 39
0001
0001
0100
1000
,  // measure 40
0010
0001
0001
1000
,  // measure 41
0001
0001
0010
0100
,  // measure 42
1001
0000
1001
0000
,  // measure 43
1001
0100
1001
0100
,  // measure 44
1001
0100
1000
0001
,  // measure 45
0020
0030
0200
0300
,  // measure 46
0010
0100
1000
0001
,  // measure 47
2000
3000
0002
0003
,  // measure 48
0010
0100
1000
0100
,  // measure 49
0020
0030
0002
0003
,  // measure 50
1000
0010
0100
0010
,  // measure 51
1001
0110
1001
0100
,  // measure 52
0010
1001
0010
0001
,  // measure 53
0100
1001
0100
1000
,  // measure 54
0010
1001
0100
0010
,  // measure 55
1000
0001
1001
0100
,  // measure 56
0010
1001
0100
0010
,  // measure 57
0001
1000
0100
1001
,  // measure 58
0010
1001
0100
0010
,  // measure 59
1001
0110
1001
0000
,  // measure 60
1000
1000
0100
0100
,  // measure 61
1000
1000
0100
0100
,  // measure 62
0010
0010
0001
0001
,  // measure 63
0010
0010
0100
0100
,  // measure 64
1000
0001
1000
1000
,  // measure 65
0010
0100
0010
0010
,  // measure 66
0001
1000
0001
0001
,  // measure 67
0010
0000
0100
0000
2002
3003
0000
0000
;

//---------------dance-single - ----------------
#NOTEDATA:;
#CHARTNAME:;
#STEPSTYPE:dance-single;
#DESCRIPTION:;
#CHARTSTYLE:;
#DIFFICULTY:Medium;
#METER:5;
#RADARVALUES:0.561881,0.596526,1.058530,0.394354,0.000000,379.000000,277.000000,102.000000,38.000000,0.000000,0.000000,0.000000,0.000000,0.000000,0.561881,0.596526,1.058530,0.394354,0.000000,379.000000,277.000000,102.000000,38.000000,0.000000,0.000000,0.000000,0.000000,0.000000;
#CREDIT:;
#NOTES:
// measure 0
0000
0000
0000
0000
,  // measure 1
0000
0000
0000
0000
,  // measure 2
0000
0000
0000
0000
,  // measure 3
0000
0000
0000
0000
,  // measure 4
1001
0000
0100
0000
0001
1000
0100
0000
,  // measure 5
1001
0000
0010
0000
1000
0001
0100
0000
,  // measure 6
1001
0000
0100
0000
0001
1000
0100
0000
,  // measure 7
0010
0001
1000
0000
1001
0000
0110
0000
,  // measure 8
1002
0013
0210
1300
,  // measure 9
1002
0013
0021
0130
,  // measure 10
2001
3100
1200
0310
,  // measure 11
1001
0110
1001
0100
,  // measure 12
1002
0013
2001
3100
,  // measure 13
1200
0310
0021
0130
,  // measure 14
0210
1300
2100
3001
,  // measure 15
1001
0000
0110
0000
1001
0000
0010
1000
,  // measure 16
0001
0000
0000
0100
0001
0000
0100
0000
,  // measure 17
1001
0100
1000
0001
,  // measure 18
1000
1000
0100
0010
,  // measure 19
1001
0010
0100
1000
,  // measure 20
1000
0001
0100
0010
,  // measure 21
1001
0100
0010
0001
,  // measure 22
1001
0100
1001
0110
,  // measure 23
2001
3100
0120
0031
,  // measure 24
0201
0310
2010
3001
,  // measure 25
0021
0130
2100
3001
,  // measure 26
1001
0110
1001
0010
,  // measure 27
0100
2001
3010
0210
,  // measure 28
0301
2001
3100
0120
,  // measure 29
0031
2001
3100
0110
,  // measure 30
1001
0110
1001
0010
,  // measure 31
1001
0000
0100
0000
1000
0001
0100
0000
,  // measure 32
1001
0000
0010
0000
1000
0001
0010
0000
,  // measure 33
1001
0000
0100
0000
0001
1000
0010
0000
,  // measure 34
1001
0110
1001
0100
,  // measure 35
1000
0100
1000
0000
0001
0000
1000
0000
,  // measure 36
0001
0010
0100
0000
1000
0100
0000
0000
,  // measure 37
1000
0000
1000
0000
0010
0000
0100
0001
,  // measure 38
2000
3001
0002
0013
,  // measure 39
0100
1001
0100
0010
,  // measure 40
0001
1000
0100
0000
0010
0100
0000
1000
,  // measure 41
0001
0001
0100
1000
,  // measure 42
0110
0001
0110
1000
,  // measure 43
0110
0001
0110
1001
,  // measure 44
0100
0000
0010
0000
0001
1000
0001
0000
,  // measure 45
0010
0010
0100
0100
,  // measure 46
1000
0000
0010
0000
0100
0001
0100
0000
,  // measure 47
0010
0010
1000
1000
,  // measure 48
0001
0000
0010
0000
0100
1000
0100
0000
,  // measure 49
1000
1000
0010
0010
,  // measure 50
0100
0001
0100
0000
0010
1000
0010
0000
,  // measure 51
1001
0110
1001
0110
,  // measure 52
2001
3100
0021
0130
,  // measure 53
2001
3010
0201
0310
,  // measure 54
2001
3100
0120
0031
,  // measure 55
1001
0110
1001
0110
,  // measure 56
0001
2100
3010
0201
,  // measure 57
0310
2001
3100
0012
,  // measure 58
1003
0210
0301
0110
,  // measure 59
1001
0110
1001
0000
,  // measure 60
1001
0000
1100
0000
1000
0001
0100
0000
,  // measure 61
1001
0000
0101
0000
0001
1000
0100
0000
,  // measure 62
1001
0000
1100
0000
1000
0001
0100
0000
,  // measure 63
1001
0110
1001
0010
,  // measure 64
1001
0000
0011
0000
0001
1000
0010
0000
,  // measure 65
1001
0000
1010
0000
1000
0001
0010
0000
,  // measure 66
1001
0110
1001
1100
,  // measure 67
1001
0000
0110
0000
2002
3003
0000
0000
;

//---------------dance-single - ----------------
#NOTEDATA:;
#CHARTNAME:;
#STEPSTYPE:dance-single;
#DESCRIPTION:;
#CHARTSTYLE:;
#DIFFICULTY:Hard;
#METER:9;
#RADARVALUES:0.699757,0.666706,0.300955,0.072644,0.093400,472.000000,443.000000,29.000000,7.000000,0.000000,0.000000,0.000000,0.000000,0.000000,0.699757,0.666706,0.300955,0.072644,0.093400,472.000000,443.000000,29.000000,7.000000,0.000000,0.000000,0.000000,0.000000,0.000000;
#CREDIT:;
#NOTES:
// measure 0
0000
0000
0000
0000
,  // measure 1
0000
0000
0000
0000
,  // measure 2
0000
0000
0000
0000
,  // measure 3
0000
0000
0000
0000
,  // measure 4
1000
0001
0010
0100
0010
0001
1000
0010
,  // measure 5
0100
0001
1000
0100
0001
0100
1000
0001
,  // measure 6
1000
0010
0100
0001
0100
1000
0100
0001
,  // measure 7
1000
0000
0001
0000
0010
0000
0100
0000
1000
0001
1000
0001
1000
0000
0000
0000
,  // measure 8
0001
0010
0100
0000
1000
0001
1000
0000
,  // measure 9
0010
0000
1001
0000
0001
1000
0010
1000
,  // measure 10
0001
0000
0110
0000
1000
0010
0100
0001
,  // measure 11
0010
0100
1000
0100
1000
0001
0010
0100
,  // measure 12
1000
0000
1001
0000
0001
0010
0100
0000
,  // measure 13
1001
0000
0110
0000
1000
0001
0010
0001
,  // measure 14
1000
0000
1100
0000
0100
0010
0001
1000
,  // measure 15
0010
0100
0001
0001
1000
0100
0010
0000
,  // measure 16
0001
0000
1000
0001
1000
0000
0000
0000
0001
0000
1000
0001
1000
0000
0000
0000
,  // measure 17
1000
0000
0010
0000
0100
0000
0000
0100
0001
0000
1000
0000
0100
0000
1000
0000
,  // measure 18
0010
0010
0100
0001
1000
0001
0100
0010
,  // measure 19
1000
0000
0001
0000
0010
0000
0000
0001
1000
0000
0010
0000
0100
0000
0001
0000
,  // measure 20
0010
0100
1000
0001
1000
0010
0100
0001
,  // measure 21
1000
0000
0100
0000
1000
0000
0000
0001
0010
0000
0100
0000
1000
0000
0001
0000
,  // measure 22
0001
1000
0010
0100
0001
0000
0110
0000
,  // measure 23
1001
0000
0110
0000
1000
0010
0010
0000
,  // measure 24
0100
0000
0000
0000
1001
0000
0000
0000
0001
1000
0001
1000
0001
0000
0010
0000
,  // measure 25
0100
0000
1001
0000
1000
0010
0010
0100
,  // measure 26
0001
1000
0001
0001
0010
0100
1000
0000
,  // measure 27
1001
0000
0110
0000
1000
0001
0001
0000
,  // measure 28
0100
0000
0000
0000
1001
0000
0000
0000
1000
0001
1000
0001
1000
0000
0100
0000
,  // measure 29
0010
0000
1001
0000
0001
0010
0010
0100
,  // measure 30
1000
0010
0100
0100
0001
1000
0100
0000
,  // measure 31
0100
1000
0001
0100
0001
1000
0100
1000
,  // measure 32
0010
0100
0001
0010
0100
0100
1000
0001
,  // measure 33
1000
0100
0001
0100
1000
0001
0100
0001
,  // measure 34
0010
0010
0100
1000
1001
0000
0110
0000
,  // measure 35
0010
1000
0010
1000
0001
0100
0001
0100
,  // measure 36
0010
1000
0001
0010
0100
2000
0000
3001
,  // measure 37
0010
0000
0001
0000
0010
0000
0000
0010
0100
0000
1000
0000
0001
0000
1000
0000
,  // measure 38
0010
0100
0001
0100
0010
1000
0010
0100
,  // measure 39
0001
0100
0001
0100
0010
1000
0010
1000
,  // measure 40
0001
0010
0100
1000
0001
0200
0000
0310
,  // measure 41
1000
0001
1000
1000
0100
0010
0001
1000
,  // measure 42
0010
0000
0000
0000
1000
0000
0000
0001
1000
0000
0000
0000
0100
0000
1000
0001
,  // measure 43
1000
0000
0000
0000
0001
0000
0000
0010
0001
0000
0010
0000
0100
0000
1000
0000
,  // measure 44
0001
0000
0110
0000
1000
0001
0001
0000
,  // measure 45
1000
0000
1001
0000
0001
0010
0010
0000
,  // measure 46
0001
0000
1001
0000
1000
0100
0100
0000
,  // measure 47
0010
0000
0000
1001
0000
0000
0001
0000
0010
0000
0100
0000
,  // measure 48
2000
0000
3001
0000
0010
0100
0100
0000
,  // measure 49
2000
0000
3100
0000
0020
0100
0130
0000
,  // measure 50
0001
1000
0001
1000
0001
1000
0001
1000
,  // measure 51
0010
0100
0010
0100
0010
0100
0001
0010
,  // measure 52
1001
0000
0110
0000
1000
0010
0010
0000
,  // measure 53
0100
0001
1000
0000
0001
1000
0010
1000
,  // measure 54
0001
0000
0110
0000
1000
0001
0001
1000
,  // measure 55
0010
0100
0001
0001
1000
0000
0110
0000
,  // measure 56
1001
0000
0110
0000
0001
0010
0010
0000
,  // measure 57
0100
1000
0001
0000
1000
0001
0100
1000
,  // measure 58
0100
0000
0110
0000
0001
1000
1000
0100
,  // measure 59
1000
0010
0100
0001
0010
0100
1000
0000
,  // measure 60
0001
1000
0010
0100
0010
1000
0010
1000
,  // measure 61
0001
0010
0100
0010
0001
0100
0001
0100
,  // measure 62
0010
1000
0100
0010
0001
0010
0001
1000
,  // measure 63
0010
0000
0100
0000
0001
0000
1000
0000
0010
0000
0100
0010
0100
0000
0000
0000
,  // measure 64
0001
0010
0001
1000
0010
0100
0001
1000
,  // measure 65
0001
0010
0001
1000
0010
0100
0001
1000
,  // measure 66
0010
0100
0010
1000
0001
0010
0100
1000
,  // measure 67
0001
0001
0010
0100
2002
3003
0000
0000
;
