#VERSION:0.83;
#TITLE:Whatever;
#SUBTITLE:(Ferry Corsten Dub Mix);
#ARTIST:浜崎あゆみ;
#TITLETRANSLIT:;
#SUBTITLETRANSLIT:;
#ARTISTTRANSLIT:Ayumi Hamasaki;
#GENRE:;
#ORIGIN:;
#CREDIT:;
#BANNER:Whatever bn2.png;
#BACKGROUND:Whatever bg.png;
#PREVIEWVID:;
#JACKET:;
#CDIMAGE:;
#DISCIMAGE:;
#LYRICSPATH:;
#CDTITLE:;
#MUSIC:Whatever (Ferry Corsten Dub Mix).mp3;
#OFFSET:-6.685000;
#SAMPLESTART:145.634995;
#SAMPLELENGTH:12.000000;
#SELECTABLE:YES;
#BPMS:0.000=133.000,
144.000=66.500,
194.000=133.000;
#STOPS:;
#DELAYS:;
#WARPS:;
#TIMESIGNATURES:0.000=4=4;
#TICKCOUNTS:0.000=4;
#COMBOS:0.000=1;
#SPEEDS:0.000=1.000=0.000=0;
#SCROLLS:0.000=1.000;
#FAKES:;
#LABELS:0.000=Song Start;
#BGCHANGES:;
#KEYSOUNDS:;
#ATTACKS:
;

//---------------dance-single - ----------------
#NOTEDATA:;
#CHARTNAME:;
#STEPSTYPE:dance-single;
#DESCRIPTION:;
#CHARTSTYLE:;
#DIFFICULTY:Easy;
#METER:3;
#RADARVALUES:0.161472,0.230556,0.020551,0.477810,0.000000,220.000000,216.000000,4.000000,93.000000,0.000000,0.000000,0.000000,0.000000,0.000000,0.161472,0.230556,0.020551,0.477810,0.000000,220.000000,216.000000,4.000000,93.000000,0.000000,0.000000,0.000000,0.000000,0.000000;
#CREDIT:;
#NOTES:
// measure 0
0000
0000
0000
0000
,  // measure 1
0000
0000
0000
0000
,  // measure 2
0000
0000
0000
0000
,  // measure 3
0000
0000
0000
0000
,  // measure 4
1001
0010
0000
0010
,  // measure 5
0000
0010
0000
0010
,  // measure 6
0000
0010
0000
0010
,  // measure 7
0000
0010
0000
0010
,  // measure 8
0100
1000
0000
1000
,  // measure 9
0000
1000
0000
1000
,  // measure 10
0000
0001
0000
0001
,  // measure 11
0000
0001
0100
0100
,  // measure 12
1001
2000
3000
0002
,  // measure 13
0003
2000
3000
0002
,  // measure 14
0003
0020
0030
0200
,  // measure 15
0300
0020
0030
0200
,  // measure 16
0300
2000
3000
0002
,  // measure 17
0003
0200
0300
0020
,  // measure 18
0030
2000
3000
0002
,  // measure 19
0003
0020
0030
0200
,  // measure 20
1300
0002
0003
1000
,  // measure 21
0100
2000
3000
0001
,  // measure 22
0010
0002
0003
1000
,  // measure 23
0010
2000
3000
0001
,  // measure 24
0100
0020
0030
1000
,  // measure 25
0010
0200
0300
0001
,  // measure 26
1000
0020
0030
1000
,  // measure 27
0001
0200
0300
0010
,  // measure 28
2000
0000
0000
0000
,  // measure 29
3200
0000
0320
0000
,  // measure 30
0032
0000
0000
0000
,  // measure 31
2003
0000
3020
0000
,  // measure 32
0230
0000
0000
0000
,  // measure 33
0302
0000
0023
0000
,  // measure 34
0032
0000
0000
0000
,  // measure 35
2003
0000
0000
0000
,  // measure 36
3020
0000
0230
0000
,  // measure 37
0302
0000
0000
2003
,  // measure 38
3020
0000
0230
0000
,  // measure 39
0302
0000
0000
0000
,  // measure 40
2003
0000
3002
0000
,  // measure 41
0203
0000
0000
0320
,  // measure 42
2030
0000
3002
0000
,  // measure 43
0203
0000
0000
0000
,  // measure 44
0320
0000
2030
0000
,  // measure 45
3200
0000
0320
0000
,  // measure 46
0032
0000
2003
3200
,  // measure 47
0320
0000
0032
0000
,  // measure 48
2003
3000
0001
0001
,  // measure 49
0001
0001
0100
0100
,  // measure 50
0001
1000
0100
0100
,  // measure 51
0100
0100
0010
0010
,  // measure 52
0001
0001
1000
1000
,  // measure 53
1000
1000
0100
0100
,  // measure 54
1000
1000
0001
0001
,  // measure 55
0001
0001
0010
0010
,  // measure 56
0100
0100
2000
3000
,  // measure 57
0002
0003
0200
0300
,  // measure 58
0020
0030
2000
3000
,  // measure 59
0002
0003
2000
3000
,  // measure 60
0020
0130
0002
0003
,  // measure 61
2000
3000
0200
0300
,  // measure 62
2000
3000
0002
0003
,  // measure 63
2000
3000
0020
0030
,  // measure 64
0200
0301
1001
0100
,  // measure 65
0000
0100
0000
0010
,  // measure 66
0000
0010
1000
0001
,  // measure 67
0000
0001
0000
1000
,  // measure 68
0000
1000
0010
0100
,  // measure 69
0000
0100
0001
0010
,  // measure 70
0000
0010
0100
1000
,  // measure 71
0000
1000
0001
1000
,  // measure 72
0000
0100
2000
0001
,  // measure 73
0000
0001
3200
0000
,  // measure 74
0320
0000
0032
1000
,  // measure 75
0000
1000
0203
0000
,  // measure 76
0320
0000
2030
0001
,  // measure 77
0000
0001
3200
0000
,  // measure 78
0320
0000
0032
1000
,  // measure 79
0000
1000
0023
0000
,  // measure 80
0230
0000
2300
3000
,  // measure 81
0010
0100
0002
0003
,  // measure 82
0010
0100
2000
3000
,  // measure 83
0010
0100
0002
0003
,  // measure 84
0010
0100
1000
1000
,  // measure 85
0010
0100
0001
0001
,  // measure 86
0010
0100
1000
1000
,  // measure 87
0010
0100
0001
0001
,  // measure 88
0010
0100
2002
0000
,  // measure 89
0000
0000
0000
3003
;

//---------------dance-single - ----------------
#NOTEDATA:;
#CHARTNAME:;
#STEPSTYPE:dance-single;
#DESCRIPTION:;
#CHARTSTYLE:;
#DIFFICULTY:Medium;
#METER:7;
#RADARVALUES:0.342027,0.345834,0.087342,0.272300,0.020551,466.000000,449.000000,17.000000,53.000000,0.000000,0.000000,0.000000,0.000000,0.000000,0.342027,0.345834,0.087342,0.272300,0.020551,466.000000,449.000000,17.000000,53.000000,0.000000,0.000000,0.000000,0.000000,0.000000;
#CREDIT:;
#NOTES:
// measure 0
0000
0000
0000
0000
,  // measure 1
0000
0000
0000
0000
,  // measure 2
0000
0000
0000
0000
,  // measure 3
0000
0000
0000
0000
,  // measure 4
0100
1001
0100
1001
,  // measure 5
0010
0011
0100
1100
,  // measure 6
1000
1001
0001
0110
,  // measure 7
1000
1010
0100
0101
,  // measure 8
0001
0000
1000
0100
1000
0000
0001
0010
,  // measure 9
0001
0000
1000
0010
1000
0000
0001
0100
,  // measure 10
0001
0000
1000
0010
0100
0000
0001
0010
,  // measure 11
0100
0000
1000
0001
1000
0000
0010
0100
,  // measure 12
0001
0000
0001
0000
1000
1000
0100
0010
,  // measure 13
0001
0000
1000
0000
0001
0001
0010
0100
,  // measure 14
1000
0000
0100
0000
1000
1000
0100
0010
,  // measure 15
0001
0000
0010
0000
0001
0001
0010
0100
,  // measure 16
1000
0000
0001
0000
1000
1000
0010
0100
,  // measure 17
0001
0000
0010
0000
0001
0001
1000
0100
,  // measure 18
0010
0000
0010
0000
0001
0001
1000
0010
,  // measure 19
0100
0000
0100
0000
0010
0010
0100
0001
,  // measure 20
1000
0000
0001
0010
0001
1000
0010
0100
,  // measure 21
0010
0000
1000
0100
1000
0010
0100
0001
,  // measure 22
0010
0000
0001
0100
0010
0100
0001
0010
,  // measure 23
0100
0000
1000
0100
0010
0100
1000
0001
,  // measure 24
0010
0000
0100
0100
0010
0000
0001
0001
,  // measure 25
1000
0000
0100
0100
0010
0000
0001
0001
,  // measure 26
1000
0000
0001
0001
0010
0000
0100
0100
,  // measure 27
2000
0002
0000
3003
,  // measure 28
2000
0100
0100
0100
,  // measure 29
3002
1000
2003
0100
,  // measure 30
3020
0100
0100
0100
,  // measure 31
2030
0100
3020
0100
,  // measure 32
2030
0001
0001
0001
,  // measure 33
3200
0001
0320
0001
,  // measure 34
2030
0001
0001
3001
,  // measure 35
1000
0010
0100
0010
1000
0001
0010
0100
,  // measure 36
0020
0000
0230
0000
,  // measure 37
2300
0000
0000
3002
,  // measure 38
0023
0000
0230
0000
,  // measure 39
2300
0000
0000
0000
,  // measure 40
3001
0010
0001
1000
0010
0100
0001
1000
,  // measure 41
0002
0003
1000
0100
0020
0030
0001
0010
,  // measure 42
0200
0300
1000
0100
0001
0010
1000
0100
,  // measure 43
0020
0030
0001
1000
0200
0300
1000
0001
,  // measure 44
0200
0300
0010
1000
0001
0010
0100
1000
,  // measure 45
0001
1000
1000
1000
0010
0200
0300
0001
,  // measure 46
0200
0300
0010
1000
0002
0000
0103
0010
,  // measure 47
1000
1000
0001
0010
0200
2300
0000
0000
,  // measure 48
3002
0000
0023
0230
1300
0001
1000
0000
,  // measure 49
0010
0100
0001
1000
0100
0100
0100
0000
,  // measure 50
0010
0001
1000
0001
0010
0010
0010
0000
,  // measure 51
0100
1000
0001
0100
0001
0001
0001
0000
,  // measure 52
1000
0010
1000
0001
0100
0100
0100
0000
,  // measure 53
0001
1000
0001
0010
0100
0100
0100
0000
,  // measure 54
0010
0001
1000
0001
0010
0010
0010
0000
,  // measure 55
0010
0001
1000
0010
1000
1000
1000
0000
,  // measure 56
0100
0100
0100
0010
0002
0000
0000
1003
,  // measure 57
0200
0000
0000
1300
0002
0000
0000
1003
,  // measure 58
0020
0000
0000
0130
0002
0000
0000
1003
,  // measure 59
0200
0000
0000
0310
0002
0000
0000
1003
,  // measure 60
0020
0000
0000
0000
0000
0000
0130
0000
0001
0000
0000
0001
0000
0000
0001
0000
,  // measure 61
0100
0000
0000
0100
0000
0000
0100
0000
0001
0000
0000
0001
0000
0000
0001
0000
,  // measure 62
0010
0000
0000
0010
0000
0000
0010
0000
0001
0000
0000
0001
0000
0000
0001
0000
,  // measure 63
1000
0000
0000
1000
0000
0000
1000
0000
0010
0000
0000
0010
0000
0000
0010
0000
,  // measure 64
0100
0000
0000
0100
0000
0000
0100
0000
0001
0000
1000
0000
0100
0000
0000
0000
,  // measure 65
0010
0000
1001
0000
1000
0001
0100
0000
,  // measure 66
0010
0000
1001
0000
0001
1000
0100
0000
,  // measure 67
0100
0000
1001
0000
0001
1000
0010
0000
,  // measure 68
0010
0000
1001
0000
0001
0001
0010
0000
,  // measure 69
0100
0000
1001
0000
1000
1000
0010
0000
,  // measure 70
0100
0000
1001
0000
0001
0010
0100
0000
,  // measure 71
0010
0000
1001
0000
1000
0100
0010
0000
,  // measure 72
0100
1001
2000
0001
,  // measure 73
0100
0100
3002
1000
,  // measure 74
0023
0100
0032
1000
,  // measure 75
0100
0100
2003
0001
,  // measure 76
3200
0010
0302
0013
,  // measure 77
0100
1000
0010
0000
0200
0000
0310
0000
,  // measure 78
1000
0100
0001
0000
0200
0000
1300
0000
,  // measure 79
0010
0100
0001
0000
2000
0000
3001
0000
,  // measure 80
0010
0100
1000
0001
1000
0000
1000
0000
,  // measure 81
0100
0010
0001
0000
1000
0000
0001
0000
,  // measure 82
0100
0010
1000
0000
0001
0000
1000
0000
,  // measure 83
0001
0010
0100
0000
1000
0000
1000
0000
,  // measure 84
0100
0010
0001
0000
0100
0000
0100
0000
,  // measure 85
0100
0010
1000
0000
0001
0000
0001
0000
,  // measure 86
0001
0010
0100
0000
1000
0000
1000
0000
,  // measure 87
1000
0010
0100
0000
0001
0000
1000
0000
,  // measure 88
1000
0010
0100
0000
2002
0000
0000
0000
,  // measure 89
0000
0000
0000
3003
;

//---------------dance-single - ----------------
#NOTEDATA:;
#CHARTNAME:;
#STEPSTYPE:dance-single;
#DESCRIPTION:;
#CHARTSTYLE:;
#DIFFICULTY:Hard;
#METER:10;
#RADARVALUES:0.549738,0.668613,0.092479,0.390468,0.806626,749.000000,731.000000,18.000000,76.000000,0.000000,0.000000,0.000000,0.000000,0.000000,0.549738,0.668613,0.092479,0.390468,0.806626,749.000000,731.000000,18.000000,76.000000,0.000000,0.000000,0.000000,0.000000,0.000000;
#CREDIT:;
#NOTES:
// measure 0
0000
0000
0000
0000
,  // measure 1
0000
0000
0000
0000
,  // measure 2
0000
0000
0000
0000
,  // measure 3
0000
0000
0000
0000
,  // measure 4
1000
0000
0000
1000
0000
0000
1000
0000
0010
0000
0000
0010
0000
0000
0010
0000
,  // measure 5
1000
0000
0000
1000
0000
0000
1000
0000
0001
0000
0000
0001
0000
0000
0001
0000
,  // measure 6
1000
0000
0000
1000
0000
0000
1000
0000
0100
0000
0000
0100
0000
0000
0100
0000
,  // measure 7
1000
0000
0000
1000
0000
0000
1000
0000
0001
0000
0000
0001
0000
0000
0001
0000
,  // measure 8
1000
0000
0000
1000
0001
0000
1000
0000
0100
0000
0000
0100
1000
0000
0001
0000
,  // measure 9
1000
0000
0000
1000
0001
0000
1000
0000
0010
0000
0000
0010
1000
0000
0001
0000
,  // measure 10
1000
0000
0000
1000
0001
0000
0100
0000
0001
0000
0000
0001
1000
0000
0100
0000
,  // measure 11
1000
0000
0000
1000
0001
0000
0010
0000
0100
0000
0000
0000
0010
0000
0100
0000
,  // measure 12
1001
0000
1000
0000
0001
0000
0000
1000
0000
0001
0000
2000
0000
0000
3001
0000
,  // measure 13
0100
0000
0010
0000
0100
0000
0000
0010
0000
0100
0000
0020
0000
0000
0130
0000
,  // measure 14
0001
0000
0010
0000
0001
0000
0000
1000
0000
0100
0000
2000
0000
0000
3001
0000
,  // measure 15
1000
0000
0010
0000
1000
0000
0000
0001
0000
0100
0000
0002
0000
0000
1003
0000
,  // measure 16
0010
0000
0010
0000
0100
0000
0001
1000
0000
0001
0000
2000
0000
0000
3100
0000
,  // measure 17
0010
0000
0001
0000
1000
0000
0010
0100
0000
0010
0000
0200
0000
0000
0301
0000
,  // measure 18
1000
0000
1000
0000
0001
0000
0010
0100
0000
0010
0000
0200
0000
0000
1300
0000
,  // measure 19
0001
0000
0010
0000
0001
0000
1000
0001
0000
1000
0000
0002
0000
0000
1003
0000
,  // measure 20
0001
0000
1000
0000
0100
0000
1000
0001
0000
0001
1000
0000
0100
0000
0010
0001
,  // measure 21
0000
0001
1000
0000
0010
0000
0100
0001
0000
0001
0100
0000
0010
0000
1000
0001
,  // measure 22
0000
0001
0010
0000
0100
0000
1000
0010
0000
0010
0100
0000
0001
0000
1000
0010
,  // measure 23
0000
0010
0100
0000
0001
0000
0100
0010
0000
0010
1000
0000
0010
0000
0100
0010
,  // measure 24
0000
0010
0100
0001
0100
0001
1000
0100
0000
0100
1000
0001
1000
0001
1000
0010
,  // measure 25
0000
0010
0100
0001
0100
0001
1000
0010
0000
0010
0100
0010
1000
0001
1000
0100
,  // measure 26
0000
0100
1000
0001
1000
0001
1000
0100
0000
0100
0010
0001
1000
0001
1000
0010
,  // measure 27
0000
0010
0100
0001
1000
0001
1000
0100
0000
0100
1000
0001
0010
0001
0010
0100
,  // measure 28
2000
0000
0001
0000
0100
0100
0100
0000
,  // measure 29
3002
1000
0023
1000
,  // measure 30
0230
0000
0001
0000
0010
0010
0010
0000
,  // measure 31
2300
0001
3020
1000
,  // measure 32
1030
0000
0000
0000
0001
0000
0001
0010
0000
0010
0001
0000
1000
0000
1000
0010
,  // measure 33
0000
0010
1000
0000
0001
0000
0001
0010
0000
0010
0001
0000
1000
0000
1000
0001
,  // measure 34
0000
0001
1000
0000
0100
0000
0100
1000
0000
1000
0001
0000
0010
0000
0100
0000
,  // measure 35
1000
0100
1000
0100
0010
0001
0010
0001
1000
0100
0010
0001
1000
0100
0010
0001
,  // measure 36
2000
0000
3020
0000
,  // measure 37
0230
0000
0000
0302
,  // measure 38
0023
0000
0230
0000
,  // measure 39
2300
0000
0000
0000
0000
0000
0000
0000
0000
0000
0000
0000
3000
0100
0100
0010
,  // measure 40
0002
0000
1003
2000
0000
3200
0000
0310
0002
0000
1003
0020
0000
0230
0000
0302
,  // measure 41
0000
0000
0003
0000
0000
0000
0000
0000
1000
0000
0010
0000
0100
0000
0020
0000
0000
0000
0030
0000
0000
0000
1000
0000
0001
0000
0000
0010
0000
0000
0100
0000
,  // measure 42
2000
0000
3000
0001
0010
0001
0010
0001
2000
0000
3010
0200
0000
0301
1000
0010
,  // measure 43
2000
0000
0000
0000
3000
0001
0010
0200
0000
0300
0000
0000
0000
1000
1000
0100
,  // measure 44
0020
0000
0031
1000
0000
0100
1000
0002
0000
0013
0100
1000
0000
0100
1000
0010
,  // measure 45
0100
0000
0001
0000
1000
0000
0010
0000
0100
0000
0001
0000
0100
0000
0010
0000
0000
0000
1000
0000
0002
0000
0000
0000
0000
0000
1003
0000
0010
0000
0100
0002
,  // measure 46
0000
0000
0000
0000
0003
0000
0010
0000
0010
0000
0100
0000
1000
0000
0001
0000
0002
0000
0000
0000
0013
0000
0200
0000
0000
0000
1300
0000
0001
0000
0010
0100
,  // measure 47
1000
0001
1000
0100
1000
0001
0010
0200
0000
1300
2000
0000
0000
0000
0000
0000
,  // measure 48
3000
0000
0000
0000
0000
0000
0000
0000
0000
0001
0000
0000
1000
0000
0000
0000
0001
0000
0000
0000
0010
0000
0000
0000
0100
0000
0000
1000
0000
0000
0100
0000
0000
1000
0000
0000
0100
0000
0000
2000
0000
0000
0000
0000
0000
3001
0000
0000
,  // measure 49
0010
0001
0010
0002
0000
2003
0000
3010
0100
0001
0100
0001
0100
0002
0000
1003
,  // measure 50
0010
1000
0010
2000
0000
3002
0000
1003
0010
1000
0010
1000
0001
0020
0000
0031
,  // measure 51
1000
0010
1000
0020
0000
0230
0000
0301
1000
0100
1000
0100
1000
0002
0000
1003
,  // measure 52
0010
1000
0010
2000
0000
3002
0000
0013
0001
1000
0001
1000
0010
2000
0000
3001
,  // measure 53
0010
0001
0010
0002
0000
2003
0000
3001
0100
0001
0100
0001
1000
0020
0000
0130
,  // measure 54
0001
1000
0001
0200
0000
0302
0000
1003
0010
1000
0010
1000
0001
0020
0000
0130
,  // measure 55
1000
0001
1000
0200
0000
2300
0000
3001
0010
0001
0010
0001
1000
0020
0000
1030
,  // measure 56
0001
1000
0010
0200
0000
0302
0000
1003
0100
0000
0000
0100
0000
0000
0100
0000
,  // measure 57
1000
0000
0000
1000
0000
0000
1000
0000
0001
0000
0000
0001
0000
0000
0001
0000
,  // measure 58
0010
0000
0000
0010
0000
0000
0010
0000
0001
0000
0000
0001
0000
0000
0001
0000
,  // measure 59
1000
0000
0000
1000
0000
0000
1000
0000
0010
0000
0000
0010
0000
0000
0010
0000
,  // measure 60
1000
0000
0000
1000
0000
0000
0010
0000
0100
0000
0000
0100
0000
0000
0100
0000
,  // measure 61
0001
0000
0000
0001
0000
0000
0001
0000
0100
0000
0000
0100
0000
0000
0100
0000
,  // measure 62
0001
0000
0000
0001
0000
0000
0001
0000
0010
0000
0000
0010
0000
0000
0010
0000
,  // measure 63
0001
0000
0000
0001
0000
0000
0001
0000
1000
0000
0000
1000
0000
0000
1000
0000
,  // measure 64
0100
0000
0000
0100
0000
0000
0100
0000
1000
0000
0001
0000
1000
0100
0000
0100
,  // measure 65
1000
0000
0010
0000
0110
0000
0100
0000
0010
0000
1000
0000
0001
1000
0000
1000
,  // measure 66
0010
0000
0100
0000
0101
0000
0001
0000
1000
0000
0010
0000
0100
0001
0000
0001
,  // measure 67
1000
0000
0001
0000
0011
0000
0010
0000
0100
0000
1000
0000
0001
0010
0000
0010
,  // measure 68
0001
0000
0100
0000
0110
0000
0010
0000
1000
0000
0001
0000
0011
0000
0000
0010
,  // measure 69
0001
0000
1000
0100
1000
0000
0001
0000
1000
0000
0010
0000
0110
0000
0000
0010
,  // measure 70
1000
0000
0001
0010
0001
0000
1000
0000
0001
0000
1000
0000
1100
0000
0000
0100
,  // measure 71
1000
0000
0001
0100
0001
0000
0010
0000
0100
0000
1000
0000
1001
0000
0000
0001
,  // measure 72
0010
0000
0100
1000
0100
0000
1000
0000
0001
0010
0001
0010
0001
0010
0000
0010
,  // measure 73
0100
0000
1000
0000
1001
0000
0000
0000
1000
0100
1000
0100
1000
0100
0000
0100
,  // measure 74
0010
0000
0001
0000
1001
0000
0000
0000
0001
0100
0001
0100
0001
0100
0000
0100
,  // measure 75
0010
1000
0001
0000
1001
0000
0000
0000
1000
0010
1000
0010
1000
0010
0000
0010
,  // measure 76
0100
0001
1000
0000
1001
0000
0000
0000
0001
0010
0001
0000
0110
0000
0000
0000
,  // measure 77
1000
0010
1000
0000
0110
0000
0000
0000
0001
0100
0001
0000
0110
0000
0000
0000
,  // measure 78
1000
0010
1000
0000
0110
0000
0000
0000
0001
0000
0000
0100
0001
0000
1000
0100
,  // measure 79
1000
0000
0000
0100
1000
0000
0001
0000
1000
0010
0100
0001
1000
0010
0100
0001
,  // measure 80
1000
0100
0010
0001
1000
0100
0010
0001
1000
0000
0000
0000
1000
0000
0000
0001
,  // measure 81
0000
0010
0000
0200
0000
0300
0000
0000
1000
0000
0000
0000
0001
0000
0000
1000
,  // measure 82
0000
0010
0000
0200
0000
0300
0000
0000
0001
0000
0001
0000
1000
0000
0000
1000
,  // measure 83
0000
0010
0000
0200
0000
0300
0000
0000
0001
0000
1000
0000
1000
0000
0000
0001
,  // measure 84
0000
0010
0000
0200
0000
0300
0000
0000
1000
0000
0001
0100
0001
0000
0000
1000
,  // measure 85
0000
0010
0000
0200
0000
0300
0000
0000
0001
0000
1000
0100
1000
0000
0000
0001
,  // measure 86
0000
0010
0000
0200
0000
0300
0000
0000
1000
0000
0001
0010
0001
0000
0000
1000
,  // measure 87
0000
0010
0000
0200
0000
0300
0000
0000
0001
0000
1000
0010
1000
0000
0000
0001
,  // measure 88
0000
0010
0000
0200
0000
0300
0010
0000
2002
0000
0000
0000
0000
0000
0000
0000
,  // measure 89
0000
0000
0000
3003
;
