#TITLE:Unite!;
#SUBTITLE:;
#ARTIST:浜崎あゆみ;
#TITLETRANSLIT:;
#SUBTITLETRANSLIT:;
#ARTISTTRANSLIT:Ayumi Hamasaki;
#GENRE:;
#CREDIT:;
#BANNER:Unite bn2.png;
#BACKGROUND:Unite bg.png;
#LYRICSPATH:;
#CDTITLE:;
#MUSIC:Unite!.mp3;
#OFFSET:-0.167000;
#SAMPLESTART:81.940002;
#SAMPLELENGTH:12.000000;
#SELECTABLE:YES;
#BPMS:0.000000=68.940002
,32.000000=137.919998
,268.000000=100.000000
;
#STOPS:
;
#BGCHANGES:;
#KEYSOUNDS:;
#ATTACKS:;

//---------------dance-single - ----------------
#NOTES:
     dance-single:
     :
     Easy:
     3:
     0.246747,0.305070,0.127112,0.523404,0.000000,231.000000,214.000000,17.000000,70.000000,0.000000,0.000000,0.246747,0.305070,0.127112,0.523404,0.000000,231.000000,214.000000,17.000000,70.000000,0.000000,0.000000:
// measure 0
0000
0000
0000
0000
,  // measure 1
0000
0000
0000
0000
,  // measure 2
0000
0000
0000
0000
,  // measure 3
0000
0000
0000
0000
,  // measure 4
2000
0000
3020
0230
,  // measure 5
0302
0000
0203
0320
,  // measure 6
2030
0000
3020
0230
,  // measure 7
0302
2003
3002
0023
,  // measure 8
0031
0001
1000
0010
,  // measure 9
1000
1000
0001
0010
,  // measure 10
0001
0001
1000
0100
,  // measure 11
1000
1000
0001
0100
,  // measure 12
0001
0001
0010
0100
,  // measure 13
1000
1000
0100
1000
,  // measure 14
0100
0100
0010
0001
,  // measure 15
0001
1000
1000
0010
,  // measure 16
1001
1000
0010
0100
,  // measure 17
0001
0001
0010
0100
,  // measure 18
1001
0000
1000
0000
,  // measure 19
0020
0030
0200
0300
,  // measure 20
0001
0001
0010
0100
,  // measure 21
1000
1000
0100
0010
,  // measure 22
0001
1000
1001
0010
,  // measure 23
2002
3003
0200
0300
,  // measure 24
2000
3002
1003
0100
,  // measure 25
2000
3002
0013
0100
,  // measure 26
2002
3003
0100
0000
,  // measure 27
0001
1000
2002
3003
,  // measure 28
0020
0230
1300
0001
,  // measure 29
2000
3002
1003
0010
,  // measure 30
0100
0010
2002
3003
,  // measure 31
0010
0010
0100
0100
,  // measure 32
0002
0103
0001
0100
,  // measure 33
0010
1000
1001
0000
,  // measure 34
2000
3001
1000
0001
,  // measure 35
0010
0100
0220
0330
,  // measure 36
2000
3100
1000
0100
,  // measure 37
0010
0010
1001
0010
,  // measure 38
0100
0100
0100
0100
,  // measure 39
0002
0000
0023
0000
,  // measure 40
0230
0000
1300
0001
,  // measure 41
2000
0000
3020
0000
,  // measure 42
0230
0000
0310
1000
,  // measure 43
0002
0000
0023
0000
,  // measure 44
0230
0000
1300
0001
,  // measure 45
2000
0000
3020
0000
,  // measure 46
2030
0000
3002
1003
,  // measure 47
2000
0000
3020
0000
,  // measure 48
0230
0000
0301
0010
,  // measure 49
2000
0000
3020
0000
,  // measure 50
0032
0000
0013
0100
,  // measure 51
2000
0000
3020
0000
,  // measure 52
0230
0000
0301
0010
,  // measure 53
2000
0000
3200
0000
,  // measure 54
2300
0000
3020
0130
,  // measure 55
0002
1000
1000
1003
,  // measure 56
0020
0100
0100
0130
,  // measure 57
2000
0010
0010
3010
,  // measure 58
0002
1003
0020
0130
,  // measure 59
1001
0100
1000
0110
,  // measure 60
0001
0001
0010
0100
,  // measure 61
1000
0100
0001
0110
,  // measure 62
1000
0001
1000
0100
,  // measure 63
1001
0010
1000
0110
,  // measure 64
0001
0001
1000
0010
,  // measure 65
0100
0001
1000
0110
,  // measure 66
0001
0010
0100
1000
,  // measure 67
2002
0000
0000
0000
,  // measure 68
3003
0000
0000
0000
;

//---------------dance-single - ----------------
#NOTES:
     dance-single:
     :
     Medium:
     6:
     0.319383,0.381337,0.119635,0.635562,0.003739,299.000000,283.000000,16.000000,85.000000,0.000000,0.000000,0.319383,0.381337,0.119635,0.635562,0.003739,299.000000,283.000000,16.000000,85.000000,0.000000,0.000000:
// measure 0
0000
0000
0000
0000
,  // measure 1
0000
0000
0000
0000
,  // measure 2
0000
0000
0000
0000
,  // measure 3
0000
0000
0000
0000
,  // measure 4
0002
0000
0023
0000
0230
0000
1300
0001
,  // measure 5
2000
0000
3020
0000
0230
0000
0301
1000
,  // measure 6
0002
0000
0023
0000
0230
0000
1300
1000
,  // measure 7
0020
0230
0302
0023
,  // measure 8
0130
0000
1000
0000
0001
1000
0010
0000
,  // measure 9
1000
0000
0001
0000
1000
0100
0010
0000
,  // measure 10
0001
0000
1000
0000
0010
0100
0001
0000
,  // measure 11
1000
0100
1000
0000
0001
0100
0001
0000
,  // measure 12
1001
0000
0010
0000
0001
0010
0001
0000
,  // measure 13
1001
0000
1000
0000
0010
0100
0001
0000
,  // measure 14
1001
0000
1000
0000
0001
0010
0100
0000
,  // measure 15
1000
0110
0001
0110
,  // measure 16
2000
0000
3020
0000
0130
0001
1000
0000
,  // measure 17
0002
0000
0023
0000
0130
1000
0001
0000
,  // measure 18
2000
0000
3002
0000
1003
1000
1000
0000
,  // measure 19
0002
0000
0000
0013
0020
0000
0130
1000
,  // measure 20
0002
0000
2003
0000
3100
0010
0001
0000
,  // measure 21
2000
0000
3002
0000
0103
0010
1000
0001
,  // measure 22
0200
0301
0010
0100
,  // measure 23
0020
0000
0030
0100
0200
0000
0300
0001
,  // measure 24
2000
0000
3020
0000
0130
0001
1000
0000
,  // measure 25
0002
0000
0023
0000
0130
1000
0001
1000
,  // measure 26
0020
0000
0230
0000
0301
1000
0100
0000
,  // measure 27
2000
0000
0000
3010
0020
0000
0000
0130
,  // measure 28
0200
0000
0302
0000
1003
0010
0001
0000
,  // measure 29
0200
0000
2300
0000
3010
0100
0001
1000
,  // measure 30
0100
0000
0010
0100
0000
1000
0001
0000
,  // measure 31
2000
0000
3001
0000
0002
0000
1003
0100
,  // measure 32
0020
0230
2300
3002
,  // measure 33
0023
0000
0000
0130
2000
0000
3000
0100
,  // measure 34
0010
0100
1000
0010
,  // measure 35
0001
0000
0000
0001
0000
0000
1000
0000
1000
0000
0000
0000
0000
0000
1000
0000
,  // measure 36
0020
0032
0203
0302
,  // measure 37
0023
0000
0030
0100
1000
0001
1000
0000
,  // measure 38
0100
0100
0100
0100
,  // measure 39
2001
0000
3020
0000
,  // measure 40
0230
0000
0000
0001
0301
0000
1000
0000
,  // measure 41
0002
0000
0023
0000
,  // measure 42
0230
0000
0000
0010
0310
0000
0100
0000
,  // measure 43
2000
0000
3020
0000
,  // measure 44
0230
0000
0000
0001
0301
0000
0010
0000
,  // measure 45
0002
0000
0023
0000
,  // measure 46
0032
0000
0000
0000
0023
0000
0000
0130
,  // measure 47
2000
0010
3020
0100
,  // measure 48
0230
0000
0000
0001
0301
0000
1000
0000
,  // measure 49
0002
0010
0023
0100
,  // measure 50
0230
0000
0000
0010
0310
0000
0100
0000
,  // measure 51
2000
0010
3020
0100
,  // measure 52
0230
0000
0000
0001
0301
0000
0010
0000
,  // measure 53
0002
0100
2003
0100
,  // measure 54
3020
0000
0100
0000
2030
0000
3100
1000
,  // measure 55
0020
1000
0001
0130
,  // measure 56
0002
0000
0010
0000
0100
0000
1003
0100
,  // measure 57
0200
1000
0010
1300
,  // measure 58
0020
1000
0001
1030
,  // measure 59
1001
0000
0100
0000
1000
0100
0001
0000
,  // measure 60
0011
0000
1100
0000
0001
1000
0100
0000
,  // measure 61
0010
0000
0010
0000
0100
1000
0010
0000
,  // measure 62
0100
0101
0010
1010
,  // measure 63
1001
0000
1000
0000
0010
0100
0001
0000
,  // measure 64
0011
0000
1100
0000
0001
1000
0001
0000
,  // measure 65
1000
0000
0110
0000
0001
0010
0100
0000
,  // measure 66
1000
0100
0001
0000
1000
0100
0001
0000
,  // measure 67
2002
0000
0000
0000
,  // measure 68
3003
0000
0000
0000
;

//---------------dance-single - ----------------
#NOTES:
     dance-single:
     :
     Hard:
     8:
     0.412314,0.483027,0.104681,0.486018,0.171975,386.000000,372.000000,14.000000,65.000000,0.000000,0.000000,0.412314,0.483027,0.104681,0.486018,0.171975,386.000000,372.000000,14.000000,65.000000,0.000000,0.000000:
// measure 0
0000
0000
0000
0000
,  // measure 1
0000
0000
0000
0000
,  // measure 2
0000
0000
0000
0000
,  // measure 3
0000
0000
0000
0000
,  // measure 4
0002
0000
0000
0000
0023
0000
0000
0000
0230
0000
0000
1300
1000
0000
0001
0000
,  // measure 5
0020
0000
0000
0000
0230
0000
0000
0000
2300
0000
0000
3001
0001
0000
0001
0000
,  // measure 6
0020
0000
0000
0000
0230
0000
0000
0000
2300
0000
0000
3001
0001
0000
1000
0000
,  // measure 7
0020
0230
0302
0023
,  // measure 8
0130
1000
0001
1000
0000
0010
0100
0001
,  // measure 9
1000
0001
0100
0001
0000
0010
0100
1000
,  // measure 10
0001
0100
0001
1000
0000
0001
0010
0100
,  // measure 11
1000
0001
1000
0100
0000
1000
0010
0100
,  // measure 12
0001
0010
0100
1000
0000
0001
1000
1000
,  // measure 13
1000
0100
0010
0001
0000
1000
0001
0001
,  // measure 14
0001
0100
0010
1000
0000
1000
0010
0100
,  // measure 15
0010
1000
0001
0100
0000
1001
0000
0100
,  // measure 16
2000
0000
3002
0000
1003
0010
0100
0001
,  // measure 17
0002
0000
2003
0000
3001
0010
0100
1000
,  // measure 18
0010
0000
0000
0000
0100
0000
0000
0001
0000
0000
0100
0000
0010
0000
0000
0000
,  // measure 19
0002
0000
0000
1000
1003
0000
0110
0001
,  // measure 20
2000
0000
0000
0000
3020
0000
0000
0130
0001
0000
1000
0000
0100
0000
0010
0000
,  // measure 21
0020
0000
0000
0000
0032
0000
0000
1003
0010
0000
0100
0000
0001
0000
1000
0000
,  // measure 22
0001
0000
0000
0000
1000
0000
0000
0100
0000
0000
0010
0000
0001
0000
0000
0000
,  // measure 23
0020
0000
0000
0100
0130
0000
1001
0100
,  // measure 24
2000
0000
0000
0000
3002
0000
0000
0000
1003
0010
0000
0100
0000
0000
0001
0000
,  // measure 25
0002
0000
0000
0000
2003
0000
0000
0000
3001
0010
0000
0100
0000
0000
1000
0000
,  // measure 26
0001
0000
0000
0000
0100
0000
0000
0010
0000
0000
0100
0000
0001
0000
0000
0000
,  // measure 27
2000
0000
0000
0010
3010
0000
0101
1000
,  // measure 28
2000
0000
0000
0000
3002
0000
0000
1003
0100
1000
0000
0001
0000
0000
0100
0000
,  // measure 29
0002
0000
0000
0000
2003
0000
0000
3001
0010
0001
0000
1000
0000
0000
0100
0000
,  // measure 30
0010
0000
0001
1000
0000
0100
1000
0000
,  // measure 31
0001
0000
0000
0000
1000
0000
0100
0000
0000
0100
0010
0000
0100
0000
0110
0000
,  // measure 32
1000
0000
0000
0000
0110
0000
0000
0000
0010
0000
0000
0100
0000
0000
0100
0000
,  // measure 33
0020
0000
0030
1000
0200
0000
0300
0001
,  // measure 34
1000
0000
0000
0000
0100
0000
0001
0000
0010
0000
0000
0100
0000
0000
1000
0000
,  // measure 35
0001
0000
0000
1000
0000
0000
0010
0000
0110
0000
0000
0000
0000
0000
0010
0000
,  // measure 36
1001
0000
0000
0000
0100
0000
0000
0000
1000
0000
0000
0001
0000
0000
1000
0000
,  // measure 37
0010
0000
0000
0010
0000
0000
0100
0000
0002
0000
1000
0000
1003
0000
0100
0000
,  // measure 38
0020
0130
2000
3001
,  // measure 39
0020
0001
0230
1000
,  // measure 40
2300
0000
0000
3010
0100
0000
0110
0000
,  // measure 41
0002
1000
0023
0001
,  // measure 42
0230
0000
0000
1300
0010
0000
0110
0000
,  // measure 43
2000
0001
3020
1000
,  // measure 44
0230
0000
0000
0001
0301
0000
0110
0000
,  // measure 45
2000
0010
3200
0010
,  // measure 46
2300
0000
0001
0000
3020
0000
0000
0100
,  // measure 47
0230
0000
0301
0000
1000
0100
0010
0000
,  // measure 48
0002
0000
1003
0010
0100
0000
0001
0000
,  // measure 49
2000
0000
3001
0000
1000
0010
0100
0000
,  // measure 50
0001
1000
0100
0010
0100
1000
0010
0100
,  // measure 51
0002
0000
1003
0001
0100
0000
0010
0000
,  // measure 52
2000
0000
3100
0010
0001
0000
0001
0000
,  // measure 53
2000
0100
3100
0000
0020
0001
0031
0000
,  // measure 54
2000
0010
3010
0100
0002
0010
0013
0100
,  // measure 55
2000
0000
0000
0000
3001
0000
0000
0100
0000
0000
0010
0000
0100
0000
0001
0000
,  // measure 56
0020
0000
0000
0000
0130
0000
0000
1000
0000
0000
0001
0000
1000
0000
0010
0000
,  // measure 57
0200
0000
0000
0000
0301
0000
0000
1000
0000
0001
0010
0000
0100
0000
0000
0000
,  // measure 58
0020
0000
0000
0000
0031
0000
0000
1000
0000
0001
0010
0000
0100
0000
0000
0000
,  // measure 59
1001
0000
0000
0000
0001
0000
1000
0100
0000
1000
0001
0000
0010
0000
0000
0000
,  // measure 60
0100
0000
0000
0000
1000
0000
0001
0100
0000
0001
1000
0000
0001
0000
0000
0000
,  // measure 61
0010
0000
0000
0000
0001
0000
0010
0100
0000
0010
0001
0000
1000
0000
0000
0000
,  // measure 62
0010
0000
0000
0000
1000
0000
0100
0010
0000
0100
1000
0000
0001
0000
0000
0000
,  // measure 63
1001
0000
1000
0000
0001
0000
0010
0100
0000
0100
0010
0000
0001
0000
0000
0000
,  // measure 64
1000
0000
0001
0000
1000
0000
0010
0100
0000
0100
0010
0000
1000
0000
0000
0000
,  // measure 65
0001
0000
0010
0000
0100
0000
1000
0001
0000
0001
1000
0000
0001
0000
0000
0000
,  // measure 66
1000
0000
0100
0000
0010
0000
0001
1000
0000
1000
0001
0000
0010
0000
0100
0000
,  // measure 67
2002
0000
0000
0000
,  // measure 68
3003
0000
0000
0000
;
