#VERSION:0.83;
#TITLE:Unite!;
#SUBTITLE:(Psycho Trance Mix);
#ARTIST:浜崎あゆみ;
#TITLETRANSLIT:;
#SUBTITLETRANSLIT:;
#ARTISTTRANSLIT:Ayumi Hamasaki;
#GENRE:;
#ORIGIN:;
#CREDIT:;
#BANNER:Unite psychotr bn2.png;
#BACKGROUND:Unite psychotr bg.png;
#PREVIEWVID:;
#JACKET:;
#CDIMAGE:;
#DISCIMAGE:;
#LYRICSPATH:;
#CDTITLE:;
#MUSIC:Unite! (Psycho Trance Mix).mp3;
#OFFSET:-0.910000;
#SAMPLESTART:84.369995;
#SAMPLELENGTH:12.000000;
#SELECTABLE:YES;
#BPMS:0.000=138.000;
#STOPS:;
#DELAYS:;
#WARPS:;
#TIMESIGNATURES:0.000=4=4;
#TICKCOUNTS:0.000=4;
#COMBOS:0.000=1;
#SPEEDS:0.000=1.000=0.000=0;
#SCROLLS:0.000=1.000;
#FAKES:;
#LABELS:0.000=Song Start;
#BGCHANGES:;
#KEYSOUNDS:;
#ATTACKS:
;

//---------------dance-single - ----------------
#NOTEDATA:;
#CHARTNAME:;
#STEPSTYPE:dance-single;
#DESCRIPTION:;
#CHARTSTYLE:;
#DIFFICULTY:Easy;
#METER:2;
#RADARVALUES:0.208801,0.276907,0.022838,0.548104,0.000000,192.000000,189.000000,3.000000,72.000000,0.000000,0.000000,0.000000,0.000000,0.000000,0.208801,0.276907,0.022838,0.548104,0.000000,192.000000,189.000000,3.000000,72.000000,0.000000,0.000000,0.000000,0.000000,0.000000;
#CREDIT:;
#NOTES:
// measure 0
0000
0000
0000
0000
,  // measure 1
0000
0000
0000
0000
,  // measure 2
0000
0000
0000
0000
,  // measure 3
0000
0000
0000
0000
,  // measure 4
0010
0000
0000
0000
,  // measure 5
0100
0000
0000
0000
,  // measure 6
0001
0000
0000
0000
,  // measure 7
2002
0000
0000
3003
,  // measure 8
1000
0001
1000
0010
,  // measure 9
0100
0001
0100
0001
,  // measure 10
1000
0001
1000
0010
,  // measure 11
0100
0001
0100
0010
,  // measure 12
1000
0001
0010
0001
,  // measure 13
1000
1000
0010
0100
,  // measure 14
0001
0100
0001
0100
,  // measure 15
0001
0001
0010
0010
,  // measure 16
0002
0003
1000
0100
,  // measure 17
2000
3000
0001
0100
,  // measure 18
0002
0003
2000
3000
,  // measure 19
0020
0030
0200
0300
,  // measure 20
0002
0003
0010
0100
,  // measure 21
2000
3000
0010
0100
,  // measure 22
0002
0003
2000
3000
,  // measure 23
0020
0030
0200
0301
,  // measure 24
1000
1000
0010
0100
,  // measure 25
0001
0001
0010
0100
,  // measure 26
2000
3000
0020
0030
,  // measure 27
0200
0300
0002
0003
,  // measure 28
1000
0001
0010
0100
,  // measure 29
1000
0001
0010
0100
,  // measure 30
2000
3000
0200
0300
,  // measure 31
0020
0030
0002
0003
,  // measure 32
1000
1000
0010
1000
,  // measure 33
0001
0001
0010
0001
,  // measure 34
2000
3000
0200
0300
,  // measure 35
0002
0003
0020
0030
,  // measure 36
1000
0001
0010
0001
,  // measure 37
1000
0001
0010
0001
,  // measure 38
2000
3000
0020
0030
,  // measure 39
0002
0003
0200
0300
,  // measure 40
1000
1000
0010
0001
,  // measure 41
1000
1000
0010
0001
,  // measure 42
2000
3000
0002
0003
,  // measure 43
0200
0300
2000
3100
,  // measure 44
0001
0001
0010
1000
,  // measure 45
0001
0001
0010
1000
,  // measure 46
0001
0100
0200
0300
,  // measure 47
2002
0000
0000
3003
,  // measure 48
2000
0000
3020
0000
,  // measure 49
0230
0000
0302
0003
,  // measure 50
2000
0000
3020
0000
,  // measure 51
0230
0000
0320
0030
,  // measure 52
2000
0000
3020
0000
,  // measure 53
0230
0000
0302
0003
,  // measure 54
0020
0000
0230
0000
,  // measure 55
0320
0000
0032
0000
,  // measure 56
2003
0000
3020
0000
,  // measure 57
0230
0000
0301
1000
,  // measure 58
0002
0000
0023
0000
,  // measure 59
0230
0000
0310
0100
,  // measure 60
2000
0000
3020
0000
,  // measure 61
0230
0000
0301
1000
,  // measure 62
0002
0000
0023
0000
,  // measure 63
0032
0000
1003
0010
,  // measure 64
2000
0000
0000
3000
,  // measure 65
0020
0000
0000
0130
,  // measure 66
0200
0000
0000
0300
,  // measure 67
0002
0003
2000
3000
,  // measure 68
0001
0001
0010
0100
,  // measure 69
1000
1000
0001
1000
,  // measure 70
0001
0001
0010
0100
,  // measure 71
1000
0001
1000
0001
,  // measure 72
2002
0000
0000
3003
;

//---------------dance-single - ----------------
#NOTEDATA:;
#CHARTNAME:;
#STEPSTYPE:dance-single;
#DESCRIPTION:;
#CHARTSTYLE:;
#DIFFICULTY:Medium;
#METER:5;
#RADARVALUES:0.340390,0.443050,0.144638,0.357790,0.000000,313.000000,294.000000,19.000000,47.000000,0.000000,0.000000,0.000000,0.000000,0.000000,0.340390,0.443050,0.144638,0.357790,0.000000,313.000000,294.000000,19.000000,47.000000,0.000000,0.000000,0.000000,0.000000,0.000000;
#CREDIT:;
#NOTES:
// measure 0
0000
0000
0000
0000
,  // measure 1
0000
0000
0000
0000
,  // measure 2
0000
0000
0000
0000
,  // measure 3
0000
0000
0000
0000
,  // measure 4
0000
1000
0000
1000
0000
1000
0000
1000
,  // measure 5
0000
0001
0000
0001
0000
0001
0000
0001
,  // measure 6
0000
0010
0000
0010
0000
0010
0000
0010
,  // measure 7
0200
0000
0000
0300
,  // measure 8
1001
0000
1000
0000
0001
0000
1000
0100
,  // measure 9
0001
0000
0001
0000
1000
0000
0001
0100
,  // measure 10
1000
0000
0001
0000
1000
0000
0001
0010
,  // measure 11
1000
0000
1000
0000
0001
0000
1000
0010
,  // measure 12
0001
0000
1000
0000
0010
0000
0100
0100
,  // measure 13
0001
0000
0001
0000
0010
0000
0100
0100
,  // measure 14
1000
0000
0001
0000
0010
0000
0100
1000
,  // measure 15
0001
0000
0001
0000
1000
0000
0010
0100
,  // measure 16
0001
0000
0001
0000
1000
0010
0100
0000
,  // measure 17
0001
0000
0001
0000
1000
0010
0100
0000
,  // measure 18
0001
0001
0010
0010
,  // measure 19
0100
0000
0100
0000
1000
0000
0001
0001
,  // measure 20
1000
0000
1000
0000
0001
0010
0100
0000
,  // measure 21
1000
0000
1000
0000
0001
0010
0100
0000
,  // measure 22
1000
1000
0010
0010
,  // measure 23
0100
0000
0100
0000
0001
0000
1000
0001
,  // measure 24
1000
0000
0001
0000
0100
0010
0100
0000
,  // measure 25
0001
0000
1000
0000
0100
0010
0100
0000
,  // measure 26
1000
1000
0001
0001
,  // measure 27
1000
0000
1000
0000
0001
0000
1000
0001
,  // measure 28
0001
0000
1000
0000
0010
0100
0010
0000
,  // measure 29
1000
0000
0001
0000
0010
0100
0010
0000
,  // measure 30
1000
0001
0001
1000
,  // measure 31
1000
0000
0001
0000
0001
0000
1000
0001
,  // measure 32
1000
0000
1010
0000
0010
0100
0001
0000
,  // measure 33
0001
0000
0011
0000
0010
0100
1000
0000
,  // measure 34
2000
3100
0200
0310
,  // measure 35
0020
0000
0031
0000
0200
0000
0310
1000
,  // measure 36
0001
0000
0101
0000
0100
0010
1000
0000
,  // measure 37
1000
0000
1100
0000
0100
0010
0001
0000
,  // measure 38
0002
0103
0200
0310
,  // measure 39
0020
0000
1030
0000
0200
0000
0310
0001
,  // measure 40
1000
0000
0110
0000
0001
0010
0100
0000
,  // measure 41
1000
0000
0110
0000
0001
0010
0100
0000
,  // measure 42
1000
0120
0031
0210
,  // measure 43
0301
0000
0021
0000
0130
0000
1000
0001
,  // measure 44
0100
0000
1001
0000
0100
0010
1000
0000
,  // measure 45
0010
0000
1001
0000
0100
0010
0001
1000
,  // measure 46
0010
1001
0101
0110
,  // measure 47
2002
0000
0000
3003
,  // measure 48
2000
0000
3200
0000
,  // measure 49
0320
0000
0000
0001
0031
0000
1000
0000
,  // measure 50
0002
0000
0023
0000
,  // measure 51
0230
0000
0000
1000
1300
0000
0001
0000
,  // measure 52
2000
0000
3020
0000
,  // measure 53
0230
0000
0000
0001
0301
0000
1000
0000
,  // measure 54
0002
0000
0023
0000
,  // measure 55
0230
0000
0000
0000
2300
0000
0000
3001
,  // measure 56
0020
0100
0230
1000
,  // measure 57
2300
0000
0000
0001
3001
0000
1000
0000
,  // measure 58
0020
0100
0230
0001
,  // measure 59
0302
0000
0000
0010
0013
0000
0100
0000
,  // measure 60
0020
0100
0230
1000
,  // measure 61
2300
0000
0000
0001
3001
0000
1000
0000
,  // measure 62
0020
0000
0230
0000
,  // measure 63
0320
0000
0000
0000
2030
0000
0000
3001
,  // measure 64
0020
0100
0100
0130
,  // measure 65
2000
0000
0001
0000
0001
0000
3001
0100
,  // measure 66
0200
0010
0010
0310
,  // measure 67
0010
2001
3010
1002
,  // measure 68
0013
0000
0010
0000
0100
0000
1000
1000
,  // measure 69
0001
0000
0001
0000
1000
0010
0100
0001
,  // measure 70
1000
0000
1000
0000
0100
1000
1000
0100
,  // measure 71
0010
0000
0001
1000
0100
0000
0010
0000
,  // measure 72
2002
0000
0000
3003
;

//---------------dance-single - ----------------
#NOTEDATA:;
#CHARTNAME:;
#STEPSTYPE:dance-single;
#DESCRIPTION:;
#CHARTSTYLE:;
#DIFFICULTY:Hard;
#METER:9;
#RADARVALUES:0.444791,0.581504,0.175089,0.479591,0.445334,409.000000,386.000000,23.000000,63.000000,0.000000,0.000000,0.000000,0.000000,0.000000,0.444791,0.581504,0.175089,0.479591,0.445334,409.000000,386.000000,23.000000,63.000000,0.000000,0.000000,0.000000,0.000000,0.000000;
#CREDIT:;
#NOTES:
// measure 0
0000
0000
0000
0000
,  // measure 1
0000
0000
0000
0000
,  // measure 2
0000
0000
0000
0000
,  // measure 3
0000
0000
0000
0000
,  // measure 4
0000
0000
1000
0000
0000
0000
0001
0000
0000
0000
0010
0000
0000
0100
0010
0000
,  // measure 5
0000
0001
0000
0010
0000
0100
0000
1000
,  // measure 6
0000
0000
0010
0000
0000
0000
0100
0000
0000
0000
0001
0000
0000
1000
0010
0000
,  // measure 7
2002
0000
0000
3003
,  // measure 8
0100
0000
0000
0010
0000
0000
0001
0000
0000
0001
0000
0000
1000
0000
0010
0000
,  // measure 9
0100
0000
0000
0010
0000
0000
1000
0000
0000
0001
0000
0000
0010
0000
0100
0000
,  // measure 10
0010
0000
0000
0001
0000
0000
1000
0000
0000
0100
0000
0000
0010
0000
0001
0000
,  // measure 11
1000
0000
0000
0010
0000
0000
0010
0000
0000
0100
0000
0000
0001
0000
1000
0000
,  // measure 12
0001
0000
0000
0001
0000
0000
0010
0000
0000
0100
0000
0000
1000
0000
0100
0000
,  // measure 13
1000
0000
0000
1000
0000
0000
0010
0000
0000
0100
0000
0000
0001
0000
0010
0000
,  // measure 14
0001
0000
0000
1000
0000
0000
1000
0000
0000
0010
0000
0000
0100
0000
0001
0000
,  // measure 15
0100
0000
0000
0100
0000
0000
0010
0000
0000
1000
0000
0001
0010
0000
0100
0000
,  // measure 16
2000
0000
0000
0000
3002
0000
0000
1003
0010
1000
0000
0100
0000
0000
0010
0000
,  // measure 17
0002
0000
0000
0000
2003
0000
0000
0000
3001
0010
0000
0100
0000
0000
1000
0000
,  // measure 18
0001
0000
0000
1000
0000
0000
0100
0000
0000
0010
0000
0100
0000
0000
1000
0000
,  // measure 19
0001
0000
0000
0010
0000
0000
0100
0000
0000
0010
0000
0001
0000
0000
1000
0000
,  // measure 20
0002
0000
0000
0000
2003
0000
0000
0000
3001
0010
0000
0001
0000
0000
1000
0000
,  // measure 21
2000
0000
0000
0000
3002
0000
0000
0000
1003
0010
0000
1000
0000
0000
0100
0000
,  // measure 22
0010
0000
0000
0001
0000
0000
1000
0000
0000
0010
0000
0100
0000
0000
0001
0000
,  // measure 23
1000
0000
0000
0001
0000
0000
0100
0000
0000
0010
0000
0100
0000
0000
0001
0000
,  // measure 24
2000
0000
0000
0000
3002
0000
0000
1003
0010
1000
0000
0100
0000
0000
1000
0000
,  // measure 25
2000
0000
0000
0000
3002
0000
0000
0000
1003
0010
0000
0100
0000
0000
0001
0000
,  // measure 26
1000
0000
0000
0100
0000
0000
1000
0000
0000
0001
0000
0100
0000
0000
0010
0000
,  // measure 27
1000
0000
0000
0001
0000
0000
0001
0000
0000
0010
0000
0100
0000
0000
1000
0000
,  // measure 28
0002
0000
0000
0000
2003
0000
0000
0000
3100
0010
0000
0100
0000
0000
1000
0000
,  // measure 29
2000
0000
0000
0000
3002
0000
0000
0000
0103
0010
0000
0100
0000
0000
0001
0000
,  // measure 30
1000
0000
0000
0010
0000
0000
0010
0000
0000
0100
0000
0100
0000
0000
0001
0000
,  // measure 31
0010
0000
0000
0001
0000
0000
0010
0000
0000
0100
0000
1000
0000
0000
0001
0000
,  // measure 32
2000
0000
0000
0000
3002
0000
0000
1003
0010
0100
0000
0010
0000
0000
1000
0000
,  // measure 33
0002
0000
0000
0000
2003
0000
0000
0000
3001
0010
0000
0100
0000
0000
1000
0000
,  // measure 34
0001
0000
0000
1001
0000
0000
1000
0000
0000
0100
0000
0010
0000
0000
0001
0000
,  // measure 35
0010
0000
0000
0110
0000
0000
0100
0000
0000
1000
0000
0001
0000
0000
1000
0000
,  // measure 36
0020
0000
0000
0000
0230
0000
0000
0000
0301
0010
0000
0100
0000
0000
1000
0000
,  // measure 37
0020
0000
0000
0000
0230
0000
0000
0000
0301
1000
0000
0100
0000
0000
1000
0000
,  // measure 38
0001
0000
0000
0011
0000
0000
0010
0000
0000
0100
0000
1000
0000
0000
0001
0000
,  // measure 39
1000
0000
0000
1010
0000
0000
0010
0000
0000
0100
0000
0001
0000
0000
0100
0000
,  // measure 40
1001
0000
0000
0000
0200
0000
0000
0301
0010
0001
0000
1000
0000
0000
0001
0000
,  // measure 41
1001
0000
0000
0000
0002
0000
0000
0000
0103
0010
0000
0100
0000
0000
0001
0000
,  // measure 42
1000
0000
0000
0110
0000
0000
0001
0000
0000
1000
0000
1000
0000
0000
0001
0000
,  // measure 43
0010
0000
0000
0010
0000
0000
0100
0000
0000
1000
0000
1000
0000
0000
0001
0000
,  // measure 44
0110
0000
0000
0000
2000
0000
0000
0000
3001
0010
0000
1100
0000
0000
1000
0000
,  // measure 45
0110
0000
0000
0000
0002
0000
0000
0000
1003
0010
0000
0101
0000
0000
0001
0000
,  // measure 46
0010
0000
0000
1001
0000
0000
0100
0000
0000
0010
0000
0100
0000
0000
0110
0000
,  // measure 47
2002
0000
0000
3003
,  // measure 48
0002
1000
0023
1000
,  // measure 49
0230
0000
0000
1000
1300
0001
1000
0000
,  // measure 50
0020
1000
0230
0001
,  // measure 51
0302
0000
0000
0010
0013
0100
1000
0001
,  // measure 52
2000
0001
3020
0001
,  // measure 53
0230
0000
0000
0001
0301
1000
0001
0000
,  // measure 54
0020
1000
0230
0001
,  // measure 55
0320
0000
1000
0000
0032
0000
0000
1003
,  // measure 56
0020
1000
1000
0000
0230
0001
0001
0000
,  // measure 57
2300
0000
0000
0001
3001
0010
0100
1000
,  // measure 58
0002
1000
1000
0000
0023
1000
1000
0000
,  // measure 59
0230
0000
0000
0010
0310
0000
1001
0000
,  // measure 60
2000
0001
0001
0000
3020
0001
0001
0000
,  // measure 61
0230
0000
0000
0001
0301
1000
0001
1000
,  // measure 62
0020
1000
1000
0000
0230
0001
0001
0000
,  // measure 63
0302
0010
0010
0000
0023
0000
0000
0130
,  // measure 64
2000
0000
0000
0001
0000
0000
0001
0000
0000
0001
0000
0000
3001
0000
0010
0000
,  // measure 65
0200
0000
0000
1000
0000
0000
1000
0000
0000
1000
0000
0000
1300
0000
0001
0000
,  // measure 66
0002
0000
0000
0010
0000
0000
0010
0000
0000
0010
0000
0000
0013
0000
0100
0000
,  // measure 67
1000
0000
0000
1000
0000
0000
0010
0000
0000
0010
0000
0000
0100
0000
0001
0000
,  // measure 68
1000
0000
0000
1000
0000
0000
0001
0000
0000
0010
0000
0000
0001
0000
0100
0000
,  // measure 69
0001
0000
0000
0010
0000
0000
0100
0000
0000
0100
0000
0000
1000
0000
0001
0000
,  // measure 70
0010
0000
0000
1001
0000
0000
0100
0000
0000
1100
0000
0000
1000
0000
0001
0000
,  // measure 71
1001
0000
0000
0100
0000
0000
1100
0000
0000
1001
0000
1000
0001
0000
0110
0000
,  // measure 72
2002
0000
0000
3003
;
